  0
SECTION
  2
HEADER
  9
$ACADVER
  1
AC1018
  9
$ACADMAINTVER
 70
     0
  9
$DWGCODEPAGE
  3
ANSI_1252
  9
$INSBASE
 10
0.0
 20
0.0
 30
0.0
  9
$EXTMIN
 10
0.0
 20
0.0
 30
0.0
  9
$EXTMAX
 10
2970.0
 20
2100.0
 30
0.0
  9
$LIMMIN
 10
0.0
 20
0.0
  9
$LIMMAX
 10
2970.0
 20
2100.0
  9
$ORTHOMODE
 70
     0
  9
$REGENMODE
 70
     1
  9
$FILLMODE
 70
     1
  9
$QTEXTMODE
 70
     0
  9
$MIRRTEXT
 70
     1
  9
$LTSCALE
 40
10.0
  9
$ATTMODE
 70
     1
  9
$TEXTSIZE
 40
35.0
  9
$TRACEWID
 40
1.0
  9
$TEXTSTYLE
  7
Standard
  9
$CLAYER
  8
0
  9
$CELTYPE
  6
ByLayer
  9
$CECOLOR
 62
   256
  9
$CELTSCALE
 40
1.0
  9
$DISPSILH
 70
     0
  9
$DIMSCALE
 40
1.0
  9
$DIMASZ
 40
33.02
  9
$DIMEXO
 40
10.0
  9
$DIMDLI
 40
3.75
  9
$DIMRND
 40
0.0
  9
$DIMDLE
 40
0.0
  9
$DIMEXE
 40
10.0
  9
$DIMTP
 40
0.0
  9
$DIMTM
 40
0.0
  9
$DIMTXT
 40
35.0
  9
$DIMCEN
 40
2.5
  9
$DIMTSZ
 40
0.0
  9
$DIMTOL
 70
     0
  9
$DIMLIM
 70
     0
  9
$DIMTIH
 70
     1
  9
$DIMTOH
 70
     1
  9
$DIMSE1
 70
     0
  9
$DIMSE2
 70
     0
  9
$DIMTAD
 70
     1
  9
$DIMZIN
 70
     0
  9
$DIMBLK
  1

  9
$DIMASO
 70
     1
  9
$DIMSHO
 70
     1
  9
$DIMPOST
  1

  9
$DIMAPOST
  1

  9
$DIMALT
 70
     0
  9
$DIMALTD
 70
     3
  9
$DIMALTF
 40
0.0393700787
  9
$DIMLFAC
 40
1.0
  9
$DIMTOFL
 70
     1
  9
$DIMTVP
 40
0.0
  9
$DIMTIX
 70
     0
  9
$DIMSOXD
 70
     0
  9
$DIMSAH
 70
     0
  9
$DIMBLK1
  1

  9
$DIMBLK2
  1

  9
$DIMSTYLE
  2
ISO-25
  9
$DIMCLRD
 70
     0
  9
$DIMCLRE
 70
     0
  9
$DIMCLRT
 70
     0
  9
$DIMTFAC
 40
1.0
  9
$DIMGAP
 40
15.24
  9
$DIMJUST
 70
     0
  9
$DIMSD1
 70
     0
  9
$DIMSD2
 70
     0
  9
$DIMTOLJ
 70
     0
  9
$DIMTZIN
 70
     0
  9
$DIMALTZ
 70
     0
  9
$DIMALTTZ
 70
     0
  9
$DIMUPT
 70
     0
  9
$DIMDEC
 70
     2
  9
$DIMTDEC
 70
     2
  9
$DIMALTU
 70
     2
  9
$DIMALTTD
 70
     3
  9
$DIMTXSTY
  7
Standard
  9
$DIMAUNIT
 70
     0
  9
$DIMADEC
 70
     2
  9
$DIMALTRND
 40
0.0
  9
$DIMAZIN
 70
     0
  9
$DIMDSEP
 70
    44
  9
$DIMATFIT
 70
     3
  9
$DIMFRAC
 70
     0
  9
$DIMLDRBLK
  1

  9
$DIMLUNIT
 70
     2
  9
$DIMLWD
 70
    -2
  9
$DIMLWE
 70
    -2
  9
$DIMTMOVE
 70
     0
  9
$LUNITS
 70
     2
  9
$LUPREC
 70
     2
  9
$SKETCHINC
 40
1.0
  9
$FILLETRAD
 40
10.0
  9
$AUNITS
 70
     0
  9
$AUPREC
 70
     2
  9
$MENU
  1
.
  9
$ELEVATION
 40
0.0
  9
$PELEVATION
 40
0.0
  9
$THICKNESS
 40
0.0
  9
$LIMCHECK
 70
     0
  9
$CHAMFERA
 40
10.0
  9
$CHAMFERB
 40
10.0
  9
$CHAMFERC
 40
20.0
  9
$CHAMFERD
 40
0.0
  9
$SKPOLY
 70
     0
  9
$TDCREATE
 40
2456941.63638882
  9
$TDUCREATE
 40
2456941.594722153
  9
$TDUPDATE
 40
2456941.636389364
  9
$TDUUPDATE
 40
2456941.594722697
  9
$TDINDWG
 40
0.0000000116
  9
$TDUSRTIMER
 40
0.0000000116
  9
$USRTIMER
 70
     1
  9
$ANGBASE
 50
0.0
  9
$ANGDIR
 70
     0
  9
$PDMODE
 70
     0
  9
$PDSIZE
 40
-1.0
  9
$PLINEWID
 40
0.0
  9
$SPLFRAME
 70
     0
  9
$SPLINETYPE
 70
     6
  9
$SPLINESEGS
 70
     8
  9
$HANDSEED
  5
419
  9
$SURFTAB1
 70
     6
  9
$SURFTAB2
 70
     6
  9
$SURFTYPE
 70
     6
  9
$SURFU
 70
     6
  9
$SURFV
 70
     6
  9
$UCSBASE
  2

  9
$UCSNAME
  2

  9
$UCSORG
 10
0.0
 20
0.0
 30
0.0
  9
$UCSXDIR
 10
1.0
 20
0.0
 30
0.0
  9
$UCSYDIR
 10
0.0
 20
1.0
 30
0.0
  9
$UCSORTHOREF
  2

  9
$UCSORTHOVIEW
 70
     0
  9
$UCSORGTOP
 10
0.0
 20
0.0
 30
0.0
  9
$UCSORGBOTTOM
 10
0.0
 20
0.0
 30
0.0
  9
$UCSORGLEFT
 10
0.0
 20
0.0
 30
0.0
  9
$UCSORGRIGHT
 10
0.0
 20
0.0
 30
0.0
  9
$UCSORGFRONT
 10
0.0
 20
0.0
 30
0.0
  9
$UCSORGBACK
 10
0.0
 20
0.0
 30
0.0
  9
$PUCSBASE
  2

  9
$PUCSNAME
  2

  9
$PUCSORG
 10
0.0
 20
0.0
 30
0.0
  9
$PUCSXDIR
 10
1.0
 20
0.0
 30
0.0
  9
$PUCSYDIR
 10
0.0
 20
1.0
 30
0.0
  9
$PUCSORTHOREF
  2

  9
$PUCSORTHOVIEW
 70
     0
  9
$PUCSORGTOP
 10
0.0
 20
0.0
 30
0.0
  9
$PUCSORGBOTTOM
 10
0.0
 20
0.0
 30
0.0
  9
$PUCSORGLEFT
 10
0.0
 20
0.0
 30
0.0
  9
$PUCSORGRIGHT
 10
0.0
 20
0.0
 30
0.0
  9
$PUCSORGFRONT
 10
0.0
 20
0.0
 30
0.0
  9
$PUCSORGBACK
 10
0.0
 20
0.0
 30
0.0
  9
$USERI1
 70
     0
  9
$USERI2
 70
     0
  9
$USERI3
 70
     0
  9
$USERI4
 70
     0
  9
$USERI5
 70
     0
  9
$USERR1
 40
0.0
  9
$USERR2
 40
0.0
  9
$USERR3
 40
0.0
  9
$USERR4
 40
0.0
  9
$USERR5
 40
0.0
  9
$WORLDVIEW
 70
     1
  9
$SHADEDGE
 70
     3
  9
$SHADEDIF
 70
    70
  9
$TILEMODE
 70
     1
  9
$MAXACTVP
 70
    64
  9
$PINSBASE
 10
0.0
 20
0.0
 30
0.0
  9
$PLIMCHECK
 70
     0
  9
$PEXTMIN
 10
1.0000000000E+20
 20
1.0000000000E+20
 30
1.0000000000E+20
  9
$PEXTMAX
 10
-1.0000000000E+20
 20
-1.0000000000E+20
 30
-1.0000000000E+20
  9
$PLIMMIN
 10
0.0
 20
0.0
  9
$PLIMMAX
 10
420.0
 20
297.0
  9
$UNITMODE
 70
     0
  9
$VISRETAIN
 70
     1
  9
$PLINEGEN
 70
     0
  9
$PSLTSCALE
 70
     1
  9
$TREEDEPTH
 70
  3020
  9
$CMLSTYLE
  2
Standard
  9
$CMLJUST
 70
     0
  9
$CMLSCALE
 40
20.0
  9
$PROXYGRAPHICS
 70
     1
  9
$MEASUREMENT
 70
     1
  9
$CELWEIGHT
370
    -1
  9
$ENDCAPS
280
     0
  9
$JOINSTYLE
280
     0
  9
$LWDISPLAY
290
     1
  9
$INSUNITS
 70
     4
  9
$HYPERLINKBASE
  1

  9
$STYLESHEET
  1

  9
$XEDIT
290
     1
  9
$CEPSNTYPE
380
     0
  9
$PSTYLEMODE
290
     1
  9
$FINGERPRINTGUID
  2
{C450C730-EF2D-4937-B2F9-80286952C250}
  9
$VERSIONGUID
  2
{FAEB1C32-E019-11D5-929B-00C0DF256EC4}
  9
$EXTNAMES
290
     1
  9
$PSVPSCALE
 40
0.0
  9
$OLESTARTUP
290
     0
  9
$SORTENTS
280
   127
  9
$INDEXCTL
280
     0
  9
$HIDETEXT
280
     1
  9
$XCLIPFRAME
290
     0
  9
$HALOGAP
280
     0
  9
$OBSCOLOR
 70
   257
  9
$OBSLTYPE
280
     0
  9
$INTERSECTIONDISPLAY
280
     0
  9
$INTERSECTIONCOLOR
 70
   257
  9
$DIMASSOC
280
     2
  9
$PROJECTNAME
  1

  0
ENDSEC
  0
SECTION
  2
CLASSES
  0
CLASS
  1
ACDBDICTIONARYWDFLT
  2
AcDbDictionaryWithDefault
  3
ObjectDBX Classes
 90
        0
 91
        4
280
     0
281
     0
  0
CLASS
  1
VISUALSTYLE
  2
AcDbVisualStyle
  3
ObjectDBX Classes
 90
     4095
 91
        4
280
     0
281
     0
  0
CLASS
  1
MATERIAL
  2
AcDbMaterial
  3
ObjectDBX Classes
 90
     1153
 91
        4
280
     0
281
     0
  0
ENDSEC
  0
SECTION
  2
TABLES
  0
TABLE
  2
VPORT
  5
8
330
0
100
AcDbSymbolTable
 70
     1
  0
VPORT
  5
29
330
8
100
AcDbSymbolTableRecord
100
AcDbViewportTableRecord
  2
*Active
 70
     0
 10
0.0
 20
0.0
 11
1.0
 21
1.0
 12
1485.0
 22
1050.0
 13
0.0
 23
0.0
 14
10.0
 24
10.0
 15
10.0
 25
10.0
 16
0.0
 26
0.0
 36
1.0
 17
0.0
 27
0.0
 37
0.0
 40
2100.0
 41
1.4142857143
 42
50.0
 43
0.0
 44
0.0
 50
0.0
 51
0.0
 71
     0
 72
  2000
 73
     1
 74
     3
 75
     0
 76
     0
 77
     0
 78
     0
281
     0
 65
     1
110
0.0
120
0.0
130
0.0
111
1.0
121
0.0
131
0.0
112
0.0
122
1.0
132
0.0
 79
     0
146
0.0
  0
ENDTAB
  0
TABLE
  2
LTYPE
  5
5
330
0
100
AcDbSymbolTable
 70
     6
  0
LTYPE
  5
14
330
5
100
AcDbSymbolTableRecord
100
AcDbLinetypeTableRecord
  2
ByBlock
 70
     0
  3

 72
    65
 73
     0
 40
0.0
  0
LTYPE
  5
15
330
5
100
AcDbSymbolTableRecord
100
AcDbLinetypeTableRecord
  2
ByLayer
 70
     0
  3

 72
    65
 73
     0
 40
0.0
  0
LTYPE
  5
16
330
5
100
AcDbSymbolTableRecord
100
AcDbLinetypeTableRecord
  2
Continuous
 70
     0
  3
Solid line
 72
    65
 73
     0
 40
0.0
  0
LTYPE
  5
3F
330
5
100
AcDbSymbolTableRecord
100
AcDbLinetypeTableRecord
  2
HIDDEN
 70
     0
  3
Hidden __ __ __ __ __ __ __ __ __ __ __ __ __ __
 72
    65
 73
     2
 40
1.905
 49
1.27
 74
     0
 49
-0.635
 74
     0
  0
LTYPE
  5
40
330
5
100
AcDbSymbolTableRecord
100
AcDbLinetypeTableRecord
  2
PHANTOM
 70
     0
  3
Phantom ______  __  __  ______  __  __  ______
 72
    65
 73
     6
 40
12.7
 49
6.35
 74
     0
 49
-1.27
 74
     0
 49
1.27
 74
     0
 49
-1.27
 74
     0
 49
1.27
 74
     0
 49
-1.27
 74
     0
  0
LTYPE
  5
41
330
5
100
AcDbSymbolTableRecord
100
AcDbLinetypeTableRecord
  2
CENTER
 70
     0
  3
Center ____ _ ____ _ ____ _ ____ _ ____ _ ____
 72
    65
 73
     4
 40
10.16
 49
6.35
 74
     0
 49
-1.27
 74
     0
 49
1.27
 74
     0
 49
-1.27
 74
     0
  0
LTYPE
  5
42
330
5
100
AcDbSymbolTableRecord
100
AcDbLinetypeTableRecord
  2
CENTERX2
 70
     0
  3
Center (2x) ________  __  ________  __  _____
 72
    65
 73
     4
 40
20.32
 49
12.7
 74
     0
 49
-2.54
 74
     0
 49
2.54
 74
     0
 49
-2.54
 74
     0
  0
LTYPE
  5
43
330
5
100
AcDbSymbolTableRecord
100
AcDbLinetypeTableRecord
  2
DOT2
 70
     0
  3
Dot (.5x) ........................................
 72
    65
 73
     2
 40
0.635
 49
0.0
 74
     0
 49
-0.635
 74
     0
  0
ENDTAB
  0
TABLE
  2
LAYER
  5
2
330
0
100
AcDbSymbolTable
 70
     3
  0
LAYER
  5
10
330
2
100
AcDbSymbolTableRecord
100
AcDbLayerTableRecord
  2
0
 70
     0
 62
     7
  6
Continuous
370
    -3
390
F
  0
LAYER
  5
44
330
2
100
AcDbSymbolTableRecord
100
AcDbLayerTableRecord
  2
MEDIÇÕES
 70
     0
 62
     7
  6
Continuous
370
    -3
390
F
  0
LAYER
  5
45
330
2
100
AcDbSymbolTableRecord
100
AcDbLayerTableRecord
  2
ACABAMENTO
 70
     0
 62
     7
  6
Continuous
370
    80
390
F
  0
ENDTAB
  0
TABLE
  2
STYLE
  5
3
330
0
100
AcDbSymbolTable
 70
     4
  0
STYLE
  5
11
330
3
100
AcDbSymbolTableRecord
100
AcDbTextStyleTableRecord
  2
Standard
 70
     0
 40
0.0
 41
1.0
 50
0.0
 71
     0
 42
35.0
  3
txt
  4

  0
STYLE
  5
111
330
3
100
AcDbSymbolTableRecord
100
AcDbTextStyleTableRecord
  2
SLDTEXTSTYLE0
 70
     0
 40
0.0
 41
0.6875
 50
0.0
 71
     0
 42
0.2
  3
TXT
  4

  0
STYLE
  5
113
330
3
100
AcDbSymbolTableRecord
100
AcDbTextStyleTableRecord
  2
SLDTEXTSTYLE1
 70
     0
 40
0.0
 41
0.75
 50
0.0
 71
     0
 42
0.2
  3
TXT
  4

  0
STYLE
  5
115
330
3
100
AcDbSymbolTableRecord
100
AcDbTextStyleTableRecord
  2
SLDTEXTSTYLE2
 70
     0
 40
0.0
 41
0.605
 50
0.0
 71
     0
 42
0.2
  3
TXT
  4

  0
ENDTAB
  0
TABLE
  2
VIEW
  5
6
330
0
100
AcDbSymbolTable
 70
     0
  0
ENDTAB
  0
TABLE
  2
UCS
  5
7
330
0
100
AcDbSymbolTable
 70
     0
  0
ENDTAB
  0
TABLE
  2
APPID
  5
9
330
0
100
AcDbSymbolTable
 70
     1
  0
APPID
  5
12
330
9
100
AcDbSymbolTableRecord
100
AcDbRegAppTableRecord
  2
ACAD
 70
     0
  0
ENDTAB
  0
TABLE
  2
DIMSTYLE
  5
A
330
0
100
AcDbSymbolTable
 70
     3
100
AcDbDimStyleTable
  0
DIMSTYLE
105
27
330
A
100
AcDbSymbolTableRecord
100
AcDbDimStyleTableRecord
  2
ISO-25
 70
     0
 41
2.5
 42
0.625
 43
3.75
 44
1.25
 73
     0
 74
     0
 77
     1
 78
     8
140
2.5
141
2.5
143
0.0393700787
147
0.625
171
     3
172
     1
178
     0
271
     2
272
     2
274
     3
278
    44
283
     0
284
     8
340
11
  0
DIMSTYLE
105
182
102
{ACAD_REACTORS
330
181
330
299
102
}
330
A
100
AcDbSymbolTableRecord
100
AcDbDimStyleTableRecord
  2
SLDDIMSTYLE0
 70
     0
 41
33.02
 44
0.0
 45
0.000000001
 73
     0
 74
     0
 77
     1
 78
    12
 79
     3
140
35.0
147
8.75
173
     1
178
     0
271
     0
272
     0
276
     2
284
    12
340
113
  0
DIMSTYLE
105
2FE
102
{ACAD_REACTORS
330
2FD
102
}
330
A
100
AcDbSymbolTableRecord
100
AcDbDimStyleTableRecord
  2
SLDDIMSTYLE1
 70
     0
 41
33.02
 44
0.0
 45
0.000000001
 73
     0
 74
     0
 77
     1
 78
    12
 79
     3
140
35.0
147
8.75
173
     1
178
     0
271
     2
272
     2
276
     2
284
    12
340
113
  0
ENDTAB
  0
TABLE
  2
BLOCK_RECORD
  5
1
330
0
100
AcDbSymbolTable
 70
     5
  0
BLOCK_RECORD
  5
1F
330
1
100
AcDbSymbolTableRecord
100
AcDbBlockTableRecord
  2
*Model_Space
340
22
  0
BLOCK_RECORD
  5
1B
330
1
100
AcDbSymbolTableRecord
100
AcDbBlockTableRecord
  2
*Paper_Space
340
1E
  0
BLOCK_RECORD
  5
23
330
1
100
AcDbSymbolTableRecord
100
AcDbBlockTableRecord
  2
*Paper_Space0
340
26
  0
BLOCK_RECORD
  5
46
330
1
100
AcDbSymbolTableRecord
100
AcDbBlockTableRecord
  2
Logo_Next.V3
340
0
102
{BLKREFS
331
110
102
}
  0
BLOCK_RECORD
  5
183
330
1
100
AcDbSymbolTableRecord
100
AcDbBlockTableRecord
  2
_D
340
0
  0
BLOCK_RECORD
  5
29A
330
1
100
AcDbSymbolTableRecord
100
AcDbBlockTableRecord
  2
_D_1
340
0
  0
BLOCK_RECORD
  5
2FF
330
1
100
AcDbSymbolTableRecord
100
AcDbBlockTableRecord
  2
_D_2
340
0
  0
ENDTAB
  0
ENDSEC
  0
SECTION
  2
BLOCKS
  0
BLOCK
  5
20
330
1F
100
AcDbEntity
  8
0
100
AcDbBlockBegin
  2
*Model_Space
 70
     0
 10
0.0
 20
0.0
 30
0.0
  3
*Model_Space
  1

  0
ENDBLK
  5
21
330
1F
100
AcDbEntity
  8
0
100
AcDbBlockEnd
  0
BLOCK
  5
1C
330
1B
100
AcDbEntity
 67
     1
  8
0
100
AcDbBlockBegin
  2
*Paper_Space
 70
     0
 10
0.0
 20
0.0
 30
0.0
  3
*Paper_Space
  1

  0
ENDBLK
  5
1D
330
1B
100
AcDbEntity
 67
     1
  8
0
100
AcDbBlockEnd
  0
BLOCK
  5
24
330
23
100
AcDbEntity
  8
0
100
AcDbBlockBegin
  2
*Paper_Space0
 70
     0
 10
0.0
 20
0.0
 30
0.0
  3
*Paper_Space0
  1

  0
ENDBLK
  5
25
330
23
100
AcDbEntity
  8
0
100
AcDbBlockEnd
  0
BLOCK
  5
47
330
46
100
AcDbEntity
  8
0
100
AcDbBlockBegin
  2
Logo_Next.V3
 70
     0
 10
0.0
 20
0.0
 30
0.0
  3
Logo_Next.V3
  1

  0
ARC
  5
49
330
46
100
AcDbEntity
  8
0
  6
Continuous
 62
     7
370
     0
100
AcDbCircle
 10
-1587.1800722805
 20
422.6709638731
 30
0.0
 40
35.62761368349867
100
AcDbArc
 50
33.8993301947
 51
90.0
  0
ARC
  5
4A
330
46
100
AcDbEntity
  8
0
  6
Continuous
 62
     7
370
     0
100
AcDbCircle
 10
-1131.6851711632
 20
422.6709638731
 30
0.0
 40
35.6276136834984
100
AcDbArc
 50
90.0
 51
180.0
  0
ARC
  5
4B
330
46
100
AcDbEntity
  8
0
  6
Continuous
 62
     7
370
     0
100
AcDbCircle
 10
-883.6670100843
 20
422.6709638731
 30
0.0
 40
35.62761368349868
100
AcDbArc
 50
0.0
 51
90.0
  0
ARC
  5
4C
330
46
100
AcDbEntity
  8
0
  6
Continuous
 62
     7
370
     0
100
AcDbCircle
 10
-883.6670100843
 20
-422.6709638716
 30
0.0
 40
35.62761368349857
100
AcDbArc
 50
270.0
 51
0.0
  0
ARC
  5
4D
330
46
100
AcDbEntity
  8
0
  6
Continuous
 62
     7
370
     0
100
AcDbCircle
 10
-1213.6286423958
 20
-422.6709638716
 30
0.0
 40
35.62761368349845
100
AcDbArc
 50
215.8239333713
 51
270.0
  0
ARC
  5
4E
330
46
100
AcDbEntity
  8
0
  6
Continuous
 62
     7
370
     0
100
AcDbCircle
 10
-1700.7949027296
 20
-422.6709638716
 30
0.0
 40
35.62761368349834
100
AcDbArc
 50
270.0
 51
0.0
  0
ARC
  5
4F
330
46
100
AcDbEntity
  8
0
  6
Continuous
 62
     7
370
     0
100
AcDbCircle
 10
-1775.2437764562
 20
-437.8290234302
 30
0.0
 40
20.46955412487762
100
AcDbArc
 50
180.0
 51
270.0
  0
ARC
  5
50
330
46
100
AcDbEntity
  8
0
  6
Continuous
 62
     7
370
     0
100
AcDbCircle
 10
-1775.2437764562
 20
437.8290234317
 30
0.0
 40
20.46955412487785
100
AcDbArc
 50
90.0
 51
180.0
  0
ARC
  5
51
330
46
100
AcDbEntity
  8
0
  6
Continuous
 62
     7
370
     0
100
AcDbCircle
 10
273.7504665449
 20
598.8614812289
 30
0.0
 40
35.62761368349846
100
AcDbArc
 50
38.8556584896
 51
105.8183764148
  0
ARC
  5
52
330
46
100
AcDbEntity
  8
0
  6
Continuous
 62
     7
370
     0
100
AcDbCircle
 10
604.2801104592
 20
693.8639124127
 30
0.0
 40
35.62761368349815
100
AcDbArc
 50
106.1668587455
 51
171.8012460536
  0
ARC
  5
53
330
46
100
AcDbEntity
  8
0
  6
Continuous
 62
     7
370
     0
100
AcDbCircle
 10
905.7459044969
 20
781.2587603884
 30
0.0
 40
35.62761368349857
100
AcDbArc
 50
347.4974268902
 51
106.1668587455
  0
ARC
  5
54
330
46
100
AcDbEntity
  8
0
  6
Continuous
 62
     7
370
     0
100
AcDbCircle
 10
978.923471261
 20
291.6141658775
 30
0.0
 40
35.62761368350721
100
AcDbArc
 50
180.0
 51
270.0
  0
ARC
  5
55
330
46
100
AcDbEntity
  8
0
  6
Continuous
 62
     7
370
     0
100
AcDbCircle
 10
978.923471261
 20
422.5043183007
 30
0.0
 40
35.62761368352926
100
AcDbArc
 50
90.0
 51
180.0
  0
ARC
  5
56
330
46
100
AcDbEntity
  8
0
  6
Continuous
 62
     7
370
     0
100
AcDbCircle
 10
1774.8734010732
 20
437.6623778593
 30
0.0
 40
20.46955412487767
100
AcDbArc
 50
0.0
 51
90.0
  0
ARC
  5
57
330
46
100
AcDbEntity
  8
0
  6
Continuous
 62
     7
370
     0
100
AcDbCircle
 10
1774.8734010732
 20
276.8465881355
 30
0.0
 40
20.46955412487756
100
AcDbArc
 50
270.0
 51
0.0
  0
ARC
  5
58
330
46
100
AcDbEntity
  8
0
  6
Continuous
 62
     7
370
     0
100
AcDbCircle
 10
1586.1281146836
 20
-423.5855275187
 30
0.0
 40
35.62761368349857
100
AcDbArc
 50
270.0
 51
0.0
  0
ARC
  5
59
330
46
100
AcDbEntity
  8
0
  6
Continuous
 62
     7
370
     0
100
AcDbCircle
 10
997.8332858737
 20
-580.3602954418
 30
0.0
 40
35.62761368353062
100
AcDbArc
 50
219.5992848036
 51
286.1919412867
  0
ARC
  5
5A
330
46
100
AcDbEntity
  8
0
  6
Continuous
 62
     7
370
     0
100
AcDbCircle
 10
598.2914840963
 20
-693.766887036
 30
0.0
 40
35.62761368349779
100
AcDbArc
 50
286.0985506514
 51
351.7882282766
  0
ARC
  5
5B
330
46
100
AcDbEntity
  8
0
  6
Continuous
 62
     7
370
     0
100
AcDbCircle
 10
278.1330387818
 20
-786.1671005913
 30
0.0
 40
35.62761368352944
100
AcDbArc
 50
166.6872067774
 51
286.0985506513
  0
ARC
  5
5C
330
46
100
AcDbEntity
  8
0
  6
Continuous
 62
     7
370
     0
100
AcDbCircle
 10
63.5912815337
 20
73.5879902946
 30
0.0
 40
35.62761368350465
100
AcDbArc
 50
0.0
 51
90.0
  0
ARC
  5
5D
330
46
100
AcDbEntity
  8
0
  6
Continuous
 62
     7
370
     0
100
AcDbCircle
 10
63.5912815337
 20
-51.5698150553
 30
0.0
 40
35.62761368350699
100
AcDbArc
 50
270.0
 51
0.0
  0
ARC
  5
5E
330
46
100
AcDbEntity
  8
0
  6
Continuous
 62
     7
370
     0
100
AcDbCircle
 10
219.1309173284
 20
-287.598587012
 30
0.0
 40
35.62761368349848
100
AcDbArc
 50
0.0
 51
90.0
  0
ARC
  5
5F
330
46
100
AcDbEntity
  8
0
  6
Continuous
 62
     7
370
     0
100
AcDbCircle
 10
219.1309173284
 20
-423.7014330253
 30
0.0
 40
35.6276136834864
100
AcDbArc
 50
270.0
 51
0.0
  0
ARC
  5
60
330
46
100
AcDbEntity
  8
0
  6
Continuous
 62
     7
370
     0
100
AcDbCircle
 10
-716.7680027826
 20
-423.7014330253
 30
0.0
 40
35.62761368349868
100
AcDbArc
 50
180.0
 51
270.0
  0
ARC
  5
61
330
46
100
AcDbEntity
  8
0
  6
Continuous
 62
     7
370
     0
100
AcDbCircle
 10
-716.7680027826
 20
423.1800330044
 30
0.0
 40
35.62761368351687
100
AcDbArc
 50
90.0
 51
180.0
  0
ARC
  5
62
330
46
100
AcDbEntity
  8
0
  6
Continuous
 62
     7
370
     0
100
AcDbCircle
 10
751.1693702587
 20
84.1572284311
 30
0.0
 40
75.62761368389583
100
AcDbArc
 50
167.4974268903
 51
224.796493861
  0
ARC
  5
63
330
46
100
AcDbEntity
  8
0
  6
Continuous
 62
     7
370
     0
100
AcDbCircle
 10
671.5727689264
 20
-185.9690548709
 30
0.0
 40
75.62761368389594
100
AcDbArc
 50
39.5992848035
 51
171.7882282765
  0
ARC
  5
64
330
46
100
AcDbEntity
  8
0
  6
Continuous
 62
     7
370
     0
100
AcDbCircle
 10
464.4284846463
 20
1.1328478898
 30
0.0
 40
75.62761368391911
100
AcDbArc
 50
346.6872067774
 51
44.28188045
  0
ARC
  5
65
330
46
100
AcDbEntity
  8
0
  6
Continuous
 62
     7
370
     0
100
AcDbCircle
 10
542.5238335845
 20
265.2390096659
 30
0.0
 40
75.62761368389592
100
AcDbArc
 50
218.8556584896
 51
351.8012460535
  0
ARC
  5
66
330
46
100
AcDbEntity
  8
0
  6
Continuous
 62
     7
370
     0
100
AcDbCircle
 10
-883.6670100843
 20
-422.6709638716
 30
0.0
 40
55.6276136836683
100
AcDbArc
 50
270.0
 51
0.0
  0
ARC
  5
67
330
46
100
AcDbEntity
  8
0
  6
Continuous
 62
     7
370
     0
100
AcDbCircle
 10
-1213.6286423958
 20
-422.6709638716
 30
0.0
 40
55.62761368366832
100
AcDbArc
 50
215.8239333713
 51
270.0
  0
ARC
  5
68
330
46
100
AcDbEntity
  8
0
  6
Continuous
 62
     7
370
     0
100
AcDbCircle
 10
-1700.7949027296
 20
-422.6709638716
 30
0.0
 40
55.62761368366824
100
AcDbArc
 50
270.0
 51
0.0
  0
ARC
  5
69
330
46
100
AcDbEntity
  8
0
  6
Continuous
 62
     7
370
     0
100
AcDbCircle
 10
-1775.2437764562
 20
-437.8290234302
 30
0.0
 40
40.46955412504764
100
AcDbArc
 50
180.0
 51
270.0
  0
ARC
  5
6A
330
46
100
AcDbEntity
  8
0
  6
Continuous
 62
     7
370
     0
100
AcDbCircle
 10
-1775.2437764562
 20
437.8290234317
 30
0.0
 40
40.46955412504764
100
AcDbArc
 50
90.0
 51
180.0
  0
ARC
  5
6B
330
46
100
AcDbEntity
  8
0
  6
Continuous
 62
     7
370
     0
100
AcDbCircle
 10
-1587.1800722805
 20
422.6709638731
 30
0.0
 40
55.62761368366836
100
AcDbArc
 50
33.8993301947
 51
90.0
  0
ARC
  5
6C
330
46
100
AcDbEntity
  8
0
  6
Continuous
 62
     7
370
     0
100
AcDbCircle
 10
-1131.6851711632
 20
422.6709638731
 30
0.0
 40
55.6276136836683
100
AcDbArc
 50
90.0
 51
180.0
  0
ARC
  5
6D
330
46
100
AcDbEntity
  8
0
  6
Continuous
 62
     7
370
     0
100
AcDbCircle
 10
-883.6670100843
 20
422.6709638731
 30
0.0
 40
55.62761368366819
100
AcDbArc
 50
0.0
 51
90.0
  0
ARC
  5
6E
330
46
100
AcDbEntity
  8
0
  6
Continuous
 62
     7
370
     0
100
AcDbCircle
 10
751.1693702587
 20
84.1572284311
 30
0.0
 40
55.62761368366852
100
AcDbArc
 50
167.4974268903
 51
224.796493861
  0
ARC
  5
6F
330
46
100
AcDbEntity
  8
0
  6
Continuous
 62
     7
370
     0
100
AcDbCircle
 10
542.5238335845
 20
265.2390096659
 30
0.0
 40
55.62761368366862
100
AcDbArc
 50
218.8556584895
 51
351.8012460535
  0
ARC
  5
70
330
46
100
AcDbEntity
  8
0
  6
Continuous
 62
     7
370
     0
100
AcDbCircle
 10
464.4284846463
 20
1.1328478898
 30
0.0
 40
55.62761368368375
100
AcDbArc
 50
346.6872067774
 51
44.2818804499
  0
ARC
  5
71
330
46
100
AcDbEntity
  8
0
  6
Continuous
 62
     7
370
     0
100
AcDbCircle
 10
671.5727689264
 20
-185.9690548709
 30
0.0
 40
55.62761368366825
100
AcDbArc
 50
39.5992848036
 51
171.7882282766
  0
ARC
  5
72
330
46
100
AcDbEntity
  8
0
  6
Continuous
 62
     7
370
     0
100
AcDbCircle
 10
219.1309173284
 20
-287.598587012
 30
0.0
 40
55.62761368366822
100
AcDbArc
 50
0.0
 51
90.0
  0
ARC
  5
73
330
46
100
AcDbEntity
  8
0
  6
Continuous
 62
     7
370
     0
100
AcDbCircle
 10
63.5912815337
 20
-51.5698150553
 30
0.0
 40
55.62761368370145
100
AcDbArc
 50
270.0
 51
0.0
  0
ARC
  5
74
330
46
100
AcDbEntity
  8
0
  6
Continuous
 62
     7
370
     0
100
AcDbCircle
 10
63.5912815337
 20
73.5879902946
 30
0.0
 40
55.62761368370145
100
AcDbArc
 50
0.0
 51
90.0
  0
ARC
  5
75
330
46
100
AcDbEntity
  8
0
  6
Continuous
 62
     7
370
     0
100
AcDbCircle
 10
278.1330387818
 20
-786.1671005913
 30
0.0
 40
55.6276136836991
100
AcDbArc
 50
166.6872067774
 51
286.0985506513
  0
ARC
  5
76
330
46
100
AcDbEntity
  8
0
  6
Continuous
 62
     7
370
     0
100
AcDbCircle
 10
598.2914840963
 20
-693.766887036
 30
0.0
 40
55.6276136836682
100
AcDbArc
 50
286.0985506514
 51
351.7882282766
  0
ARC
  5
77
330
46
100
AcDbEntity
  8
0
  6
Continuous
 62
     7
370
     0
100
AcDbCircle
 10
997.8332858737
 20
-580.3602954418
 30
0.0
 40
55.62761368370253
100
AcDbArc
 50
219.5992848036
 51
286.1919412867
  0
ARC
  5
78
330
46
100
AcDbEntity
  8
0
  6
Continuous
 62
     7
370
     0
100
AcDbCircle
 10
1586.1281146836
 20
-423.5855275187
 30
0.0
 40
55.62761368366864
100
AcDbArc
 50
270.0
 51
0.0
  0
ARC
  5
79
330
46
100
AcDbEntity
  8
0
  6
Continuous
 62
     7
370
     0
100
AcDbCircle
 10
1774.8734010732
 20
276.8465881355
 30
0.0
 40
40.46955412504767
100
AcDbArc
 50
270.0
 51
0.0
  0
ARC
  5
7A
330
46
100
AcDbEntity
  8
0
  6
Continuous
 62
     7
370
     0
100
AcDbCircle
 10
1774.8734010732
 20
437.6623778593
 30
0.0
 40
40.46955412504775
100
AcDbArc
 50
0.0
 51
90.0
  0
ARC
  5
7B
330
46
100
AcDbEntity
  8
0
  6
Continuous
 62
     7
370
     0
100
AcDbCircle
 10
978.923471261
 20
422.5043183007
 30
0.0
 40
55.62761368369934
100
AcDbArc
 50
90.0
 51
180.0
  0
ARC
  5
7C
330
46
100
AcDbEntity
  8
0
  6
Continuous
 62
     7
370
     0
100
AcDbCircle
 10
978.923471261
 20
291.6141658775
 30
0.0
 40
55.62761368369922
100
AcDbArc
 50
180.0
 51
270.0
  0
ARC
  5
7D
330
46
100
AcDbEntity
  8
0
  6
Continuous
 62
     7
370
     0
100
AcDbCircle
 10
905.7459044969
 20
781.2587603884
 30
0.0
 40
55.62761368366819
100
AcDbArc
 50
347.4974268903
 51
106.1668587455
  0
ARC
  5
7E
330
46
100
AcDbEntity
  8
0
  6
Continuous
 62
     7
370
     0
100
AcDbCircle
 10
604.2801104592
 20
693.8639124127
 30
0.0
 40
55.6276136836683
100
AcDbArc
 50
106.1668587455
 51
171.8012460535
  0
ARC
  5
7F
330
46
100
AcDbEntity
  8
0
  6
Continuous
 62
     7
370
     0
100
AcDbCircle
 10
273.7504665449
 20
598.8614812289
 30
0.0
 40
55.62761368366799
100
AcDbArc
 50
38.8556584895
 51
105.8183764146
  0
ARC
  5
80
330
46
100
AcDbEntity
  8
0
  6
Continuous
 62
     7
370
     0
100
AcDbCircle
 10
-716.7680027826
 20
423.1800330044
 30
0.0
 40
55.62761368369939
100
AcDbArc
 50
90.0
 51
180.0
  0
ARC
  5
81
330
46
100
AcDbEntity
  8
0
  6
Continuous
 62
     7
370
     0
100
AcDbCircle
 10
-716.7680027826
 20
-423.7014330253
 30
0.0
 40
55.62761368366853
100
AcDbArc
 50
180.0
 51
270.0
  0
ARC
  5
82
330
46
100
AcDbEntity
  8
0
  6
Continuous
 62
     7
370
     0
100
AcDbCircle
 10
219.1309173284
 20
-423.7014330253
 30
0.0
 40
55.62761368369945
100
AcDbArc
 50
270.0
 51
0.0
  0
LINE
  5
83
330
46
100
AcDbEntity
  8
0
  6
Continuous
 62
     7
370
     0
100
AcDbLine
 10
-1775.2437764562
 20
458.2985775566
 30
0.0
 11
-1587.1800722805
 21
458.2985775566
 31
0.0
  0
LINE
  5
84
330
46
100
AcDbEntity
  8
0
  6
Continuous
 62
     7
370
     0
100
AcDbLine
 10
-1557.608482937
 20
442.5417454501
 30
0.0
 11
-1167.3127848467
 21
-138.2941950862
 31
0.0
  0
LINE
  5
85
330
46
100
AcDbEntity
  8
0
  6
Continuous
 62
     7
370
     0
100
AcDbLine
 10
-1167.3127848467
 20
422.6709638731
 30
0.0
 11
-1167.3127848467
 21
-138.2941950862
 31
0.0
  0
LINE
  5
86
330
46
100
AcDbEntity
  8
0
  6
Continuous
 62
     7
370
     0
100
AcDbLine
 10
-1131.6851711632
 20
458.2985775566
 30
0.0
 11
-883.6670100843
 21
458.2985775566
 31
0.0
  0
LINE
  5
87
330
46
100
AcDbEntity
  8
0
  6
Continuous
 62
     7
370
     0
100
AcDbLine
 10
-848.0393964008
 20
422.6709638731
 30
0.0
 11
-848.0393964008
 21
-422.6709638716
 31
0.0
  0
LINE
  5
88
330
46
100
AcDbEntity
  8
0
  6
Continuous
 62
     7
370
     0
100
AcDbLine
 10
-883.6670100843
 20
-458.2985775551
 30
0.0
 11
-1213.6286423958
 21
-458.2985775551
 31
0.0
  0
LINE
  5
89
330
46
100
AcDbEntity
  8
0
  6
Continuous
 62
     7
370
     0
100
AcDbLine
 10
-1665.1672890461
 20
141.98084568
 30
0.0
 11
-1242.5162028167
 21
-443.5236785561
 31
0.0
  0
LINE
  5
8A
330
46
100
AcDbEntity
  8
0
  6
Continuous
 62
     7
370
     0
100
AcDbLine
 10
-1665.1672890461
 20
-422.6709638716
 30
0.0
 11
-1665.1672890461
 21
141.98084568
 31
0.0
  0
LINE
  5
8B
330
46
100
AcDbEntity
  8
0
  6
Continuous
 62
     7
370
     0
100
AcDbLine
 10
-1775.2437764562
 20
-458.2985775551
 30
0.0
 11
-1700.7949027296
 21
-458.2985775551
 31
0.0
  0
LINE
  5
8C
330
46
100
AcDbEntity
  8
0
  6
Continuous
 62
     7
370
     0
100
AcDbLine
 10
-1795.713330581
 20
-437.8290234302
 30
0.0
 11
-1795.713330581
 21
437.8290234317
 31
0.0
  0
LINE
  5
8D
330
46
100
AcDbEntity
  8
0
  6
Continuous
 62
     7
370
     0
100
AcDbLine
 10
-716.7680027826
 20
458.8076466879
 30
0.0
 11
-27.5292825723
 21
458.8076466879
 31
0.0
  0
LINE
  5
8E
330
46
100
AcDbEntity
  8
0
  6
Continuous
 62
     7
370
     0
100
AcDbLine
 10
-27.5292825723
 20
458.8076466879
 30
0.0
 11
-99.0477677645
 21
530.2709748739
 31
0.0
  0
LINE
  5
8F
330
46
100
AcDbEntity
  8
0
  6
Continuous
 62
     7
370
     0
100
AcDbLine
 10
-99.0477677645
 20
530.2709748739
 30
0.0
 11
264.0387765096
 21
633.1398991247
 31
0.0
  0
LINE
  5
90
330
46
100
AcDbEntity
  8
0
  6
Continuous
 62
     7
370
     0
100
AcDbLine
 10
301.4947189366
 20
621.2128417246
 30
0.0
 11
518.9301531369
 21
351.3150175393
 31
0.0
  0
LINE
  5
91
330
46
100
AcDbEntity
  8
0
  6
Continuous
 62
     7
370
     0
100
AcDbLine
 10
518.9301531369
 20
351.3150175393
 30
0.0
 11
569.0166347679
 21
698.9446740632
 31
0.0
  0
LINE
  5
92
330
46
100
AcDbEntity
  8
0
  6
Continuous
 62
     7
370
     0
100
AcDbLine
 10
594.3601143785
 20
728.0826285566
 30
0.0
 11
895.8259084162
 21
815.4774765323
 31
0.0
  0
LINE
  5
93
330
46
100
AcDbEntity
  8
0
  6
Continuous
 62
     7
370
     0
100
AcDbLine
 10
940.5286551389
 20
773.5459713626
 30
0.0
 11
790.1659240582
 21
95.4476383795
 31
0.0
  0
LINE
  5
94
330
46
100
AcDbEntity
  8
0
  6
Continuous
 62
     7
370
     0
100
AcDbLine
 10
790.1659240582
 20
95.4476383795
 30
0.0
 11
1290.4292889099
 21
-408.3821318021
 31
0.0
  0
LINE
  5
95
330
46
100
AcDbEntity
  8
0
  6
Continuous
 62
     7
370
     0
100
AcDbLine
 10
1290.4292889099
 20
-408.3821318021
 30
0.0
 11
1290.4292889099
 21
255.986552194
 31
0.0
  0
LINE
  5
96
330
46
100
AcDbEntity
  8
0
  6
Continuous
 62
     7
370
     0
100
AcDbLine
 10
1290.4292889099
 20
255.986552194
 30
0.0
 11
978.923471261
 21
255.986552194
 31
0.0
  0
LINE
  5
97
330
46
100
AcDbEntity
  8
0
  6
Continuous
 62
     7
370
     0
100
AcDbLine
 10
943.2958575775
 20
291.6141658775
 30
0.0
 11
943.2958575775
 21
422.5043183007
 31
0.0
  0
LINE
  5
98
330
46
100
AcDbEntity
  8
0
  6
Continuous
 62
     7
370
     0
100
AcDbLine
 10
978.923471261
 20
458.1319319842
 30
0.0
 11
1774.8734010732
 21
458.1319319842
 31
0.0
  0
LINE
  5
99
330
46
100
AcDbEntity
  8
0
  6
Continuous
 62
     7
370
     0
100
AcDbLine
 10
1795.342955198
 20
437.6623778593
 30
0.0
 11
1795.342955198
 21
276.8465881355
 31
0.0
  0
LINE
  5
9A
330
46
100
AcDbEntity
  8
0
  6
Continuous
 62
     7
370
     0
100
AcDbLine
 10
1774.8734010732
 20
256.3770340107
 30
0.0
 11
1621.7557283671
 21
256.3770340107
 31
0.0
  0
LINE
  5
9B
330
46
100
AcDbEntity
  8
0
  6
Continuous
 62
     7
370
     0
100
AcDbLine
 10
1621.7557283671
 20
256.3770340107
 30
0.0
 11
1621.7557283671
 21
-423.5855275187
 31
0.0
  0
LINE
  5
9C
330
46
100
AcDbEntity
  8
0
  6
Continuous
 62
     7
370
     0
100
AcDbLine
 10
1586.1281146836
 20
-459.2131412022
 30
0.0
 11
1339.6695201832
 21
-459.2131412022
 31
0.0
  0
LINE
  5
9D
330
46
100
AcDbEntity
  8
0
  6
Continuous
 62
     7
370
     0
100
AcDbLine
 10
1339.6695201832
 20
-459.2131412022
 30
0.0
 11
1385.4091054823
 21
-504.9174545962
 31
0.0
  0
LINE
  5
9E
330
46
100
AcDbEntity
  8
0
  6
Continuous
 62
     7
370
     0
100
AcDbLine
 10
1385.4091054823
 20
-504.9174545962
 30
0.0
 11
1007.7682610309
 21
-614.5746656012
 31
0.0
  0
LINE
  5
9F
330
46
100
AcDbEntity
  8
0
  6
Continuous
 62
     7
370
     0
100
AcDbLine
 10
970.3814542472
 20
-603.0698484346
 30
0.0
 11
695.3546099506
 21
-270.611053459
 31
0.0
  0
LINE
  5
A0
330
46
100
AcDbEntity
  8
0
  6
Continuous
 62
     7
370
     0
100
AcDbLine
 10
695.3546099506
 20
-270.611053459
 30
0.0
 11
633.5538045128
 21
-698.8556605253
 31
0.0
  0
LINE
  5
A1
330
46
100
AcDbEntity
  8
0
  6
Continuous
 62
     7
370
     0
100
AcDbLine
 10
608.1706775441
 20
-727.9974054896
 30
0.0
 11
288.0122322296
 21
-820.3976190449
 31
0.0
  0
LINE
  5
A2
330
46
100
AcDbEntity
  8
0
  6
Continuous
 62
     7
370
     0
100
AcDbLine
 10
243.4628287838
 20
-777.9632359241
 30
0.0
 11
425.2486584403
 21
-9.7212981838
 31
0.0
  0
LINE
  5
A3
330
46
100
AcDbEntity
  8
0
  6
Continuous
 62
     7
370
     0
100
AcDbLine
 10
425.2486584403
 20
-9.7212981838
 30
0.0
 11
159.2646243592
 21
263.0151701683
 31
0.0
  0
LINE
  5
A4
330
46
100
AcDbEntity
  8
0
  6
Continuous
 62
     7
370
     0
100
AcDbLine
 10
-419.9767730238
 20
263.0151701683
 30
0.0
 11
159.2646243592
 21
263.0151701683
 31
0.0
  0
LINE
  5
A5
330
46
100
AcDbEntity
  8
0
  6
Continuous
 62
     7
370
     0
100
AcDbLine
 10
-419.9767730238
 20
109.2156039781
 30
0.0
 11
-419.9767730238
 21
263.0151701683
 31
0.0
  0
LINE
  5
A6
330
46
100
AcDbEntity
  8
0
  6
Continuous
 62
     7
370
     0
100
AcDbLine
 10
63.5912815337
 20
109.2156039781
 30
0.0
 11
-419.9767730238
 21
109.2156039781
 31
0.0
  0
LINE
  5
A7
330
46
100
AcDbEntity
  8
0
  6
Continuous
 62
     7
370
     0
100
AcDbLine
 10
99.2188952172
 20
-51.5698150553
 30
0.0
 11
99.2188952172
 21
73.5879902946
 31
0.0
  0
LINE
  5
A8
330
46
100
AcDbEntity
  8
0
  6
Continuous
 62
     7
370
     0
100
AcDbLine
 10
-419.9767730238
 20
-87.1974287388
 30
0.0
 11
63.5912815337
 21
-87.1974287388
 31
0.0
  0
LINE
  5
A9
330
46
100
AcDbEntity
  8
0
  6
Continuous
 62
     7
370
     0
100
AcDbLine
 10
-419.9767730238
 20
-251.9709733285
 30
0.0
 11
-419.9767730238
 21
-87.1974287388
 31
0.0
  0
LINE
  5
AA
330
46
100
AcDbEntity
  8
0
  6
Continuous
 62
     7
370
     0
100
AcDbLine
 10
219.1309173284
 20
-251.9709733285
 30
0.0
 11
-419.9767730238
 21
-251.9709733285
 31
0.0
  0
LINE
  5
AB
330
46
100
AcDbEntity
  8
0
  6
Continuous
 62
     7
370
     0
100
AcDbLine
 10
254.7585310119
 20
-423.7014330253
 30
0.0
 11
254.7585310119
 21
-287.598587012
 31
0.0
  0
LINE
  5
AC
330
46
100
AcDbEntity
  8
0
  6
Continuous
 62
     7
370
     0
100
AcDbLine
 10
-716.7680027826
 20
-459.3290467088
 30
0.0
 11
219.1309173284
 21
-459.3290467088
 31
0.0
  0
LINE
  5
AD
330
46
100
AcDbEntity
  8
0
  6
Continuous
 62
     7
370
     0
100
AcDbLine
 10
-752.3956164661
 20
423.1800330044
 30
0.0
 11
-752.3956164661
 21
-423.7014330253
 31
0.0
  0
LINE
  5
AE
330
46
100
AcDbEntity
  8
0
  6
Continuous
 62
     7
370
     0
100
AcDbLine
 10
804.2998003838
 20
673.1081113756
 30
0.0
 11
677.3351681763
 21
100.5293557941
 31
0.0
  0
LINE
  5
AF
330
46
100
AcDbEntity
  8
0
  6
Continuous
 62
     7
370
     0
100
AcDbLine
 10
697.5029678163
 20
30.8707085559
 30
0.0
 11
1175.1030802751
 21
-450.1342416968
 31
0.0
  0
LINE
  5
B0
330
46
100
AcDbEntity
  8
0
  6
Continuous
 62
     7
370
     0
100
AcDbLine
 10
1175.1030802751
 20
-450.1342416968
 30
0.0
 11
1024.4448801484
 21
-493.8815171312
 31
0.0
  0
LINE
  5
B1
330
46
100
AcDbEntity
  8
0
  6
Continuous
 62
     7
370
     0
100
AcDbLine
 10
1024.4448801484
 20
-493.8815171312
 30
0.0
 11
729.8454485285
 21
-137.7629270083
 31
0.0
  0
LINE
  5
B2
330
46
100
AcDbEntity
  8
0
  6
Continuous
 62
     7
370
     0
100
AcDbLine
 10
596.7205722638
 20
-175.1669899616
 30
0.0
 11
530.4127137476
 21
-634.642924201
 31
0.0
  0
LINE
  5
B3
330
46
100
AcDbEntity
  8
0
  6
Continuous
 62
     7
370
     0
100
AcDbLine
 10
530.4127137476
 20
-634.642924201
 30
0.0
 11
381.5365450752
 21
-677.6097425998
 31
0.0
  0
LINE
  5
B4
330
46
100
AcDbEntity
  8
0
  6
Continuous
 62
     7
370
     0
100
AcDbLine
 10
381.5365450752
 20
-677.6097425998
 30
0.0
 11
538.0237939297
 21
-16.2816978407
 31
0.0
  0
LINE
  5
B5
330
46
100
AcDbEntity
  8
0
  6
Continuous
 62
     7
370
     0
100
AcDbLine
 10
518.5713194598
 20
53.9352094836
 30
0.0
 11
109.2473797304
 21
473.6504984412
 31
0.0
  0
LINE
  5
B6
330
46
100
AcDbEntity
  8
0
  6
Continuous
 62
     7
370
     0
100
AcDbLine
 10
109.2473797304
 20
473.6504984412
 30
0.0
 11
246.2385432832
 21
512.4625498621
 31
0.0
  0
LINE
  5
B7
330
46
100
AcDbEntity
  8
0
  6
Continuous
 62
     7
370
     0
100
AcDbLine
 10
246.2385432832
 20
512.4625498621
 30
0.0
 11
483.6304252168
 21
217.7932258452
 31
0.0
  0
LINE
  5
B8
330
46
100
AcDbEntity
  8
0
  6
Continuous
 62
     7
370
     0
100
AcDbLine
 10
617.3784825774
 20
254.453951684
 30
0.0
 11
672.1796823774
 21
634.8065267316
 31
0.0
  0
LINE
  5
B9
330
46
100
AcDbEntity
  8
0
  6
Continuous
 62
     7
370
     0
100
AcDbLine
 10
672.1796823774
 20
634.8065267316
 30
0.0
 11
804.2998003838
 21
673.1081113756
 31
0.0
  0
LINE
  5
BA
330
46
100
AcDbEntity
  8
0
  6
Continuous
 62
     7
370
     0
100
AcDbLine
 10
1955.2327139547
 20
478.1319319843
 30
0.0
 11
1986.2593721161
 21
478.1319319843
 31
0.0
  0
LINE
  5
BB
330
46
100
AcDbEntity
  8
0
  6
Continuous
 62
     7
370
     0
100
AcDbLine
 10
1986.2593721161
 20
478.1319319843
 30
0.0
 11
1986.2593721161
 21
236.3770340105
 31
0.0
  0
LINE
  5
BC
330
46
100
AcDbEntity
  8
0
  6
Continuous
 62
     7
370
     0
100
AcDbLine
 10
1955.2327139547
 20
236.3770340105
 30
0.0
 11
1986.2593721161
 21
236.3770340105
 31
0.0
  0
LINE
  5
BD
330
46
100
AcDbEntity
  8
0
  6
Continuous
 62
     7
370
     0
100
AcDbLine
 10
1955.2327139547
 20
478.1319319843
 30
0.0
 11
1955.2327139547
 21
236.3770340105
 31
0.0
  0
LINE
  5
BE
330
46
100
AcDbEntity
  8
0
  6
Continuous
 62
     7
370
     0
100
AcDbLine
 10
-1986.2593721163
 20
478.2985775568
 30
0.0
 11
-1986.2593721163
 21
-478.2985775552
 31
0.0
  0
LINE
  5
BF
330
46
100
AcDbEntity
  8
0
  6
Continuous
 62
     7
370
     0
100
AcDbLine
 10
-1955.2327139549
 20
-478.2985775552
 30
0.0
 11
-1986.2593721163
 21
-478.2985775552
 31
0.0
  0
LINE
  5
C0
330
46
100
AcDbEntity
  8
0
  6
Continuous
 62
     7
370
     0
100
AcDbLine
 10
-1955.2327139549
 20
478.2985775568
 30
0.0
 11
-1955.2327139549
 21
-478.2985775552
 31
0.0
  0
LINE
  5
C1
330
46
100
AcDbEntity
  8
0
  6
Continuous
 62
     7
370
     0
100
AcDbLine
 10
-1955.2327139549
 20
478.2985775568
 30
0.0
 11
-1986.2593721163
 21
478.2985775568
 31
0.0
  0
LINE
  5
C2
330
46
100
AcDbEntity
  8
0
  6
Continuous
 62
     7
370
     0
100
AcDbLine
 10
1875.6425908404
 20
478.1319319843
 30
0.0
 11
1875.6425908404
 21
236.3770340105
 31
0.0
  0
LINE
  5
C3
330
46
100
AcDbEntity
  8
0
  6
Continuous
 62
     7
370
     0
100
AcDbLine
 10
1844.2112371367
 20
236.3770340105
 30
0.0
 11
1875.6425908404
 21
236.3770340105
 31
0.0
  0
LINE
  5
C4
330
46
100
AcDbEntity
  8
0
  6
Continuous
 62
     7
370
     0
100
AcDbLine
 10
1844.2112371367
 20
478.1319319843
 30
0.0
 11
1844.2112371367
 21
236.3770340105
 31
0.0
  0
LINE
  5
C5
330
46
100
AcDbEntity
  8
0
  6
Continuous
 62
     7
370
     0
100
AcDbLine
 10
1844.2112371367
 20
478.1319319843
 30
0.0
 11
1875.6425908404
 21
478.1319319843
 31
0.0
  0
LINE
  5
C6
330
46
100
AcDbEntity
  8
0
  6
Continuous
 62
     7
370
     0
100
AcDbLine
 10
1899.9243233154
 20
478.1319319843
 30
0.0
 11
1930.9509814768
 21
478.1319319843
 31
0.0
  0
LINE
  5
C7
330
46
100
AcDbEntity
  8
0
  6
Continuous
 62
     7
370
     0
100
AcDbLine
 10
1930.9509814768
 20
478.1319319843
 30
0.0
 11
1930.9509814768
 21
236.3770340105
 31
0.0
  0
LINE
  5
C8
330
46
100
AcDbEntity
  8
0
  6
Continuous
 62
     7
370
     0
100
AcDbLine
 10
1899.9243233154
 20
236.3770340105
 30
0.0
 11
1930.9509814768
 21
236.3770340105
 31
0.0
  0
LINE
  5
C9
330
46
100
AcDbEntity
  8
0
  6
Continuous
 62
     7
370
     0
100
AcDbLine
 10
1899.9243233154
 20
478.1319319843
 30
0.0
 11
1899.9243233154
 21
236.3770340105
 31
0.0
  0
LINE
  5
CA
330
46
100
AcDbEntity
  8
0
  6
Continuous
 62
     7
370
     0
100
AcDbLine
 10
-828.0393964006
 20
422.6709638731
 30
0.0
 11
-828.0393964006
 21
-422.6709638716
 31
0.0
  0
LINE
  5
CB
330
46
100
AcDbEntity
  8
0
  6
Continuous
 62
     7
370
     0
100
AcDbLine
 10
-883.6670100843
 20
-478.2985775552
 30
0.0
 11
-1213.6286423958
 21
-478.2985775552
 31
0.0
  0
LINE
  5
CC
330
46
100
AcDbEntity
  8
0
  6
Continuous
 62
     7
370
     0
100
AcDbLine
 10
-1645.1672890459
 20
80.1038430154
 30
0.0
 11
-1258.7325908564
 21
-455.2296069238
 31
0.0
  0
LINE
  5
CD
330
46
100
AcDbEntity
  8
0
  6
Continuous
 62
     7
370
     0
100
AcDbLine
 10
-1645.1672890459
 20
-422.6709638716
 30
0.0
 11
-1645.1672890459
 21
80.1038430154
 31
0.0
  0
LINE
  5
CE
330
46
100
AcDbEntity
  8
0
  6
Continuous
 62
     7
370
     0
100
AcDbLine
 10
-1775.2437764562
 20
-478.2985775552
 30
0.0
 11
-1700.7949027296
 21
-478.2985775552
 31
0.0
  0
LINE
  5
CF
330
46
100
AcDbEntity
  8
0
  6
Continuous
 62
     7
370
     0
100
AcDbLine
 10
-1815.7133305812
 20
-437.8290234302
 30
0.0
 11
-1815.7133305812
 21
437.8290234317
 31
0.0
  0
LINE
  5
D0
330
46
100
AcDbEntity
  8
0
  6
Continuous
 62
     7
370
     0
100
AcDbLine
 10
-1775.2437764562
 20
478.2985775568
 30
0.0
 11
-1587.1800722805
 21
478.2985775568
 31
0.0
  0
LINE
  5
D1
330
46
100
AcDbEntity
  8
0
  6
Continuous
 62
     7
370
     0
100
AcDbLine
 10
-1541.0081068318
 20
453.696453567
 30
0.0
 11
-1187.3127848469
 21
-72.6710058069
 31
0.0
  0
LINE
  5
D2
330
46
100
AcDbEntity
  8
0
  6
Continuous
 62
     7
370
     0
100
AcDbLine
 10
-1187.3127848469
 20
422.6709638731
 30
0.0
 11
-1187.3127848469
 21
-72.6710058069
 31
0.0
  0
LINE
  5
D3
330
46
100
AcDbEntity
  8
0
  6
Continuous
 62
     7
370
     0
100
AcDbLine
 10
-1131.6851711632
 20
478.2985775568
 30
0.0
 11
-883.6670100843
 21
478.2985775568
 31
0.0
  0
LINE
  5
D4
330
46
100
AcDbEntity
  8
0
  6
Continuous
 62
     7
370
     0
100
AcDbLine
 10
1017.407346375
 20
-516.7511474419
 30
0.0
 11
714.4350245406
 21
-150.5112144433
 31
0.0
  0
LINE
  5
D5
330
46
100
AcDbEntity
  8
0
  6
Continuous
 62
     7
370
     0
100
AcDbLine
 10
1213.0308279912
 20
-459.9471080694
 30
0.0
 11
1017.407346375
 21
-516.7511474419
 31
0.0
  0
LINE
  5
D6
330
46
100
AcDbEntity
  8
0
  6
Continuous
 62
     7
370
     0
100
AcDbLine
 10
711.6952449037
 20
44.9625243042
 30
0.0
 11
1213.0308279912
 21
-459.9471080694
 31
0.0
  0
LINE
  5
D7
330
46
100
AcDbEntity
  8
0
  6
Continuous
 62
     7
370
     0
100
AcDbLine
 10
831.1275949348
 20
701.7089474319
 30
0.0
 11
696.8608938965
 21
96.1996866255
 31
0.0
  0
LINE
  5
D8
330
46
100
AcDbEntity
  8
0
  6
Continuous
 62
     7
370
     0
100
AcDbLine
 10
654.2233913848
 20
650.4244691219
 30
0.0
 11
831.1275949348
 21
701.7089474319
 31
0.0
  0
LINE
  5
D9
330
46
100
AcDbEntity
  8
0
  6
Continuous
 62
     7
370
     0
100
AcDbLine
 10
597.5828959266
 20
257.3060998497
 30
0.0
 11
654.2233913848
 21
650.4244691219
 31
0.0
  0
LINE
  5
DA
330
46
100
AcDbEntity
  8
0
  6
Continuous
 62
     7
370
     0
100
AcDbLine
 10
253.5141723619
 20
535.311064356
 30
0.0
 11
499.2050032048
 21
230.3404375078
 31
0.0
  0
LINE
  5
DB
330
46
100
AcDbEntity
  8
0
  6
Continuous
 62
     7
370
     0
100
AcDbLine
 10
71.4751101005
 20
483.7361360042
 30
0.0
 11
253.5141723619
 21
535.311064356
 31
0.0
  0
LINE
  5
DC
330
46
100
AcDbEntity
  8
0
  6
Continuous
 62
     7
370
     0
100
AcDbLine
 10
504.2530480834
 20
39.9714311697
 30
0.0
 11
71.4751101005
 21
483.7361360042
 31
0.0
  0
LINE
  5
DD
330
46
100
AcDbEntity
  8
0
  6
Continuous
 62
     7
370
     0
100
AcDbLine
 10
354.1911083338
 20
-706.3181343381
 30
0.0
 11
518.561244287
 21
-11.676357309
 31
0.0
  0
LINE
  5
DE
330
46
100
AcDbEntity
  8
0
  6
Continuous
 62
     7
370
     0
100
AcDbLine
 10
548.3635036894
 20
-650.2784731642
 30
0.0
 11
354.1911083338
 21
-706.3181343381
 31
0.0
  0
LINE
  5
DF
330
46
100
AcDbEntity
  8
0
  6
Continuous
 62
     7
370
     0
100
AcDbLine
 10
616.5155103868
 20
-178.0236356717
 30
0.0
 11
548.3635036894
 21
-650.2784731642
 31
0.0
  0
LINE
  5
E0
330
46
100
AcDbEntity
  8
0
  6
Continuous
 62
     7
370
     0
100
AcDbLine
 10
-1844.615932681
 20
-478.2985775552
 30
0.0
 11
-1875.6425908424
 21
-478.2985775552
 31
0.0
  0
LINE
  5
E1
330
46
100
AcDbEntity
  8
0
  6
Continuous
 62
     7
370
     0
100
AcDbLine
 10
-1875.6425908424
 20
478.2985775568
 30
0.0
 11
-1875.6425908424
 21
-478.2985775552
 31
0.0
  0
LINE
  5
E2
330
46
100
AcDbEntity
  8
0
  6
Continuous
 62
     7
370
     0
100
AcDbLine
 10
-1844.615932681
 20
478.2985775568
 30
0.0
 11
-1875.6425908424
 21
478.2985775568
 31
0.0
  0
LINE
  5
E3
330
46
100
AcDbEntity
  8
0
  6
Continuous
 62
     7
370
     0
100
AcDbLine
 10
-1844.615932681
 20
478.2985775568
 30
0.0
 11
-1844.615932681
 21
-478.2985775552
 31
0.0
  0
LINE
  5
E4
330
46
100
AcDbEntity
  8
0
  6
Continuous
 62
     7
370
     0
100
AcDbLine
 10
-1930.9509814799
 20
478.2985775568
 30
0.0
 11
-1930.9509814799
 21
-478.2985775552
 31
0.0
  0
LINE
  5
E5
330
46
100
AcDbEntity
  8
0
  6
Continuous
 62
     7
370
     0
100
AcDbLine
 10
-1899.9243233185
 20
-478.2985775552
 30
0.0
 11
-1930.9509814799
 21
-478.2985775552
 31
0.0
  0
LINE
  5
E6
330
46
100
AcDbEntity
  8
0
  6
Continuous
 62
     7
370
     0
100
AcDbLine
 10
-1899.9243233185
 20
478.2985775568
 30
0.0
 11
-1899.9243233185
 21
-478.2985775552
 31
0.0
  0
LINE
  5
E7
330
46
100
AcDbEntity
  8
0
  6
Continuous
 62
     7
370
     0
100
AcDbLine
 10
-1899.9243233185
 20
478.2985775568
 30
0.0
 11
-1930.9509814799
 21
478.2985775568
 31
0.0
  0
LINE
  5
E8
330
46
100
AcDbEntity
  8
0
  6
Continuous
 62
     7
370
     0
100
AcDbLine
 10
274.7585310121
 20
-423.7014330253
 30
0.0
 11
274.7585310121
 21
-287.598587012
 31
0.0
  0
LINE
  5
E9
330
46
100
AcDbEntity
  8
0
  6
Continuous
 62
     7
370
     0
100
AcDbLine
 10
219.1309173284
 20
-231.9709733283
 30
0.0
 11
-399.9767730236
 21
-231.9709733283
 31
0.0
  0
LINE
  5
EA
330
46
100
AcDbEntity
  8
0
  6
Continuous
 62
     7
370
     0
100
AcDbLine
 10
-399.9767730236
 20
-231.9709733283
 30
0.0
 11
-399.9767730236
 21
-107.197428739
 31
0.0
  0
LINE
  5
EB
330
46
100
AcDbEntity
  8
0
  6
Continuous
 62
     7
370
     0
100
AcDbLine
 10
-399.9767730236
 20
-107.197428739
 30
0.0
 11
63.5912815337
 21
-107.197428739
 31
0.0
  0
LINE
  5
EC
330
46
100
AcDbEntity
  8
0
  6
Continuous
 62
     7
370
     0
100
AcDbLine
 10
119.2188952174
 20
-51.5698150553
 30
0.0
 11
119.2188952174
 21
73.5879902946
 31
0.0
  0
LINE
  5
ED
330
46
100
AcDbEntity
  8
0
  6
Continuous
 62
     7
370
     0
100
AcDbLine
 10
63.5912815337
 20
129.2156039783
 30
0.0
 11
-399.9767730236
 21
129.2156039783
 31
0.0
  0
LINE
  5
EE
330
46
100
AcDbEntity
  8
0
  6
Continuous
 62
     7
370
     0
100
AcDbLine
 10
-399.9767730236
 20
129.2156039783
 30
0.0
 11
-399.9767730236
 21
243.0151701681
 31
0.0
  0
LINE
  5
EF
330
46
100
AcDbEntity
  8
0
  6
Continuous
 62
     7
370
     0
100
AcDbLine
 10
-399.9767730236
 20
243.0151701681
 30
0.0
 11
150.833129344
 21
243.0151701681
 31
0.0
  0
LINE
  5
F0
330
46
100
AcDbEntity
  8
0
  6
Continuous
 62
     7
370
     0
100
AcDbLine
 10
403.2545801648
 20
-15.8144068439
 30
0.0
 11
150.833129344
 21
243.0151701681
 31
0.0
  0
LINE
  5
F1
330
46
100
AcDbEntity
  8
0
  6
Continuous
 62
     7
370
     0
100
AcDbLine
 10
224.0002791411
 20
-773.3578953924
 30
0.0
 11
403.2545801648
 21
-15.8144068439
 31
0.0
  0
LINE
  5
F2
330
46
100
AcDbEntity
  8
0
  6
Continuous
 62
     7
370
     0
100
AcDbLine
 10
613.7164845329
 20
-747.2131288653
 30
0.0
 11
293.5580392183
 21
-839.6133424205
 31
0.0
  0
LINE
  5
F3
330
46
100
AcDbEntity
  8
0
  6
Continuous
 62
     7
370
     0
100
AcDbLine
 10
708.7048394864
 20
-318.1258824569
 30
0.0
 11
653.3487426358
 21
-701.7123062352
 31
0.0
  0
LINE
  5
F4
330
46
100
AcDbEntity
  8
0
  6
Continuous
 62
     7
370
     0
100
AcDbLine
 10
954.9710302594
 20
-615.8181358695
 30
0.0
 11
708.7048394864
 21
-318.1258824569
 31
0.0
  0
LINE
  5
F5
330
46
100
AcDbEntity
  8
0
  6
Continuous
 62
     7
370
     0
100
AcDbLine
 10
1423.4824283569
 20
-514.6880496767
 30
0.0
 11
1013.3453817697
 21
-633.781323933
 31
0.0
  0
LINE
  5
F6
330
46
100
AcDbEntity
  8
0
  6
Continuous
 62
     7
370
     0
100
AcDbLine
 10
1387.9801424314
 20
-479.2131412023
 30
0.0
 11
1423.4824283569
 21
-514.6880496767
 31
0.0
  0
LINE
  5
F7
330
46
100
AcDbEntity
  8
0
  6
Continuous
 62
     7
370
     0
100
AcDbLine
 10
1586.1281146836
 20
-479.2131412023
 30
0.0
 11
1387.9801424314
 21
-479.2131412023
 31
0.0
  0
LINE
  5
F8
330
46
100
AcDbEntity
  8
0
  6
Continuous
 62
     7
370
     0
100
AcDbLine
 10
1641.7557283673
 20
236.3770340105
 30
0.0
 11
1641.7557283673
 21
-423.5855275187
 31
0.0
  0
LINE
  5
F9
330
46
100
AcDbEntity
  8
0
  6
Continuous
 62
     7
370
     0
100
AcDbLine
 10
1774.8734010732
 20
236.3770340105
 30
0.0
 11
1641.7557283673
 21
236.3770340105
 31
0.0
  0
LINE
  5
FA
330
46
100
AcDbEntity
  8
0
  6
Continuous
 62
     7
370
     0
100
AcDbLine
 10
1815.3429551982
 20
437.6623778593
 30
0.0
 11
1815.3429551982
 21
276.8465881355
 31
0.0
  0
LINE
  5
FB
330
46
100
AcDbEntity
  8
0
  6
Continuous
 62
     7
370
     0
100
AcDbLine
 10
978.923471261
 20
478.1319319843
 30
0.0
 11
1774.8734010732
 21
478.1319319843
 31
0.0
  0
LINE
  5
FC
330
46
100
AcDbEntity
  8
0
  6
Continuous
 62
     7
370
     0
100
AcDbLine
 10
923.2958575773
 20
291.6141658775
 30
0.0
 11
923.2958575773
 21
422.5043183007
 31
0.0
  0
LINE
  5
FD
330
46
100
AcDbEntity
  8
0
  6
Continuous
 62
     7
370
     0
100
AcDbLine
 10
1270.4292889102
 20
235.9865521938
 30
0.0
 11
978.923471261
 21
235.9865521938
 31
0.0
  0
LINE
  5
FE
330
46
100
AcDbEntity
  8
0
  6
Continuous
 62
     7
370
     0
100
AcDbLine
 10
1270.4292889102
 20
-359.8542803228
 30
0.0
 11
1270.4292889102
 21
235.9865521938
 31
0.0
  0
LINE
  5
FF
330
46
100
AcDbEntity
  8
0
  6
Continuous
 62
     7
370
     0
100
AcDbLine
 10
812.0571201107
 20
101.7856491419
 30
0.0
 11
1270.4292889102
 21
-359.8542803228
 31
0.0
  0
LINE
  5
100
330
46
100
AcDbEntity
  8
0
  6
Continuous
 62
     7
370
     0
100
AcDbLine
 10
960.0543808591
 20
769.216302194
 30
0.0
 11
812.0571201107
 21
101.7856491419
 31
0.0
  0
LINE
  5
101
330
46
100
AcDbEntity
  8
0
  6
Continuous
 62
     7
370
     0
100
AcDbLine
 10
588.791402329
 20
747.2917265603
 30
0.0
 11
890.2571963667
 21
834.686574536
 31
0.0
  0
LINE
  5
102
330
46
100
AcDbEntity
  8
0
  6
Continuous
 62
     7
370
     0
100
AcDbLine
 10
505.6855498589
 20
399.6348453204
 30
0.0
 11
549.2210481172
 21
701.7968222288
 31
0.0
  0
LINE
  5
103
330
46
100
AcDbEntity
  8
0
  6
Continuous
 62
     7
370
     0
100
AcDbLine
 10
317.0692969246
 20
633.760053387
 30
0.0
 11
505.6855498589
 21
399.6348453204
 31
0.0
  0
LINE
  5
104
330
46
100
AcDbEntity
  8
0
  6
Continuous
 62
     7
370
     0
100
AcDbLine
 10
-137.3002269205
 20
540.2205661397
 30
0.0
 11
258.5869996259
 21
652.3825114426
 31
0.0
  0
LINE
  5
105
330
46
100
AcDbEntity
  8
0
  6
Continuous
 62
     7
370
     0
100
AcDbLine
 10
-75.8399075956
 20
478.8076466881
 30
0.0
 11
-137.3002269205
 21
540.2205661397
 31
0.0
  0
LINE
  5
106
330
46
100
AcDbEntity
  8
0
  6
Continuous
 62
     7
370
     0
100
AcDbLine
 10
-716.7680027826
 20
478.8076466881
 30
0.0
 11
-75.8399075956
 21
478.8076466881
 31
0.0
  0
LINE
  5
107
330
46
100
AcDbEntity
  8
0
  6
Continuous
 62
     7
370
     0
100
AcDbLine
 10
-772.3956164663
 20
423.1800330044
 30
0.0
 11
-772.3956164663
 21
-423.7014330253
 31
0.0
  0
LINE
  5
108
330
46
100
AcDbEntity
  8
0
  6
Continuous
 62
     7
370
     0
100
AcDbLine
 10
-716.7680027826
 20
-479.3290467089
 30
0.0
 11
219.1309173284
 21
-479.329046709
 31
0.0
  0
ENDBLK
  5
48
330
46
100
AcDbEntity
  8
0
100
AcDbBlockEnd
  0
BLOCK
  5
184
330
183
100
AcDbEntity
  8
0
100
AcDbBlockBegin
  2
_D
 70
     0
 10
0.0
 20
0.0
 30
0.0
  3
_D
  1

  0
SOLID
  5
186
330
183
100
AcDbEntity
  8
MEDIÇÕES
100
AcDbTrace
 10
1104.4252925069
 20
390.7483275835
 30
0.0
 11
1071.4052925069
 21
395.8283275835
 31
0.0
 12
1071.4052925069
 22
385.6683275835
 32
0.0
 13
1071.4052925069
 23
385.6683275835
 33
0.0
  0
SOLID
  5
187
330
183
100
AcDbEntity
  8
MEDIÇÕES
100
AcDbTrace
 10
737.1296845302
 20
390.7483275835
 30
0.0
 11
770.1496845302
 21
385.6683275835
 31
0.0
 12
770.1496845302
 22
395.8283275835
 32
0.0
 13
770.1496845302
 23
395.8283275835
 33
0.0
  0
LINE
  5
188
330
183
100
AcDbEntity
  8
MEDIÇÕES
100
AcDbLine
 10
1104.4252925069
 20
490.6483275835
 30
0.0
 11
1104.4252925069
 21
380.7483275835
 31
0.0
  0
LINE
  5
189
330
183
100
AcDbEntity
  8
MEDIÇÕES
100
AcDbLine
 10
737.1296845302
 20
490.6483275835
 30
0.0
 11
737.1296845302
 21
380.7483275835
 31
0.0
  0
LINE
  5
18A
330
183
100
AcDbEntity
  8
MEDIÇÕES
100
AcDbLine
 10
1104.4252925069
 20
390.7483275835
 30
0.0
 11
737.1296845302
 21
390.7483275835
 31
0.0
  0
MTEXT
  5
18B
330
183
100
AcDbEntity
  8
MEDIÇÕES
100
AcDbMText
 10
867.7670732327
 20
435.8656967293
 30
-27.9
 40
35.0
 41
0.0
 71
     1
 72
     1
  1
367
  7
SLDTEXTSTYLE1
 73
     1
 44
1.0
  0
ENDBLK
  5
185
330
183
100
AcDbEntity
  8
0
100
AcDbBlockEnd
  0
BLOCK
  5
29B
330
29A
100
AcDbEntity
  8
0
100
AcDbBlockBegin
  2
_D_1
 70
     0
 10
0.0
 20
0.0
 30
0.0
  3
_D_1
  1

  0
SOLID
  5
29D
330
29A
100
AcDbEntity
  8
MEDIÇÕES
100
AcDbTrace
 10
1457.721035641
 20
490.8232483067
 30
0.0
 11
1462.801035641
 21
523.8432483067
 31
0.0
 12
1452.641035641
 22
523.8432483067
 32
0.0
 13
1452.641035641
 23
523.8432483067
 33
0.0
  0
SOLID
  5
29E
330
29A
100
AcDbEntity
  8
MEDIÇÕES
100
AcDbTrace
 10
1457.721035641
 20
1083.1483275835
 30
0.0
 11
1452.641035641
 21
1050.1283275835
 31
0.0
 12
1462.801035641
 22
1050.1283275835
 32
0.0
 13
1462.801035641
 23
1050.1283275835
 33
0.0
  0
LINE
  5
29F
330
29A
100
AcDbEntity
  8
MEDIÇÕES
100
AcDbLine
 10
1577.5809874764
 20
490.8232483067
 30
0.0
 11
1447.721035641
 21
490.8232483067
 31
0.0
  0
LINE
  5
2A0
330
29A
100
AcDbEntity
  8
MEDIÇÕES
100
AcDbLine
 10
1589.5185711086
 20
1083.1483275835
 30
0.0
 11
1447.721035641
 21
1083.1483275835
 31
0.0
  0
LINE
  5
2A1
330
29A
100
AcDbEntity
  8
MEDIÇÕES
100
AcDbLine
 10
1457.721035641
 20
490.8232483067
 30
0.0
 11
1457.721035641
 21
1083.1483275835
 31
0.0
  0
MTEXT
  5
2A2
330
29A
100
AcDbEntity
  8
MEDIÇÕES
100
AcDbMText
 10
1412.6036664952
 20
733.9753726593
 30
0.1
 40
35.0
 41
0.0
 71
     1
 72
     1
  1
592
  7
SLDTEXTSTYLE1
 11
6.123233995736766E-17
 21
1.0
 31
0.0
 73
     1
 44
1.0
  0
ENDBLK
  5
29C
330
29A
100
AcDbEntity
  8
0
100
AcDbBlockEnd
  0
BLOCK
  5
300
330
2FF
100
AcDbEntity
  8
0
100
AcDbBlockBegin
  2
_D_2
 70
     0
 10
0.0
 20
0.0
 30
0.0
  3
_D_2
  1

  0
SOLID
  5
302
330
2FF
100
AcDbEntity
  8
MEDIÇÕES
100
AcDbTrace
 10
684.9787978095
 20
1684.1655535518
 30
0.0
 11
679.8987978095
 21
1651.1455535518
 31
0.0
 12
690.0587978095
 22
1651.1455535518
 32
0.0
 13
690.0587978095
 23
1651.1455535518
 33
0.0
  0
SOLID
  5
303
330
2FF
100
AcDbEntity
  8
MEDIÇÕES
100
AcDbTrace
 10
684.9787978095
 20
1374.1655535518
 30
0.0
 11
690.0587978095
 21
1407.1855535518
 31
0.0
 12
679.8987978095
 22
1407.1855535518
 32
0.0
 13
679.8987978095
 23
1407.1855535518
 33
0.0
  0
LINE
  5
304
330
2FF
100
AcDbEntity
  8
MEDIÇÕES
100
AcDbLine
 10
805.4268187073
 20
1684.1655535518
 30
0.0
 11
674.9787978095
 21
1684.1655535518
 31
0.0
  0
LINE
  5
305
330
2FF
100
AcDbEntity
  8
MEDIÇÕES
100
AcDbLine
 10
910.7774885185
 20
1374.1655535518
 30
0.0
 11
674.9787978095
 21
1374.1655535518
 31
0.0
  0
LINE
  5
306
330
2FF
100
AcDbEntity
  8
MEDIÇÕES
100
AcDbLine
 10
684.9787978095
 20
1684.1655535518
 30
0.0
 11
684.9787978095
 21
1374.1655535518
 31
0.0
  0
MTEXT
  5
307
330
2FF
100
AcDbEntity
  8
MEDIÇÕES
100
AcDbMText
 10
639.8614286637
 20
1476.155138266
 30
1.05
 40
35.0
 41
0.0
 71
     1
 72
     1
  1
310
  7
SLDTEXTSTYLE1
 11
-7.044195017643634E-15
 21
1.0
 31
0.0
 73
     1
 44
1.0
  0
ENDBLK
  5
301
330
2FF
100
AcDbEntity
  8
0
100
AcDbBlockEnd
  0
ENDSEC
  0
SECTION
  2
ENTITIES
  0
LINE
  5
109
330
1F
100
AcDbEntity
  8
0
  6
Continuous
 62
     7
370
     0
100
AcDbLine
 10
73.6486218951
 20
2015.2546462079
 30
0.0
 11
2908.3430426184
 21
2015.2546462079
 31
0.0
  0
LINE
  5
10A
330
1F
100
AcDbEntity
  8
0
  6
Continuous
 62
     7
370
     0
100
AcDbLine
 10
73.6486218951
 20
2015.2546462079
 30
0.0
 11
73.6486218951
 21
52.0062153195
 31
0.0
  0
LINE
  5
10B
330
1F
100
AcDbEntity
  8
0
  6
Continuous
 62
     7
370
     0
100
AcDbLine
 10
73.6486218951
 20
52.0062153195
 30
0.0
 11
2908.3430426184
 21
52.0062153195
 31
0.0
  0
LINE
  5
10C
330
1F
100
AcDbEntity
  8
0
  6
Continuous
 62
     8
420
  8421504
370
    40
100
AcDbLine
 10
2065.3036793829
 20
289.6106299821
 30
0.0
 11
2908.3430426184
 21
289.6106299821
 31
0.0
  0
LINE
  5
10D
330
1F
100
AcDbEntity
  8
0
  6
Continuous
 62
     7
370
     0
100
AcDbLine
 10
2908.3430426184
 20
2015.2546462079
 30
0.0
 11
2908.3430426184
 21
52.0062153195
 31
0.0
  0
LINE
  5
10E
330
1F
100
AcDbEntity
  8
0
  6
Continuous
 62
     8
420
  8421504
370
    40
100
AcDbLine
 10
2065.3036793829
 20
244.0269995402
 30
0.0
 11
2908.3430426184
 21
244.0269995402
 31
0.0
  0
LINE
  5
10F
330
1F
100
AcDbEntity
  8
0
  6
Continuous
 62
     8
420
  8421504
370
    40
100
AcDbLine
 10
2065.3036793829
 20
104.4852736976
 30
0.0
 11
2908.3430426184
 21
104.4852736976
 31
0.0
  0
INSERT
  5
110
330
1F
100
AcDbEntity
  8
0
  6
Continuous
 62
     7
100
AcDbBlockReference
  2
Logo_Next.V3
 10
2533.2833433192
 20
385.1362543806
 30
0.0
 41
0.088
 42
0.088
 43
0.088
  0
MTEXT
  5
112
330
1F
100
AcDbEntity
  8
0
  6
Continuous
 62
     7
370
     0
100
AcDbMText
 10
2785.0
 20
84.3360149091
 30
0.0
 40
15.0
 41
0.0
 71
     1
 72
     1
  1
SHEET 1 OF 1
  7
SLDTEXTSTYLE0
 73
     1
 44
1.0
  0
MTEXT
  5
114
330
1F
100
AcDbEntity
  8
0
  6
Continuous
 62
     7
370
     0
100
AcDbMText
 10
2070.1338428396
 20
269.4144030073
 30
0.0
 40
13.2291666667
 41
0.0
 71
     1
 72
     1
  1
TITLE:
  7
SLDTEXTSTYLE1
 73
     1
 44
1.0
  0
MTEXT
  5
116
330
1F
100
AcDbEntity
  8
0
  6
Continuous
 62
     7
370
     0
100
AcDbMText
 10
2189.0191473576
 20
186.4031371449
 30
0.0
 40
26.4583333333
 41
0.0
 71
     1
 72
     1
  1
NC00552
  7
SLDTEXTSTYLE2
 73
     1
 44
1.0
  0
MTEXT
  5
117
330
1F
100
AcDbEntity
  8
0
  6
Continuous
 62
     7
370
     0
100
AcDbMText
 10
2760.0378578924
 20
132.5666195236
 30
0.0
 40
21.1666666667
 41
0.0
 71
     1
 72
     1
  1
10-10-2014
  7
SLDTEXTSTYLE2
 73
     1
 44
1.0
  0
MTEXT
  5
118
330
1F
100
AcDbEntity
  8
0
  6
Continuous
 62
     7
370
     0
100
AcDbMText
 10
2070.1338428396
 20
172.9511179359
 30
0.0
 40
13.2291666667
 41
0.0
 71
     1
 72
     1
  1
Reference :
  7
SLDTEXTSTYLE1
 73
     1
 44
1.0
  0
MTEXT
  5
119
330
1F
100
AcDbEntity
  8
0
  6
Continuous
 62
     7
370
     0
100
AcDbMText
 10
2725.0566539417
 20
124.4366111594
 30
0.0
 40
13.2291666667
 41
0.0
 71
     2
 72
     1
  1
Date:
  7
SLDTEXTSTYLE1
 73
     1
 44
1.0
  0
MTEXT
  5
11A
330
1F
100
AcDbEntity
  8
0
  6
Continuous
 62
     7
370
     0
100
AcDbMText
 10
2070.1338428396
 20
226.1682214746
 30
0.0
 40
13.2291666667
 41
0.0
 71
     1
 72
     1
  1
REVISION:
  7
SLDTEXTSTYLE1
 73
     1
 44
1.0
  0
MTEXT
  5
11B
330
1F
100
AcDbEntity
  8
0
  6
Continuous
 62
     7
370
     0
100
AcDbMText
 10
2189.0191473576
 20
234.0630452774
 30
0.0
 40
21.1666666667
 41
0.0
 71
     1
 72
     1
  1
V2.0
  7
SLDTEXTSTYLE1
 73
     1
 44
1.0
  0
MTEXT
  5
11C
330
1F
100
AcDbEntity
  8
0
  6
Continuous
 62
     7
370
     0
100
AcDbMText
 10
2531.2345601718
 20
278.2716088622
 30
0.0
 40
21.1666666667
 41
0.0
 71
     2
 72
     1
  1
NEXT X10 V2 - Passive 2-Way Speaker/Monitor 10"+1"
  7
SLDTEXTSTYLE1
 73
     1
 44
1.0
  0
MTEXT
  5
11D
330
1F
100
AcDbEntity
  8
MEDIÇÕES
100
AcDbMText
 10
2414.0896881916
 20
84.9563102753
 30
0.0
 40
15.875
 41
0.0
 71
     1
 72
     1
  1
All dimensions in mm
  7
SLDTEXTSTYLE1
 73
     1
 44
1.0
  0
MTEXT
  5
11E
330
1F
100
AcDbEntity
  8
0
  6
Continuous
 62
     7
370
     0
100
AcDbMText
 10
2356.2250577519
 20
341.3159263744
 30
0.0
 40
32.0
 41
0.0
 71
     1
 72
     1
  1
proaudio
  7
SLDTEXTSTYLE1
 73
     1
 44
1.0
  0
LINE
  5
11F
330
1F
100
AcDbEntity
  8
0
  6
Continuous
 62
     7
370
    15
100
AcDbLine
 10
1099.8815390167
 20
510.1483275835
 30
0.0
 11
1099.8815390167
 21
1066.1483275835
 31
0.0
  0
LINE
  5
120
330
1F
100
AcDbEntity
  8
0
  6
Continuous
 62
     7
370
    15
100
AcDbLine
 10
741.6734380204
 20
1066.1483275835
 30
0.0
 11
741.6734380204
 21
510.1483275835
 31
0.0
  0
LINE
  5
121
330
1F
100
AcDbEntity
  8
0
  6
Continuous
 62
     7
370
    15
100
AcDbLine
 10
744.1296845302
 20
1068.1483275835
 30
0.0
 11
744.1296845302
 21
508.1483275835
 31
0.0
  0
LINE
  5
122
330
1F
100
AcDbEntity
  8
0
  6
Continuous
 62
     7
370
    15
100
AcDbLine
 10
1097.4252925069
 20
508.1483275835
 30
0.0
 11
1097.4252925069
 21
1068.1483275835
 31
0.0
  0
LINE
  5
123
330
1F
100
AcDbEntity
  8
0
  6
Continuous
 62
     7
370
    15
100
AcDbLine
 10
978.9672891427
 20
493.1483275835
 30
0.0
 11
979.5696532882
 21
490.8232483067
 31
0.0
  0
LINE
  5
124
330
1F
100
AcDbEntity
  8
0
  6
Continuous
 62
     7
370
    15
100
AcDbLine
 10
995.6084730892
 20
490.8232483067
 30
0.0
 11
996.2108372347
 21
493.1483275835
 31
0.0
  0
ARC
  5
125
330
1F
100
AcDbEntity
  8
0
  6
Continuous
 62
     7
370
    15
100
AcDbCircle
 10
995.5116690093
 20
490.8483275835
 30
0.0
 40
0.0999999999999865
100
AcDbArc
 50
270.0
 51
345.475570922
  0
ARC
  5
126
330
1F
100
AcDbEntity
  8
0
  6
Continuous
 62
     7
370
    15
100
AcDbCircle
 10
979.666457368
 20
490.8483275835
 30
0.0
 40
0.0999999999999865
100
AcDbArc
 50
194.524429078
 51
270.0
  0
LINE
  5
127
330
1F
100
AcDbEntity
  8
0
  6
Continuous
 62
     7
370
    15
100
AcDbLine
 10
1070.6776009441
 20
493.1483275835
 30
0.0
 11
1071.2799650896
 21
490.8232483067
 31
0.0
  0
LINE
  5
128
330
1F
100
AcDbEntity
  8
0
  6
Continuous
 62
     7
370
    15
100
AcDbLine
 10
1087.3187848906
 20
490.8232483067
 30
0.0
 11
1087.9211490361
 21
493.1483275835
 31
0.0
  0
ARC
  5
129
330
1F
100
AcDbEntity
  8
0
  6
Continuous
 62
     7
370
    15
100
AcDbCircle
 10
1087.2219808108
 20
490.8483275835
 30
0.0
 40
0.1000000000000965
100
AcDbArc
 50
270.0
 51
345.475570922
  0
ARC
  5
12A
330
1F
100
AcDbEntity
  8
0
  6
Continuous
 62
     7
370
    15
100
AcDbCircle
 10
1071.3767691695
 20
490.8483275835
 30
0.0
 40
0.0999999999999659
100
AcDbArc
 50
194.524429078
 51
270.0
  0
LINE
  5
12B
330
1F
100
AcDbEntity
  8
0
  6
Continuous
 62
     7
370
    15
100
AcDbLine
 10
753.6338280009
 20
493.1483275835
 30
0.0
 11
754.2361921465
 21
490.8232483067
 31
0.0
  0
LINE
  5
12C
330
1F
100
AcDbEntity
  8
0
  6
Continuous
 62
     7
370
    15
100
AcDbLine
 10
770.2750119474
 20
490.8232483067
 30
0.0
 11
770.877376093
 21
493.1483275835
 31
0.0
  0
ARC
  5
12D
330
1F
100
AcDbEntity
  8
0
  6
Continuous
 62
     7
370
    15
100
AcDbCircle
 10
770.1782078676
 20
490.8483275835
 30
0.0
 40
0.0999999999999865
100
AcDbArc
 50
270.0
 51
345.475570922
  0
ARC
  5
12E
330
1F
100
AcDbEntity
  8
0
  6
Continuous
 62
     7
370
    15
100
AcDbCircle
 10
754.3329962263
 20
490.8483275835
 30
0.0
 40
0.0999999999999865
100
AcDbArc
 50
194.524429078
 51
270.0
  0
LINE
  5
12F
330
1F
100
AcDbEntity
  8
0
  6
Continuous
 62
     7
370
    15
100
AcDbLine
 10
819.8496034569
 20
493.1483275835
 30
0.0
 11
820.4519676024
 21
490.8232483067
 31
0.0
  0
LINE
  5
130
330
1F
100
AcDbEntity
  8
0
  6
Continuous
 62
     7
370
    15
100
AcDbLine
 10
836.4907874034
 20
490.8232483067
 30
0.0
 11
837.0931515489
 21
493.1483275835
 31
0.0
  0
ARC
  5
131
330
1F
100
AcDbEntity
  8
0
  6
Continuous
 62
     7
370
    15
100
AcDbCircle
 10
836.3939833235
 20
490.8483275835
 30
0.0
 40
0.1000000000000965
100
AcDbArc
 50
270.0
 51
345.475570922
  0
ARC
  5
132
330
1F
100
AcDbEntity
  8
0
  6
Continuous
 62
     7
370
    15
100
AcDbCircle
 10
820.5487716822
 20
490.8483275835
 30
0.0
 40
0.1000000000000965
100
AcDbArc
 50
194.524429078
 51
270.0
  0
LINE
  5
133
330
1F
100
AcDbEntity
  8
0
  6
Continuous
 62
     7
370
    15
100
AcDbLine
 10
914.7774885185
 20
1083.6483275835
 30
0.0
 11
915.3608218519
 21
1083.1483275835
 31
0.0
  0
LINE
  5
134
330
1F
100
AcDbEntity
  8
0
  6
Continuous
 62
     7
370
    15
100
AcDbLine
 10
926.1941551852
 20
1083.1483275835
 30
0.0
 11
926.7774885185
 21
1083.6483275835
 31
0.0
  0
ARC
  5
135
330
1F
100
AcDbEntity
  8
0
  6
Continuous
 62
     7
370
    15
100
AcDbCircle
 10
1096.6252925069
 20
1075.3483275835
 30
0.0
 40
7.800000000000182
100
AcDbArc
 50
0.0
 51
90.0
  0
ARC
  5
136
330
1F
100
AcDbEntity
  8
0
  6
Continuous
 62
     7
370
    15
100
AcDbCircle
 10
1102.4252925069
 20
1070.1483275835
 30
0.0
 40
2.0
100
AcDbArc
 50
270.0
 51
0.0
  0
LINE
  5
137
330
1F
100
AcDbEntity
  8
0
  6
Continuous
 62
     7
370
    15
100
AcDbLine
 10
1104.4252925069
 20
1070.1483275835
 30
0.0
 11
1104.4252925069
 21
1075.3483275835
 31
0.0
  0
ARC
  5
138
330
1F
100
AcDbEntity
  8
0
  6
Continuous
 62
     7
370
    15
100
AcDbCircle
 10
739.1296845302
 20
1070.1483275835
 30
0.0
 40
2.0
100
AcDbArc
 50
180.0
 51
270.0
  0
LINE
  5
139
330
1F
100
AcDbEntity
  8
0
  6
Continuous
 62
     7
370
    15
100
AcDbLine
 10
737.1296845302
 20
1075.3483275835
 30
0.0
 11
737.1296845302
 21
1070.1483275835
 31
0.0
  0
ARC
  5
13A
330
1F
100
AcDbEntity
  8
0
  6
Continuous
 62
     7
370
    15
100
AcDbCircle
 10
744.9296845302
 20
1075.3483275835
 30
0.0
 40
7.799999999999955
100
AcDbArc
 50
90.0
 51
180.0
  0
ARC
  5
13B
330
1F
100
AcDbEntity
  8
0
  6
Continuous
 62
     7
370
    15
100
AcDbCircle
 10
1096.9252925069
 20
500.6483275835
 30
0.0
 40
7.5
100
AcDbArc
 50
270.0
 51
0.0
  0
ARC
  5
13C
330
1F
100
AcDbEntity
  8
0
  6
Continuous
 62
     7
370
    15
100
AcDbCircle
 10
1101.4252925069
 20
505.1483275835
 30
0.0
 40
3.0
100
AcDbArc
 50
0.0
 51
90.0
  0
LINE
  5
13D
330
1F
100
AcDbEntity
  8
0
  6
Continuous
 62
     7
370
    15
100
AcDbLine
 10
1104.4252925069
 20
500.6483275835
 30
0.0
 11
1104.4252925069
 21
505.1483275835
 31
0.0
  0
LINE
  5
13E
330
1F
100
AcDbEntity
  8
0
  6
Continuous
 62
     7
370
    15
100
AcDbLine
 10
737.1296845302
 20
505.1483275835
 30
0.0
 11
737.1296845302
 21
500.6483275835
 31
0.0
  0
ARC
  5
13F
330
1F
100
AcDbEntity
  8
0
  6
Continuous
 62
     7
370
    15
100
AcDbCircle
 10
744.6296845302
 20
500.6483275835
 30
0.0
 40
7.5
100
AcDbArc
 50
180.0
 51
270.0
  0
ARC
  5
140
330
1F
100
AcDbEntity
  8
0
  6
Continuous
 62
     7
370
    15
100
AcDbCircle
 10
740.1296845302
 20
505.1483275835
 30
0.0
 40
3.0
100
AcDbArc
 50
90.0
 51
180.0
  0
ARC
  5
141
330
1F
100
AcDbEntity
  8
0
  6
Continuous
 62
     7
370
    15
100
AcDbCircle
 10
1097.8815390167
 20
510.1483275835
 30
0.0
 40
2.0
100
AcDbArc
 50
270.0
 51
0.0
  0
ARC
  5
142
330
1F
100
AcDbEntity
  8
0
  6
Continuous
 62
     7
370
    15
100
AcDbCircle
 10
1097.8815390167
 20
1066.1483275835
 30
0.0
 40
2.0
100
AcDbArc
 50
0.0
 51
90.0
  0
ARC
  5
143
330
1F
100
AcDbEntity
  8
0
  6
Continuous
 62
     7
370
    15
100
AcDbCircle
 10
743.6734380204
 20
1066.1483275835
 30
0.0
 40
2.000000000000114
100
AcDbArc
 50
90.0
 51
180.0
  0
ARC
  5
144
330
1F
100
AcDbEntity
  8
0
  6
Continuous
 62
     7
370
    15
100
AcDbCircle
 10
743.6734380204
 20
510.1483275835
 30
0.0
 40
2.000000000000114
100
AcDbArc
 50
180.0
 51
270.0
  0
LINE
  5
145
330
1F
100
AcDbEntity
  8
0
  6
Continuous
 62
     7
370
    15
100
AcDbLine
 10
995.5116690093
 20
490.7483275835
 30
0.0
 11
979.666457368
 21
490.7483275835
 31
0.0
  0
LINE
  5
146
330
1F
100
AcDbEntity
  8
0
  6
Continuous
 62
     7
370
    15
100
AcDbLine
 10
1087.2219808108
 20
490.7483275835
 30
0.0
 11
1071.3767691695
 21
490.7483275835
 31
0.0
  0
LINE
  5
147
330
1F
100
AcDbEntity
  8
0
  6
Continuous
 62
     7
370
    15
100
AcDbLine
 10
770.1782078676
 20
490.7483275835
 30
0.0
 11
754.3329962263
 21
490.7483275835
 31
0.0
  0
LINE
  5
148
330
1F
100
AcDbEntity
  8
0
  6
Continuous
 62
     7
370
    15
100
AcDbLine
 10
836.3939833235
 20
490.7483275835
 30
0.0
 11
820.5487716822
 21
490.7483275835
 31
0.0
  0
LINE
  5
149
330
1F
100
AcDbEntity
  8
0
  6
Continuous
 62
     7
370
    15
100
AcDbLine
 10
917.9924292139
 20
1083.6483275835
 30
0.0
 11
926.7774885185
 21
1083.6483275835
 31
0.0
  0
LINE
  5
14A
330
1F
100
AcDbEntity
  8
0
  6
Continuous
 62
     7
370
    15
100
AcDbLine
 10
914.7774885185
 20
1083.6483275835
 30
0.0
 11
917.9924292139
 21
1083.6483275835
 31
0.0
  0
LINE
  5
14B
330
1F
100
AcDbEntity
  8
0
  6
Continuous
 62
     7
370
    15
100
AcDbLine
 10
1083.5698987051
 20
1068.1483275835
 30
0.0
 11
757.9850783319
 21
1068.1483275835
 31
0.0
  0
ARC
  5
14C
330
1F
100
AcDbEntity
  8
0
  6
Continuous
 62
     7
370
    15
100
AcDbCircle
 10
760.9908403256
 20
1069.6614467483
 30
0.0
 40
3.365135178470252
100
AcDbArc
 50
171.6810258275
 51
206.7209661763
  0
LINE
  5
14D
330
1F
100
AcDbEntity
  8
0
  6
Continuous
 62
     7
370
    15
100
AcDbLine
 10
757.6611133366
 20
1070.1483275835
 30
0.0
 11
1083.8938637005
 21
1070.1483275835
 31
0.0
  0
ARC
  5
14E
330
1F
100
AcDbEntity
  8
0
  6
Continuous
 62
     7
370
    15
100
AcDbCircle
 10
1080.5641367115
 20
1069.6614467483
 30
0.0
 40
3.365135178470353
100
AcDbArc
 50
333.2790338237
 51
8.3189741725
  0
LINE
  5
14F
330
1F
100
AcDbEntity
  8
0
  6
Continuous
 62
     7
370
    15
100
AcDbLine
 10
1083.8938637005
 20
1075.3483275835
 30
0.0
 11
757.6611133366
 21
1075.3483275835
 31
0.0
  0
LWPOLYLINE
  5
150
330
1F
100
AcDbEntity
  8
0
  6
Continuous
 62
     7
370
    15
100
AcDbPolyline
 90
        9
 70
   128
 43
0.0
 10
757.6611133366
 20
1075.3483275835
 10
757.6853904331
 20
1076.8700320952
 10
757.7572887675
 20
1078.3332583559
 10
757.874045327
 20
1079.6817754011
 10
758.0311732227
 20
1080.8637604768
 10
758.2226341175
 20
1081.8337905595
 10
758.4410702766
 20
1082.5545879371
 10
758.678087321
 20
1082.9984527706
 10
758.9245768186
 20
1083.1483275835
  0
LINE
  5
151
330
1F
100
AcDbEntity
  8
0
  6
Continuous
 62
     7
370
    15
100
AcDbLine
 10
758.9245768186
 20
1083.1483275835
 30
0.0
 11
1082.6304002185
 21
1083.1483275835
 31
0.0
  0
LWPOLYLINE
  5
152
330
1F
100
AcDbEntity
  8
0
  6
Continuous
 62
     7
370
    15
100
AcDbPolyline
 90
        9
 70
   128
 43
0.0
 10
1083.8938637005
 20
1075.3483275835
 10
1083.869586604
 20
1076.8700320952
 10
1083.7976882696
 20
1078.3332583559
 10
1083.68093171
 20
1079.6817754011
 10
1083.5238038144
 20
1080.8637604768
 10
1083.3323429196
 20
1081.8337905595
 10
1083.1139067604
 20
1082.5545879371
 10
1082.876889716
 20
1082.9984527706
 10
1082.6304002185
 20
1083.1483275835
  0
LINE
  5
153
330
1F
100
AcDbEntity
  8
0
  6
Continuous
 62
     7
370
    15
100
AcDbLine
 10
1083.8938637005
 20
1075.3483275835
 30
0.0
 11
1083.8938637005
 21
1070.1483275835
 31
0.0
  0
LINE
  5
154
330
1F
100
AcDbEntity
  8
0
  6
Continuous
 62
     7
370
    15
100
AcDbLine
 10
757.6611133366
 20
1075.3483275835
 30
0.0
 11
757.6611133366
 21
1070.1483275835
 31
0.0
  0
LINE
  5
155
330
1F
100
AcDbEntity
  8
0
  6
Continuous
 62
     7
370
    15
100
AcDbLine
 10
1082.6304002185
 20
1083.1483275835
 30
0.0
 11
1096.6252925069
 21
1083.1483275835
 31
0.0
  0
LINE
  5
156
330
1F
100
AcDbEntity
  8
0
  6
Continuous
 62
     7
370
    15
100
AcDbLine
 10
1102.4252925069
 20
1068.1483275835
 30
0.0
 11
1083.5698987051
 21
1068.1483275835
 31
0.0
  0
LINE
  5
157
330
1F
100
AcDbEntity
  8
0
  6
Continuous
 62
     7
370
    15
100
AcDbLine
 10
757.9850783319
 20
1068.1483275835
 30
0.0
 11
739.1296845302
 21
1068.1483275835
 31
0.0
  0
LINE
  5
158
330
1F
100
AcDbEntity
  8
0
  6
Continuous
 62
     7
370
    15
100
AcDbLine
 10
744.9296845302
 20
1083.1483275835
 30
0.0
 11
758.9245768186
 21
1083.1483275835
 31
0.0
  0
LINE
  5
159
330
1F
100
AcDbEntity
  8
0
  6
Continuous
 62
     7
370
    15
100
AcDbLine
 10
757.6611133366
 20
500.6483275835
 30
0.0
 11
1083.8938637005
 21
500.6483275835
 31
0.0
  0
LINE
  5
15A
330
1F
100
AcDbEntity
  8
0
  6
Continuous
 62
     7
370
    15
100
AcDbLine
 10
757.6611133366
 20
500.6483275835
 30
0.0
 11
757.6611133366
 21
505.1483275835
 31
0.0
  0
LINE
  5
15B
330
1F
100
AcDbEntity
  8
0
  6
Continuous
 62
     7
370
    15
100
AcDbLine
 10
1083.8938637005
 20
505.1483275835
 30
0.0
 11
757.6611133366
 21
505.1483275835
 31
0.0
  0
LINE
  5
15C
330
1F
100
AcDbEntity
  8
0
  6
Continuous
 62
     7
370
    15
100
AcDbLine
 10
1083.8938637005
 20
500.6483275835
 30
0.0
 11
1083.8938637005
 21
505.1483275835
 31
0.0
  0
ARC
  5
15D
330
1F
100
AcDbEntity
  8
0
  6
Continuous
 62
     7
370
    15
100
AcDbCircle
 10
762.6557038201
 20
505.8786488363
 30
0.0
 40
5.047702767705876
100
AcDbArc
 50
153.2790338237
 51
188.3189741725
  0
LINE
  5
15E
330
1F
100
AcDbEntity
  8
0
  6
Continuous
 62
     7
370
    15
100
AcDbLine
 10
758.1470608296
 20
508.1483275835
 30
0.0
 11
1083.4079162074
 21
508.1483275835
 31
0.0
  0
ARC
  5
15F
330
1F
100
AcDbEntity
  8
0
  6
Continuous
 62
     7
370
    15
100
AcDbCircle
 10
1078.8992732169
 20
505.8786488363
 30
0.0
 40
5.047702767708389
100
AcDbArc
 50
351.6810258276
 51
26.7209661762
  0
LWPOLYLINE
  5
160
330
1F
100
AcDbEntity
  8
0
  6
Continuous
 62
     7
370
    15
100
AcDbPolyline
 90
        9
 70
   128
 43
0.0
 10
1082.6789949678
 20
493.1483275835
 10
1082.9160041001
 20
493.2924379805
 10
1083.1439051043
 20
493.7192310897
 10
1083.3539398727
 20
494.4123054912
 10
1083.5380368869
 20
495.3450267246
 10
1083.689121402
 20
496.4815508359
 10
1083.8013873246
 20
497.7782018408
 10
1083.8705203385
 20
499.1851501684
 10
1083.8938637005
 20
500.6483275835
  0
LINE
  5
161
330
1F
100
AcDbEntity
  8
0
  6
Continuous
 62
     7
370
    15
100
AcDbLine
 10
1082.6789949678
 20
493.1483275835
 30
0.0
 11
758.8759820693
 21
493.1483275835
 31
0.0
  0
LWPOLYLINE
  5
162
330
1F
100
AcDbEntity
  8
0
  6
Continuous
 62
     7
370
    15
100
AcDbPolyline
 90
        9
 70
   128
 43
0.0
 10
757.6611133366
 20
500.6483275835
 10
757.6844566986
 20
499.1851501684
 10
757.7535897124
 20
497.7782018408
 10
757.8658556351
 20
496.4815508359
 10
758.0169401501
 20
495.3450267246
 10
758.2010371644
 20
494.4123054912
 10
758.4110719328
 20
493.7192310897
 10
758.638972937
 20
493.2924379805
 10
758.8759820693
 20
493.1483275835
  0
LINE
  5
163
330
1F
100
AcDbEntity
  8
0
  6
Continuous
 62
     7
370
    15
100
AcDbLine
 10
1096.9252925069
 20
493.1483275835
 30
0.0
 11
1082.6789949678
 21
493.1483275835
 31
0.0
  0
LINE
  5
164
330
1F
100
AcDbEntity
  8
0
  6
Continuous
 62
     7
370
    15
100
AcDbLine
 10
1083.4079162074
 20
508.1483275835
 30
0.0
 11
1101.4252925069
 21
508.1483275835
 31
0.0
  0
LINE
  5
165
330
1F
100
AcDbEntity
  8
0
  6
Continuous
 62
     7
370
    15
100
AcDbLine
 10
758.8759820693
 20
493.1483275835
 30
0.0
 11
744.6296845302
 21
493.1483275835
 31
0.0
  0
LINE
  5
166
330
1F
100
AcDbEntity
  8
0
  6
Continuous
 62
     7
370
    15
100
AcDbLine
 10
740.1296845302
 20
508.1483275835
 30
0.0
 11
758.1470608296
 21
508.1483275835
 31
0.0
  0
LINE
  5
167
330
1F
100
AcDbEntity
  8
0
  6
Continuous
 62
     8
370
    15
100
AcDbLine
 10
1097.4252925069
 20
1067.3879167339
 30
0.0
 11
1097.8815390167
 21
1068.1483275835
 31
0.0
  0
LINE
  5
168
330
1F
100
AcDbEntity
  8
0
  6
Continuous
 62
     8
370
    15
100
AcDbLine
 10
1097.4252925069
 20
511.6220754894
 30
0.0
 11
1099.8815390167
 21
510.1483275835
 31
0.0
  0
LINE
  5
169
330
1F
100
AcDbEntity
  8
0
  6
Continuous
 62
     8
370
    15
100
AcDbLine
 10
1097.4252925069
 20
508.9087384331
 30
0.0
 11
1097.8815390167
 21
508.1483275835
 31
0.0
  0
LINE
  5
16A
330
1F
100
AcDbEntity
  8
0
  6
Continuous
 62
     8
370
    15
100
AcDbLine
 10
1097.4252925069
 20
1064.6745796776
 30
0.0
 11
1099.8815390167
 21
1066.1483275835
 31
0.0
  0
LINE
  5
16B
330
1F
100
AcDbEntity
  8
0
  6
Continuous
 62
     8
370
    15
100
AcDbLine
 10
743.6734380204
 20
1068.1483275835
 30
0.0
 11
744.1296845302
 21
1067.3879167339
 31
0.0
  0
LINE
  5
16C
330
1F
100
AcDbEntity
  8
0
  6
Continuous
 62
     8
370
    15
100
AcDbLine
 10
741.6734380204
 20
1066.1483275835
 30
0.0
 11
744.1296845302
 21
1064.6745796776
 31
0.0
  0
LINE
  5
16D
330
1F
100
AcDbEntity
  8
0
  6
Continuous
 62
     8
370
    15
100
AcDbLine
 10
741.6734380204
 20
510.1483275835
 30
0.0
 11
744.1296845302
 21
511.6220754894
 31
0.0
  0
LINE
  5
16E
330
1F
100
AcDbEntity
  8
0
  6
Continuous
 62
     8
370
    15
100
AcDbLine
 10
743.6734380204
 20
508.1483275835
 30
0.0
 11
744.1296845302
 21
508.9087384331
 31
0.0
  0
LINE
  5
16F
330
1F
100
AcDbEntity
  8
0
  6
Continuous
 62
     8
370
    15
100
AcDbLine
 10
758.7949908204
 20
1068.1483275835
 30
0.0
 11
758.7949908204
 21
508.1483275835
 31
0.0
  0
LINE
  5
170
330
1F
100
AcDbEntity
  8
0
  6
Continuous
 62
     8
370
    15
100
AcDbLine
 10
1082.7599862166
 20
1068.1483275835
 30
0.0
 11
1082.7599862166
 21
508.1483275835
 31
0.0
  0
LINE
  5
171
330
1F
100
AcDbEntity
  8
0
  6
Continuous
 62
     8
370
    15
100
AcDbLine
 10
993.9109766022
 20
490.8232483067
 30
0.0
 11
995.6084730892
 21
490.8232483067
 31
0.0
  0
LINE
  5
172
330
1F
100
AcDbEntity
  8
0
  6
Continuous
 62
     8
370
    15
100
AcDbLine
 10
979.5696532882
 20
490.8232483067
 30
0.0
 11
993.9109766022
 21
490.8232483067
 31
0.0
  0
LINE
  5
173
330
1F
100
AcDbEntity
  8
0
  6
Continuous
 62
     8
370
    15
100
AcDbLine
 10
1076.988417463
 20
490.8232483067
 30
0.0
 11
1087.3187848906
 21
490.8232483067
 31
0.0
  0
LINE
  5
174
330
1F
100
AcDbEntity
  8
0
  6
Continuous
 62
     8
370
    15
100
AcDbLine
 10
1071.2799650896
 20
490.8232483067
 30
0.0
 11
1076.988417463
 21
490.8232483067
 31
0.0
  0
LINE
  5
175
330
1F
100
AcDbEntity
  8
0
  6
Continuous
 62
     8
370
    15
100
AcDbLine
 10
768.5775154604
 20
490.8232483067
 30
0.0
 11
770.2750119474
 21
490.8232483067
 31
0.0
  0
LINE
  5
176
330
1F
100
AcDbEntity
  8
0
  6
Continuous
 62
     8
370
    15
100
AcDbLine
 10
754.2361921465
 20
490.8232483067
 30
0.0
 11
768.5775154604
 21
490.8232483067
 31
0.0
  0
LINE
  5
177
330
1F
100
AcDbEntity
  8
0
  6
Continuous
 62
     8
370
    15
100
AcDbLine
 10
834.7932909164
 20
490.8232483067
 30
0.0
 11
836.4907874034
 21
490.8232483067
 31
0.0
  0
LINE
  5
178
330
1F
100
AcDbEntity
  8
0
  6
Continuous
 62
     8
370
    15
100
AcDbLine
 10
820.4519676024
 20
490.8232483067
 30
0.0
 11
834.7932909164
 21
490.8232483067
 31
0.0
  0
LINE
  5
179
330
1F
100
AcDbEntity
  8
0
  6
Continuous
 62
     8
370
    15
100
AcDbLine
 10
1104.4252925069
 20
1075.3483275835
 30
0.0
 11
1083.8938637005
 21
1075.3483275835
 31
0.0
  0
LINE
  5
17A
330
1F
100
AcDbEntity
  8
0
  6
Continuous
 62
     8
370
    15
100
AcDbLine
 10
1083.8938637005
 20
1070.1483275835
 30
0.0
 11
1104.4252925069
 21
1070.1483275835
 31
0.0
  0
LINE
  5
17B
330
1F
100
AcDbEntity
  8
0
  6
Continuous
 62
     8
370
    15
100
AcDbLine
 10
737.1296845302
 20
1070.1483275835
 30
0.0
 11
757.6611133366
 21
1070.1483275835
 31
0.0
  0
LINE
  5
17C
330
1F
100
AcDbEntity
  8
0
  6
Continuous
 62
     8
370
    15
100
AcDbLine
 10
757.6611133366
 20
1075.3483275835
 30
0.0
 11
737.1296845302
 21
1075.3483275835
 31
0.0
  0
LINE
  5
17D
330
1F
100
AcDbEntity
  8
0
  6
Continuous
 62
     8
370
    15
100
AcDbLine
 10
1083.8938637005
 20
500.6483275835
 30
0.0
 11
1104.4252925069
 21
500.6483275835
 31
0.0
  0
LINE
  5
17E
330
1F
100
AcDbEntity
  8
0
  6
Continuous
 62
     8
370
    15
100
AcDbLine
 10
1104.4252925069
 20
505.1483275835
 30
0.0
 11
1083.8938637005
 21
505.1483275835
 31
0.0
  0
LINE
  5
17F
330
1F
100
AcDbEntity
  8
0
  6
Continuous
 62
     8
370
    15
100
AcDbLine
 10
737.1296845302
 20
500.6483275835
 30
0.0
 11
757.6611133366
 21
500.6483275835
 31
0.0
  0
LINE
  5
180
330
1F
100
AcDbEntity
  8
0
  6
Continuous
 62
     8
370
    15
100
AcDbLine
 10
757.6611133366
 20
505.1483275835
 30
0.0
 11
737.1296845302
 21
505.1483275835
 31
0.0
  0
DIMENSION
  5
181
330
1F
100
AcDbEntity
  8
MEDIÇÕES
100
AcDbDimension
  2
_D
 10
737.1296845302
 20
390.7483275835
 30
0.0
 11
920.7774885185
 21
390.7483275835
 31
0.0
 70
   160
  1
<>
 71
     2
 42
-1.0
  3
SLDDIMSTYLE0
100
AcDbAlignedDimension
 13
1104.4252925069
 23
500.6483275835
 33
0.0
 14
737.1296845302
 24
500.6483275835
 34
0.0
100
AcDbRotatedDimension
  0
LINE
  5
18C
330
1F
100
AcDbEntity
  8
0
  6
Continuous
 62
     7
370
    15
100
AcDbLine
 10
1564.721035641
 20
1068.1483275835
 30
0.0
 11
1564.721035641
 21
508.1483275835
 31
0.0
  0
LINE
  5
18D
330
1F
100
AcDbEntity
  8
0
  6
Continuous
 62
     7
370
    15
100
AcDbLine
 10
1852.5509166668
 20
521.7206696559
 30
0.0
 11
1854.3489248084
 21
522.4027173986
 31
0.0
  0
LINE
  5
18E
330
1F
100
AcDbEntity
  8
0
  6
Continuous
 62
     7
370
    15
100
AcDbLine
 10
1854.3489248084
 20
537.8939377684
 30
0.0
 11
1852.5509166668
 21
538.5759855111
 31
0.0
  0
LINE
  5
18F
330
1F
100
AcDbEntity
  8
0
  6
Continuous
 62
     7
370
    15
100
AcDbLine
 10
1850.1043834168
 20
520.6483275835
 30
0.0
 11
1850.5286474855
 21
520.6483275835
 31
0.0
  0
LINE
  5
190
330
1F
100
AcDbEntity
  8
0
  6
Continuous
 62
     7
370
    15
100
AcDbLine
 10
1850.5286474855
 20
539.6483275835
 30
0.0
 11
1850.1043834168
 21
539.6483275835
 31
0.0
  0
LINE
  5
191
330
1F
100
AcDbEntity
  8
0
  6
Continuous
 62
     7
370
    15
100
AcDbLine
 10
1779.1661704057
 20
493.1483275835
 30
0.0
 11
1779.7685345512
 21
490.8232483067
 31
0.0
  0
LINE
  5
192
330
1F
100
AcDbEntity
  8
0
  6
Continuous
 62
     7
370
    15
100
AcDbLine
 10
1795.8073543522
 20
490.8232483067
 30
0.0
 11
1796.4097184977
 21
493.1483275835
 31
0.0
  0
ARC
  5
193
330
1F
100
AcDbEntity
  8
0
  6
Continuous
 62
     7
370
    15
100
AcDbCircle
 10
1795.7105502723
 20
490.8483275835
 30
0.0
 40
0.1000000000000965
100
AcDbArc
 50
270.0
 51
345.475570922
  0
ARC
  5
194
330
1F
100
AcDbEntity
  8
0
  6
Continuous
 62
     7
370
    15
100
AcDbCircle
 10
1779.865338631
 20
490.8483275835
 30
0.0
 40
0.0999999999999659
100
AcDbArc
 50
194.524429078
 51
270.0
  0
LINE
  5
195
330
1F
100
AcDbEntity
  8
0
  6
Continuous
 62
     7
370
    15
100
AcDbLine
 10
1586.9786233308
 20
493.1483275835
 30
0.0
 11
1587.5809874764
 21
490.8232483067
 31
0.0
  0
LINE
  5
196
330
1F
100
AcDbEntity
  8
0
  6
Continuous
 62
     7
370
    15
100
AcDbLine
 10
1603.6198072774
 20
490.8232483067
 30
0.0
 11
1604.2221714229
 21
493.1483275835
 31
0.0
  0
ARC
  5
197
330
1F
100
AcDbEntity
  8
0
  6
Continuous
 62
     7
370
    15
100
AcDbCircle
 10
1603.5230031975
 20
490.8483275835
 30
0.0
 40
0.1000000000000965
100
AcDbArc
 50
270.0
 51
345.475570922
  0
ARC
  5
198
330
1F
100
AcDbEntity
  8
0
  6
Continuous
 62
     7
370
    15
100
AcDbCircle
 10
1587.6777915562
 20
490.8483275835
 30
0.0
 40
0.1000000000000965
100
AcDbArc
 50
194.524429078
 51
270.0
  0
LINE
  5
199
330
1F
100
AcDbEntity
  8
0
  6
Continuous
 62
     7
370
    15
100
AcDbLine
 10
1762.7688530691
 20
521.7206696559
 30
0.0
 11
1764.5668612107
 21
522.4027173986
 31
0.0
  0
LINE
  5
19A
330
1F
100
AcDbEntity
  8
0
  6
Continuous
 62
     7
370
    15
100
AcDbLine
 10
1764.5668612107
 20
537.8939377684
 30
0.0
 11
1762.7688530691
 21
538.5759855111
 31
0.0
  0
LINE
  5
19B
330
1F
100
AcDbEntity
  8
0
  6
Continuous
 62
     7
370
    15
100
AcDbLine
 10
1760.3223198191
 20
520.6483275835
 30
0.0
 11
1760.7465838878
 21
520.6483275835
 31
0.0
  0
LINE
  5
19C
330
1F
100
AcDbEntity
  8
0
  6
Continuous
 62
     7
370
    15
100
AcDbLine
 10
1760.7465838878
 20
539.6483275835
 30
0.0
 11
1760.3223198191
 21
539.6483275835
 31
0.0
  0
LINE
  5
19D
330
1F
100
AcDbEntity
  8
0
  6
Continuous
 62
     7
370
    15
100
AcDbLine
 10
1762.7688530691
 20
1037.7206696559
 30
0.0
 11
1764.5668612108
 21
1038.4027173986
 31
0.0
  0
LINE
  5
19E
330
1F
100
AcDbEntity
  8
0
  6
Continuous
 62
     7
370
    15
100
AcDbLine
 10
1764.5668612108
 20
1053.8939377684
 30
0.0
 11
1762.7688530691
 21
1054.5759855111
 31
0.0
  0
LINE
  5
19F
330
1F
100
AcDbEntity
  8
0
  6
Continuous
 62
     7
370
    15
100
AcDbLine
 10
1760.3223198192
 20
1036.6483275835
 30
0.0
 11
1760.7465838879
 21
1036.6483275835
 31
0.0
  0
LINE
  5
1A0
330
1F
100
AcDbEntity
  8
0
  6
Continuous
 62
     7
370
    15
100
AcDbLine
 10
1760.7465838879
 20
1055.6483275835
 30
0.0
 11
1760.3223198192
 21
1055.6483275835
 31
0.0
  0
LINE
  5
1A1
330
1F
100
AcDbEntity
  8
0
  6
Continuous
 62
     7
370
    15
100
AcDbLine
 10
1834.099261595
 20
493.1483275835
 30
0.0
 11
1834.7016257405
 21
490.8232483067
 31
0.0
  0
LINE
  5
1A2
330
1F
100
AcDbEntity
  8
0
  6
Continuous
 62
     7
370
    15
100
AcDbLine
 10
1850.7404455415
 20
490.8232483067
 30
0.0
 11
1851.342809687
 21
493.1483275835
 31
0.0
  0
ARC
  5
1A3
330
1F
100
AcDbEntity
  8
0
  6
Continuous
 62
     7
370
    15
100
AcDbCircle
 10
1850.6436414617
 20
490.8483275835
 30
0.0
 40
0.0999999999999659
100
AcDbArc
 50
270.0
 51
345.4755709219
  0
ARC
  5
1A4
330
1F
100
AcDbEntity
  8
0
  6
Continuous
 62
     7
370
    15
100
AcDbCircle
 10
1834.7984298204
 20
490.8483275835
 30
0.0
 40
0.1000000000000965
100
AcDbArc
 50
194.524429078
 51
270.0
  0
LINE
  5
1A5
330
1F
100
AcDbEntity
  8
0
  6
Continuous
 62
     7
370
    15
100
AcDbLine
 10
1852.5509166668
 20
1037.7206696559
 30
0.0
 11
1854.3489248084
 21
1038.4027173986
 31
0.0
  0
LINE
  5
1A6
330
1F
100
AcDbEntity
  8
0
  6
Continuous
 62
     7
370
    15
100
AcDbLine
 10
1854.3489248084
 20
1053.8939377684
 30
0.0
 11
1852.5509166668
 21
1054.5759855111
 31
0.0
  0
LINE
  5
1A7
330
1F
100
AcDbEntity
  8
0
  6
Continuous
 62
     7
370
    15
100
AcDbLine
 10
1850.1043834168
 20
1036.6483275835
 30
0.0
 11
1850.5286474855
 21
1036.6483275835
 31
0.0
  0
LINE
  5
1A8
330
1F
100
AcDbEntity
  8
0
  6
Continuous
 62
     7
370
    15
100
AcDbLine
 10
1850.5286474855
 20
1055.6483275835
 30
0.0
 11
1850.1043834168
 21
1055.6483275835
 31
0.0
  0
LINE
  5
1A9
330
1F
100
AcDbEntity
  8
0
  6
Continuous
 62
     7
370
    15
100
AcDbLine
 10
1738.721035641
 20
1083.6483275835
 30
0.0
 11
1739.3043689743
 21
1083.1483275835
 31
0.0
  0
LINE
  5
1AA
330
1F
100
AcDbEntity
  8
0
  6
Continuous
 62
     7
370
    15
100
AcDbLine
 10
1750.1377023077
 20
1083.1483275835
 30
0.0
 11
1750.721035641
 21
1083.6483275835
 31
0.0
  0
ARC
  5
1AB
330
1F
100
AcDbEntity
  8
0
  6
Continuous
 62
     7
370
    15
100
AcDbCircle
 10
1565.521035641
 20
1075.3483275835
 30
0.0
 40
7.799999999999955
100
AcDbArc
 50
90.0
 51
180.0
  0
LINE
  5
1AC
330
1F
100
AcDbEntity
  8
0
  6
Continuous
 62
     7
370
    15
100
AcDbLine
 10
1557.721035641
 20
1075.3483275835
 30
0.0
 11
1557.721035641
 21
1070.1483275835
 31
0.0
  0
ARC
  5
1AD
330
1F
100
AcDbEntity
  8
0
  6
Continuous
 62
     7
370
    15
100
AcDbCircle
 10
1559.721035641
 20
1070.1483275835
 30
0.0
 40
2.0
100
AcDbArc
 50
180.0
 51
270.0
  0
ARC
  5
1AE
330
1F
100
AcDbEntity
  8
0
  6
Continuous
 62
     7
370
    15
100
AcDbCircle
 10
1565.221035641
 20
500.6483275835
 30
0.0
 40
7.5
100
AcDbArc
 50
180.0
 51
270.0
  0
LINE
  5
1AF
330
1F
100
AcDbEntity
  8
0
  6
Continuous
 62
     7
370
    15
100
AcDbLine
 10
1557.721035641
 20
505.1483275835
 30
0.0
 11
1557.721035641
 21
500.6483275835
 31
0.0
  0
ARC
  5
1B0
330
1F
100
AcDbEntity
  8
0
  6
Continuous
 62
     7
370
    15
100
AcDbCircle
 10
1560.721035641
 20
505.1483275835
 30
0.0
 40
3.0
100
AcDbArc
 50
90.0
 51
180.0
  0
LINE
  5
1B1
330
1F
100
AcDbEntity
  8
0
  6
Continuous
 62
     7
370
    15
100
AcDbLine
 10
1867.721035641
 20
1066.1483275835
 30
0.0
 11
1867.1120719011
 21
1066.1483275835
 31
0.0
  0
ARC
  5
1B2
330
1F
100
AcDbEntity
  8
0
  6
Continuous
 62
     7
370
    15
100
AcDbCircle
 10
1865.1850565022
 20
1066.2215508882
 30
0.0
 40
1.928406077568006
100
AcDbArc
 50
357.8239048463
 51
87.6445143555
  0
LINE
  5
1B3
330
1F
100
AcDbEntity
  8
0
  6
Continuous
 62
     7
370
    15
100
AcDbLine
 10
1865.2643128361
 20
1068.1483275835
 30
0.0
 11
1865.721035641
 21
1068.1483275835
 31
0.0
  0
ARC
  5
1B4
330
1F
100
AcDbEntity
  8
0
  6
Continuous
 62
     7
370
    15
100
AcDbCircle
 10
1865.721035641
 20
1066.1483275835
 30
0.0
 40
2.0
100
AcDbArc
 50
0.0
 51
90.0
  0
LINE
  5
1B5
330
1F
100
AcDbEntity
  8
0
  6
Continuous
 62
     7
370
    15
100
AcDbLine
 10
1867.1120719011
 20
510.1483275835
 30
0.0
 11
1867.721035641
 21
510.1483275835
 31
0.0
  0
LINE
  5
1B6
330
1F
100
AcDbEntity
  8
0
  6
Continuous
 62
     7
370
    15
100
AcDbLine
 10
1867.1120719011
 20
510.1483275835
 30
0.0
 11
1867.1120719011
 21
1066.1483275835
 31
0.0
  0
LINE
  5
1B7
330
1F
100
AcDbEntity
  8
0
  6
Continuous
 62
     7
370
    15
100
AcDbLine
 10
1867.721035641
 20
1066.1483275835
 30
0.0
 11
1867.721035641
 21
510.1483275835
 31
0.0
  0
ARC
  5
1B8
330
1F
100
AcDbEntity
  8
0
  6
Continuous
 62
     7
370
    15
100
AcDbCircle
 10
1865.721035641
 20
510.1483275835
 30
0.0
 40
2.0
100
AcDbArc
 50
270.0
 51
0.0
  0
LINE
  5
1B9
330
1F
100
AcDbEntity
  8
0
  6
Continuous
 62
     7
370
    15
100
AcDbLine
 10
1865.721035641
 20
508.1483275835
 30
0.0
 11
1865.2643128361
 21
508.1483275835
 31
0.0
  0
ARC
  5
1BA
330
1F
100
AcDbEntity
  8
0
  6
Continuous
 62
     7
370
    15
100
AcDbCircle
 10
1865.1850565022
 20
510.0751042788
 30
0.0
 40
1.928406077568004
100
AcDbArc
 50
272.3554856445
 51
2.1760951537
  0
LWPOLYLINE
  5
1BB
330
1F
100
AcDbEntity
  8
0
  6
Continuous
 62
     7
370
    15
100
AcDbPolyline
 90
        9
 70
   128
 43
0.0
 10
1745.6547007958
 20
1066.1483275835
 10
1745.6354860762
 20
1066.5385082275
 10
1745.5785803284
 20
1066.9136944482
 10
1745.4861704081
 20
1067.2594680495
 10
1745.361807577
 20
1067.5625411459
 10
1745.2102710289
 20
1067.8112668081
 10
1745.0373842282
 20
1067.9960866485
 10
1744.8497911179
 20
1068.1098981443
 10
1744.6547007958
 20
1068.1483275835
  0
LINE
  5
1BC
330
1F
100
AcDbEntity
  8
0
  6
Continuous
 62
     7
370
    15
100
AcDbLine
 10
1745.6547007958
 20
510.1483275835
 30
0.0
 11
1745.6547007958
 21
1066.1483275835
 31
0.0
  0
LWPOLYLINE
  5
1BD
330
1F
100
AcDbEntity
  8
0
  6
Continuous
 62
     7
370
    15
100
AcDbPolyline
 90
        9
 70
   128
 43
0.0
 10
1744.6547007958
 20
508.1483275835
 10
1744.8497911179
 20
508.1867570227
 10
1745.0373842282
 20
508.3005685185
 10
1745.2102710289
 20
508.4853883589
 10
1745.361807577
 20
508.7341140211
 10
1745.4861704081
 20
509.0371871175
 10
1745.5785803284
 20
509.3829607188
 10
1745.6354860762
 20
509.7581469395
 10
1745.6547007958
 20
510.1483275835
  0
LINE
  5
1BE
330
1F
100
AcDbEntity
  8
0
  6
Continuous
 62
     7
370
    15
100
AcDbLine
 10
1745.6547007958
 20
510.1483275835
 30
0.0
 11
1747.3115550453
 21
510.1483275835
 31
0.0
  0
ARC
  5
1BF
330
1F
100
AcDbEntity
  8
0
  6
Continuous
 62
     7
370
    15
100
AcDbCircle
 10
1745.5437880924
 20
509.8983275835
 30
0.0
 40
1.785357107135422
100
AcDbArc
 50
281.4217536589
 51
8.0494669755
  0
LINE
  5
1C0
330
1F
100
AcDbEntity
  8
0
  6
Continuous
 62
     7
370
    15
100
AcDbLine
 10
1745.897341483
 20
508.1483275835
 30
0.0
 11
1744.6547007958
 21
508.1483275835
 31
0.0
  0
LINE
  5
1C1
330
1F
100
AcDbEntity
  8
0
  6
Continuous
 62
     7
370
    15
100
AcDbLine
 10
1747.3115550453
 20
1066.1483275835
 30
0.0
 11
1745.6547007958
 21
1066.1483275835
 31
0.0
  0
LINE
  5
1C2
330
1F
100
AcDbEntity
  8
0
  6
Continuous
 62
     7
370
    15
100
AcDbLine
 10
1744.6547007958
 20
1068.1483275835
 30
0.0
 11
1745.897341483
 21
1068.1483275835
 31
0.0
  0
ARC
  5
1C3
330
1F
100
AcDbEntity
  8
0
  6
Continuous
 62
     7
370
    15
100
AcDbCircle
 10
1745.5437880924
 20
1066.3983275835
 30
0.0
 40
1.785357107135171
100
AcDbArc
 50
351.9505330245
 51
78.5782463411
  0
LINE
  5
1C4
330
1F
100
AcDbEntity
  8
0
  6
Continuous
 62
     7
370
    15
100
AcDbLine
 10
1747.3115550453
 20
1066.1483275835
 30
0.0
 11
1747.3115550453
 21
510.1483275835
 31
0.0
  0
LINE
  5
1C5
330
1F
100
AcDbEntity
  8
0
  6
Continuous
 62
     7
370
    15
100
AcDbLine
 10
1863.9636763281
 20
508.1483275835
 30
0.0
 11
1745.897341483
 21
508.1483275835
 31
0.0
  0
LINE
  5
1C6
330
1F
100
AcDbEntity
  8
0
  6
Continuous
 62
     7
370
    15
100
AcDbLine
 10
1747.3115550453
 20
510.1483275835
 30
0.0
 11
1865.3778898905
 21
510.1483275835
 31
0.0
  0
ARC
  5
1C7
330
1F
100
AcDbEntity
  8
0
  6
Continuous
 62
     7
370
    15
100
AcDbCircle
 10
1863.6101229375
 20
509.8983275835
 30
0.0
 40
1.785357107135422
100
AcDbArc
 50
281.4217536589
 51
8.0494669755
  0
LINE
  5
1C8
330
1F
100
AcDbEntity
  8
0
  6
Continuous
 62
     7
370
    15
100
AcDbLine
 10
1865.3778898905
 20
1066.1483275835
 30
0.0
 11
1747.3115550453
 21
1066.1483275835
 31
0.0
  0
LINE
  5
1C9
330
1F
100
AcDbEntity
  8
0
  6
Continuous
 62
     7
370
    15
100
AcDbLine
 10
1745.897341483
 20
1068.1483275835
 30
0.0
 11
1863.9636763281
 21
1068.1483275835
 31
0.0
  0
ARC
  5
1CA
330
1F
100
AcDbEntity
  8
0
  6
Continuous
 62
     7
370
    15
100
AcDbCircle
 10
1863.6101229375
 20
1066.3983275835
 30
0.0
 40
1.785357107135098
100
AcDbArc
 50
351.9505330245
 51
78.5782463411
  0
LINE
  5
1CB
330
1F
100
AcDbEntity
  8
0
  6
Continuous
 62
     7
370
    15
100
AcDbLine
 10
1865.3778898905
 20
1066.1483275835
 30
0.0
 11
1865.3778898905
 21
510.1483275835
 31
0.0
  0
LWPOLYLINE
  5
1CC
330
1F
100
AcDbEntity
  8
0
  6
Continuous
 62
     7
370
    15
100
AcDbPolyline
 90
       30
 70
   128
 43
0.0
 10
1767.7026377094
 20
534.8282123868
 10
1767.4022514466
 20
535.5547357581
 10
1766.5712631302
 20
537.0491176983
 10
1765.5553124113
 20
538.294087104
 10
1764.391118396
 20
539.244647537
 10
1763.1207580893
 20
539.8664432667
 10
1761.7901456224
 20
540.1370009753
 10
1760.447372797
 20
540.0465420023
 10
1759.1409709213
 20
539.5983357706
 10
1757.9181567631
 20
538.8085816213
 10
1756.823126012
 20
537.705823327
 10
1755.8954559324
 20
536.3299174457
 10
1755.168674938
 20
534.7305928008
 10
1754.6690507876
 20
532.9656531519
 10
1754.4146411997
 20
531.0988880165
 10
1754.4146411997
 20
529.1977671505
 10
1754.6690507876
 20
527.3310020151
 10
1755.168674938
 20
525.5660623662
 10
1755.8954559324
 20
523.9667377213
 10
1756.823126012
 20
522.59083184
 10
1757.9181567631
 20
521.4880735457
 10
1759.1409709213
 20
520.6983193964
 10
1760.447372797
 20
520.2501131647
 10
1761.7901456224
 20
520.1596541917
 10
1763.1207580893
 20
520.4302119003
 10
1764.391118396
 20
521.05200763
 10
1765.5553124113
 20
522.002568063
 10
1766.5712631302
 20
523.2475374687
 10
1767.4022514466
 20
524.7419194089
 10
1767.7026377094
 20
525.4684427802
  0
LWPOLYLINE
  5
1CD
330
1F
100
AcDbEntity
  8
0
  6
Continuous
 62
     7
370
    15
100
AcDbPolyline
 90
       30
 70
   128
 43
0.0
 10
1857.4847012921
 20
534.8282124268
 10
1857.1843150443
 20
535.5547357581
 10
1856.3533267279
 20
537.0491176983
 10
1855.337376009
 20
538.294087104
 10
1854.1731819937
 20
539.244647537
 10
1852.9028216869
 20
539.8664432667
 10
1851.5722092201
 20
540.1370009753
 10
1850.2294363946
 20
540.0465420023
 10
1848.923034519
 20
539.5983357706
 10
1847.7002203608
 20
538.8085816213
 10
1846.6051896096
 20
537.705823327
 10
1845.67751953
 20
536.3299174457
 10
1844.9507385357
 20
534.7305928008
 10
1844.4511143853
 20
532.9656531519
 10
1844.1967047974
 20
531.0988880165
 10
1844.1967047974
 20
529.1977671505
 10
1844.4511143853
 20
527.3310020151
 10
1844.9507385357
 20
525.5660623662
 10
1845.67751953
 20
523.9667377213
 10
1846.6051896096
 20
522.59083184
 10
1847.7002203608
 20
521.4880735457
 10
1848.923034519
 20
520.6983193964
 10
1850.2294363946
 20
520.2501131647
 10
1851.5722092201
 20
520.1596541917
 10
1852.9028216869
 20
520.4302119003
 10
1854.1731819937
 20
521.05200763
 10
1855.337376009
 20
522.002568063
 10
1856.3533267279
 20
523.2475374687
 10
1857.1843150443
 20
524.7419194089
 10
1857.484701291
 20
525.4684427371
  0
LWPOLYLINE
  5
1CE
330
1F
100
AcDbEntity
  8
0
  6
Continuous
 62
     7
370
    15
100
AcDbPolyline
 90
       30
 70
   128
 43
0.0
 10
1857.4847013199
 20
1050.8282123528
 10
1857.1843150443
 20
1051.5547357581
 10
1856.3533267279
 20
1053.0491176983
 10
1855.337376009
 20
1054.294087104
 10
1854.1731819937
 20
1055.244647537
 10
1852.902821687
 20
1055.8664432667
 10
1851.5722092201
 20
1056.1370009753
 10
1850.2294363947
 20
1056.0465420023
 10
1848.923034519
 20
1055.5983357706
 10
1847.7002203608
 20
1054.8085816213
 10
1846.6051896097
 20
1053.705823327
 10
1845.6775195301
 20
1052.3299174457
 10
1844.9507385357
 20
1050.7305928008
 10
1844.4511143853
 20
1048.9656531519
 10
1844.1967047974
 20
1047.0988880165
 10
1844.1967047974
 20
1045.1977671505
 10
1844.4511143853
 20
1043.3310020151
 10
1844.9507385357
 20
1041.5660623662
 10
1845.6775195301
 20
1039.9667377213
 10
1846.6051896097
 20
1038.59083184
 10
1847.7002203608
 20
1037.4880735457
 10
1848.923034519
 20
1036.6983193964
 10
1850.2294363947
 20
1036.2501131647
 10
1851.5722092201
 20
1036.1596541917
 10
1852.902821687
 20
1036.4302119003
 10
1854.1731819937
 20
1037.05200763
 10
1855.337376009
 20
1038.002568063
 10
1856.3533267279
 20
1039.2475374687
 10
1857.1843150443
 20
1040.7419194089
 10
1857.484701319
 20
1041.4684428119
  0
LWPOLYLINE
  5
1CF
330
1F
100
AcDbEntity
  8
0
  6
Continuous
 62
     7
370
    15
100
AcDbPolyline
 90
       30
 70
   128
 43
0.0
 10
1767.7026377096
 20
1050.8282123866
 10
1767.4022514467
 20
1051.5547357581
 10
1766.5712631303
 20
1053.0491176983
 10
1765.5553124114
 20
1054.294087104
 10
1764.3911183961
 20
1055.244647537
 10
1763.1207580893
 20
1055.8664432667
 10
1761.7901456225
 20
1056.1370009753
 10
1760.447372797
 20
1056.0465420023
 10
1759.1409709214
 20
1055.5983357706
 10
1757.9181567631
 20
1054.8085816213
 10
1756.823126012
 20
1053.705823327
 10
1755.8954559324
 20
1052.3299174457
 10
1755.1686749381
 20
1050.7305928008
 10
1754.6690507876
 20
1048.9656531519
 10
1754.4146411998
 20
1047.0988880165
 10
1754.4146411998
 20
1045.1977671505
 10
1754.6690507876
 20
1043.3310020151
 10
1755.1686749381
 20
1041.5660623662
 10
1755.8954559324
 20
1039.9667377213
 10
1756.823126012
 20
1038.59083184
 10
1757.9181567631
 20
1037.4880735457
 10
1759.1409709214
 20
1036.6983193964
 10
1760.447372797
 20
1036.2501131647
 10
1761.7901456225
 20
1036.1596541917
 10
1763.1207580893
 20
1036.4302119003
 10
1764.3911183961
 20
1037.05200763
 10
1765.5553124114
 20
1038.002568063
 10
1766.5712631303
 20
1039.2475374687
 10
1767.4022514467
 20
1040.7419194089
 10
1767.7026377096
 20
1041.4684427804
  0
ARC
  5
1D0
330
1F
100
AcDbEntity
  8
0
  6
Continuous
 62
     7
370
    15
100
AcDbCircle
 10
1759.9432204664
 20
1049.8942274897
 30
0.0
 40
6.293370215207485
100
AcDbArc
 50
37.6691513625
 51
81.365897822
  0
ARC
  5
1D1
330
1F
100
AcDbEntity
  8
0
  6
Continuous
 62
     7
370
    15
100
AcDbCircle
 10
1759.9289083525
 20
1042.4407212586
 30
0.0
 40
6.333383984381853
100
AcDbArc
 50
278.7101041925
 51
323.6126021724
  0
ARC
  5
1D2
330
1F
100
AcDbEntity
  8
0
  6
Continuous
 62
     7
370
    15
100
AcDbCircle
 10
1759.9432204663
 20
533.8942274897
 30
0.0
 40
6.293370215259446
100
AcDbArc
 50
37.669151361
 51
81.3658978216
  0
ARC
  5
1D3
330
1F
100
AcDbEntity
  8
0
  6
Continuous
 62
     7
370
    15
100
AcDbCircle
 10
1759.9289083525
 20
526.4407212586
 30
0.0
 40
6.333383984361113
100
AcDbArc
 50
278.7101041928
 51
323.6126021714
  0
ARC
  5
1D4
330
1F
100
AcDbEntity
  8
0
  6
Continuous
 62
     7
370
    15
100
AcDbCircle
 10
1849.725284064
 20
1049.8942274897
 30
0.0
 40
6.293370215194963
100
AcDbArc
 50
37.669151363
 51
81.3658978219
  0
ARC
  5
1D5
330
1F
100
AcDbEntity
  8
0
  6
Continuous
 62
     7
370
    15
100
AcDbCircle
 10
1849.7109719507
 20
1042.4407212571
 30
0.0
 40
6.333383982814773
100
AcDbArc
 50
278.7101041896
 51
323.6126021226
  0
ARC
  5
1D6
330
1F
100
AcDbEntity
  8
0
  6
Continuous
 62
     7
370
    15
100
AcDbCircle
 10
1849.7252840644
 20
533.8942274907
 30
0.0
 40
6.293370214205212
100
AcDbArc
 50
37.6691513932
 51
81.3658978261
  0
ARC
  5
1D7
330
1F
100
AcDbEntity
  8
0
  6
Continuous
 62
     7
370
    15
100
AcDbCircle
 10
1849.7109719498
 20
526.4407212597
 30
0.0
 40
6.333383985463292
100
AcDbArc
 50
278.710104192
 51
323.6126022087
  0
LINE
  5
1D8
330
1F
100
AcDbEntity
  8
0
  6
Continuous
 62
     7
370
    15
100
AcDbLine
 10
1867.1120719011
 20
1066.1483275835
 30
0.0
 11
1865.3778898905
 21
1066.1483275835
 31
0.0
  0
LINE
  5
1D9
330
1F
100
AcDbEntity
  8
0
  6
Continuous
 62
     7
370
    15
100
AcDbLine
 10
1865.3778898905
 20
510.1483275835
 30
0.0
 11
1867.1120719011
 21
510.1483275835
 31
0.0
  0
LINE
  5
1DA
330
1F
100
AcDbEntity
  8
0
  6
Continuous
 62
     7
370
    15
100
AcDbLine
 10
1863.9636763281
 20
1068.1483275835
 30
0.0
 11
1865.2643128361
 21
1068.1483275835
 31
0.0
  0
LINE
  5
1DB
330
1F
100
AcDbEntity
  8
0
  6
Continuous
 62
     7
370
    15
100
AcDbLine
 10
1865.2643128361
 20
508.1483275835
 30
0.0
 11
1863.9636763281
 21
508.1483275835
 31
0.0
  0
LINE
  5
1DC
330
1F
100
AcDbEntity
  8
0
  6
Continuous
 62
     7
370
    15
100
AcDbLine
 10
1614.721035641
 20
510.1483275835
 30
0.0
 11
1616.0151308665
 21
510.1483275835
 31
0.0
  0
ELLIPSE
  5
1DD
330
1F
100
AcDbEntity
  8
0
  6
Continuous
 62
     7
370
    15
100
AcDbEllipse
 10
1614.721035641
 20
513.1483275835
 30
0.0
 11
5.0
 21
0.0
 31
0.0
210
0.0
220
0.0
230
1.0
 40
0.6
 41
3.141592653589793
 42
4.712388980384699
  0
LINE
  5
1DE
330
1F
100
AcDbEntity
  8
0
  6
Continuous
 62
     7
370
    15
100
AcDbLine
 10
1609.721035641
 20
513.1483275835
 30
0.0
 11
1609.721035641
 21
1063.1483275835
 31
0.0
  0
ELLIPSE
  5
1DF
330
1F
100
AcDbEntity
  8
0
  6
Continuous
 62
     7
370
    15
100
AcDbEllipse
 10
1614.721035641
 20
1063.1483275835
 30
0.0
 11
5.0
 21
0.0
 31
0.0
210
0.0
220
0.0
230
1.0
 40
0.6
 41
1.570796326794897
 42
3.141592653589793
  0
LINE
  5
1E0
330
1F
100
AcDbEntity
  8
0
  6
Continuous
 62
     7
370
    15
100
AcDbLine
 10
1616.0151308665
 20
1066.1483275835
 30
0.0
 11
1614.721035641
 21
1066.1483275835
 31
0.0
  0
LINE
  5
1E1
330
1F
100
AcDbEntity
  8
0
  6
Continuous
 62
     7
370
    15
100
AcDbLine
 10
1616.0151308665
 20
1066.1483275835
 30
0.0
 11
1616.0151308665
 21
510.1483275835
 31
0.0
  0
ARC
  5
1E2
330
1F
100
AcDbEntity
  8
0
  6
Continuous
 62
     7
370
    15
100
AcDbCircle
 10
1614.721035641
 20
1063.1483275835
 30
0.0
 40
5.0
100
AcDbArc
 50
90.0
 51
180.0
  0
LINE
  5
1E3
330
1F
100
AcDbEntity
  8
0
  6
Continuous
 62
     7
370
    15
100
AcDbLine
 10
1614.721035641
 20
1066.1483275835
 30
0.0
 11
1614.721035641
 21
1068.1483275835
 31
0.0
  0
LINE
  5
1E4
330
1F
100
AcDbEntity
  8
0
  6
Continuous
 62
     7
370
    15
100
AcDbLine
 10
1614.721035641
 20
508.1483275835
 30
0.0
 11
1614.721035641
 21
510.1483275835
 31
0.0
  0
ARC
  5
1E5
330
1F
100
AcDbEntity
  8
0
  6
Continuous
 62
     7
370
    15
100
AcDbCircle
 10
1614.721035641
 20
513.1483275835
 30
0.0
 40
5.000000000000057
100
AcDbArc
 50
180.0
 51
270.0
  0
ARC
  5
1E6
330
1F
100
AcDbEntity
  8
0
  6
Continuous
 62
     7
370
    15
100
AcDbCircle
 10
1613.6950506463
 20
1066.6148339344
 30
0.0
 40
2.366516512467828
100
AcDbArc
 50
348.6309454912
 51
40.3906919069
  0
ARC
  5
1E7
330
1F
100
AcDbEntity
  8
0
  6
Continuous
 62
     7
370
    15
100
AcDbCircle
 10
1613.6950506463
 20
509.6818212326
 30
0.0
 40
2.366516512468486
100
AcDbArc
 50
319.6093080931
 51
11.3690545088
  0
LINE
  5
1E8
330
1F
100
AcDbEntity
  8
0
  6
Continuous
 62
     7
370
    15
100
AcDbLine
 10
1615.4974927763
 20
508.1483275835
 30
0.0
 11
1614.721035641
 21
508.1483275835
 31
0.0
  0
LINE
  5
1E9
330
1F
100
AcDbEntity
  8
0
  6
Continuous
 62
     7
370
    15
100
AcDbLine
 10
1743.7252531567
 20
1066.1483275835
 30
0.0
 11
1743.7252531567
 21
510.1483275835
 31
0.0
  0
LINE
  5
1EA
330
1F
100
AcDbEntity
  8
0
  6
Continuous
 62
     7
370
    15
100
AcDbLine
 10
1616.0151308665
 20
510.1483275835
 30
0.0
 11
1743.7252531567
 21
510.1483275835
 31
0.0
  0
LINE
  5
1EB
330
1F
100
AcDbEntity
  8
0
  6
Continuous
 62
     7
370
    15
100
AcDbLine
 10
1743.7252531567
 20
1066.1483275835
 30
0.0
 11
1616.0151308665
 21
1066.1483275835
 31
0.0
  0
LWPOLYLINE
  5
1EC
330
1F
100
AcDbEntity
  8
0
  6
Continuous
 62
     7
370
    15
100
AcDbPolyline
 90
       26
 70
   128
 43
0.0
 10
1698.1859160523
 20
548.1483275835
 10
1698.3679940686
 20
549.6404669065
 10
1698.902787486
 20
551.0388496281
 10
1699.7566932674
 20
552.2556102191
 10
1700.8760573719
 20
553.2142951365
 10
1702.1905460363
 20
553.8546666813
 10
1703.6175651033
 20
554.1364879541
 10
1705.0674497168
 20
554.0420510879
 10
1706.4490982942
 20
553.5772898983
 10
1707.675696774
 20
552.7714070402
 10
1708.6701734627
 20
551.6750390973
 10
1709.3700417324
 20
550.3570748996
 10
1709.7313262859
 20
548.9003269849
 10
1709.7313262859
 20
547.3963281821
 10
1709.3700417324
 20
545.9395802674
 10
1708.6701734627
 20
544.6216160697
 10
1707.675696774
 20
543.5252481268
 10
1706.4490982942
 20
542.7193652687
 10
1705.0674497168
 20
542.2546040791
 10
1703.6175651033
 20
542.1601672129
 10
1702.1905460363
 20
542.4419884857
 10
1700.8760573719
 20
543.0823600305
 10
1699.7566932674
 20
544.0410449479
 10
1698.902787486
 20
545.2578055389
 10
1698.3679940686
 20
546.6561882605
 10
1698.1859160523
 20
548.1483275835
  0
LWPOLYLINE
  5
1ED
330
1F
100
AcDbEntity
  8
0
  6
Continuous
 62
     7
370
    15
100
AcDbPolyline
 90
       26
 70
   128
 43
0.0
 10
1698.1859160523
 20
1043.1483275835
 10
1698.3679940686
 20
1044.6404669065
 10
1698.902787486
 20
1046.0388496281
 10
1699.7566932674
 20
1047.2556102191
 10
1700.8760573719
 20
1048.2142951365
 10
1702.1905460363
 20
1048.8546666813
 10
1703.6175651033
 20
1049.1364879541
 10
1705.0674497168
 20
1049.0420510879
 10
1706.4490982942
 20
1048.5772898983
 10
1707.675696774
 20
1047.7714070402
 10
1708.6701734627
 20
1046.6750390973
 10
1709.3700417324
 20
1045.3570748996
 10
1709.7313262859
 20
1043.9003269849
 10
1709.7313262859
 20
1042.3963281821
 10
1709.3700417324
 20
1040.9395802674
 10
1708.6701734627
 20
1039.6216160697
 10
1707.675696774
 20
1038.5252481268
 10
1706.4490982942
 20
1037.7193652687
 10
1705.0674497168
 20
1037.2546040791
 10
1703.6175651033
 20
1037.1601672129
 10
1702.1905460363
 20
1037.4419884857
 10
1700.8760573719
 20
1038.0823600305
 10
1699.7566932674
 20
1039.0410449479
 10
1698.902787486
 20
1040.2578055389
 10
1698.3679940686
 20
1041.6561882605
 10
1698.1859160523
 20
1043.1483275835
  0
ARC
  5
1EE
330
1F
100
AcDbEntity
  8
0
  6
Continuous
 62
     7
370
    15
100
AcDbCircle
 10
1741.4051729364
 20
1066.6148339344
 30
0.0
 40
2.366516512470012
100
AcDbArc
 50
348.6309454912
 51
40.3906919069
  0
LINE
  5
1EF
330
1F
100
AcDbEntity
  8
0
  6
Continuous
 62
     7
370
    15
100
AcDbLine
 10
1615.4974927763
 20
1068.1483275835
 30
0.0
 11
1743.2076150665
 21
1068.1483275835
 31
0.0
  0
ARC
  5
1F0
330
1F
100
AcDbEntity
  8
0
  6
Continuous
 62
     7
370
    15
100
AcDbCircle
 10
1741.4051729364
 20
509.6818212326
 30
0.0
 40
2.366516512469767
100
AcDbArc
 50
319.6093080931
 51
11.3690545088
  0
LINE
  5
1F1
330
1F
100
AcDbEntity
  8
0
  6
Continuous
 62
     7
370
    15
100
AcDbLine
 10
1743.2076150665
 20
508.1483275835
 30
0.0
 11
1615.4974927763
 21
508.1483275835
 31
0.0
  0
LINE
  5
1F2
330
1F
100
AcDbEntity
  8
0
  6
Continuous
 62
     7
370
    15
100
AcDbLine
 10
1609.721035641
 20
1068.1483275835
 30
0.0
 11
1609.721035641
 21
1063.1483275835
 31
0.0
  0
LINE
  5
1F3
330
1F
100
AcDbEntity
  8
0
  6
Continuous
 62
     7
370
    15
100
AcDbLine
 10
1609.721035641
 20
508.1483275835
 30
0.0
 11
1609.721035641
 21
513.1483275835
 31
0.0
  0
LINE
  5
1F4
330
1F
100
AcDbEntity
  8
0
  6
Continuous
 62
     7
370
    15
100
AcDbLine
 10
1745.6547007958
 20
1066.1483275835
 30
0.0
 11
1743.7252531567
 21
1066.1483275835
 31
0.0
  0
LWPOLYLINE
  5
1F5
330
1F
100
AcDbEntity
  8
0
  6
Continuous
 62
     7
370
    15
100
AcDbPolyline
 90
        9
 70
   128
 43
0.0
 10
1744.6547007958
 20
1068.1483275835
 10
1744.8497911179
 20
1068.1098981443
 10
1745.0373842282
 20
1067.9960866485
 10
1745.2102710289
 20
1067.8112668081
 10
1745.361807577
 20
1067.5625411459
 10
1745.4861704081
 20
1067.2594680495
 10
1745.5785803284
 20
1066.9136944482
 10
1745.6354860762
 20
1066.5385082275
 10
1745.6547007958
 20
1066.1483275835
  0
LINE
  5
1F6
330
1F
100
AcDbEntity
  8
0
  6
Continuous
 62
     7
370
    15
100
AcDbLine
 10
1743.2076150665
 20
1068.1483275835
 30
0.0
 11
1744.6547007958
 21
1068.1483275835
 31
0.0
  0
LINE
  5
1F7
330
1F
100
AcDbEntity
  8
0
  6
Continuous
 62
     7
370
    15
100
AcDbLine
 10
1743.7252531567
 20
510.1483275835
 30
0.0
 11
1745.6547007958
 21
510.1483275835
 31
0.0
  0
LWPOLYLINE
  5
1F8
330
1F
100
AcDbEntity
  8
0
  6
Continuous
 62
     7
370
    15
100
AcDbPolyline
 90
        9
 70
   128
 43
0.0
 10
1745.6547007958
 20
510.1483275835
 10
1745.6354860762
 20
509.7581469395
 10
1745.5785803284
 20
509.3829607188
 10
1745.4861704081
 20
509.0371871175
 10
1745.361807577
 20
508.7341140211
 10
1745.2102710289
 20
508.4853883589
 10
1745.0373842282
 20
508.3005685185
 10
1744.8497911179
 20
508.1867570227
 10
1744.6547007958
 20
508.1483275835
  0
LINE
  5
1F9
330
1F
100
AcDbEntity
  8
0
  6
Continuous
 62
     7
370
    15
100
AcDbLine
 10
1744.6547007958
 20
508.1483275835
 30
0.0
 11
1743.2076150665
 21
508.1483275835
 31
0.0
  0
LINE
  5
1FA
330
1F
100
AcDbEntity
  8
0
  6
Continuous
 62
     7
370
    15
100
AcDbLine
 10
1608.721035641
 20
1068.1483275835
 30
0.0
 11
1608.721035641
 21
508.1483275835
 31
0.0
  0
LINE
  5
1FB
330
1F
100
AcDbEntity
  8
0
  6
Continuous
 62
     7
370
    15
100
AcDbLine
 10
1856.8895385404
 20
524.4777484617
 30
0.0
 11
1856.1090410901
 21
523.5562586369
 31
0.0
  0
LWPOLYLINE
  5
1FC
330
1F
100
AcDbEntity
  8
0
  6
Continuous
 62
     7
370
    15
100
AcDbPolyline
 90
       30
 70
   128
 43
0.0
 10
1854.3489248084
 20
522.4027173986
 10
1853.7669076015
 20
522.2276499263
 10
1852.5830584093
 20
522.1399080056
 10
1851.4121797167
 20
522.402172449
 10
1850.3054445408
 20
523.002981042
 10
1849.3112225198
 20
523.9160755661
 10
1848.4729659265
 20
525.1015494089
 10
1847.8273105967
 20
526.5075916752
 10
1847.4024747664
 20
528.0727515708
 10
1847.2170258
 20
529.7286240979
 10
1847.2790687072
 20
531.4028396812
 10
1847.5858919152
 20
533.0222270661
 10
1848.1240857775
 20
534.5160112531
 10
1848.8701286399
 20
535.8189067053
 10
1849.7914148493
 20
536.8739706393
 10
1850.8476797775
 20
537.6350916987
 10
1851.9927595788
 20
538.0690052407
 10
1853.1766087709
 20
538.1567471614
 10
1854.3474874636
 20
537.894482718
 10
1855.4542226394
 20
537.293674125
 10
1856.4484446605
 20
536.3805796009
 10
1857.2867012537
 20
535.1951057581
 10
1857.9323565835
 20
533.7890634918
 10
1858.3571924139
 20
532.2239035962
 10
1858.5426413803
 20
530.5680310691
 10
1858.4805984731
 20
528.8938154858
 10
1858.1737752651
 20
527.2744281009
 10
1857.6355814028
 20
525.7806439139
 10
1856.8895385404
 20
524.4777484617
 10
1856.8895385404
 20
524.4777484617
  0
LWPOLYLINE
  5
1FD
330
1F
100
AcDbEntity
  8
0
  6
Continuous
 62
     7
370
    15
100
AcDbPolyline
 90
       30
 70
   128
 43
0.0
 10
1848.9715076312
 20
535.7504558839
 10
1848.2125576615
 20
534.4151892506
 10
1847.6743214702
 20
532.8804089079
 10
1847.3819663836
 20
531.217879479
 10
1847.3491626004
 20
529.5053389922
 10
1847.5774439892
 20
527.8228639373
 10
1848.0561363659
 20
526.249124978
 10
1848.7628566071
 20
524.8577083988
 10
1849.6645592596
 20
523.7136752925
 10
1850.7190817097
 20
522.8705193758
 10
1851.8771156596
 20
522.3676656822
 10
1853.0845127288
 20
522.2286270916
 10
1854.2848163724
 20
522.4599048938
 10
1855.4219017259
 20
523.0506847959
 10
1856.4425999421
 20
523.9733425862
 10
1857.2991843068
 20
525.1847358121
 10
1857.9516018871
 20
526.6282210726
 10
1858.3693463621
 20
528.2363026011
 10
1858.5328844644
 20
529.9337882928
 10
1858.434569334
 20
531.6413056033
 10
1858.0789980773
 20
533.2790129209
 10
1857.4827968111
 20
534.7703328717
 10
1856.6738432437
 20
536.0455329921
 10
1855.6899631451
 20
537.0449863419
 10
1854.5771616551
 20
537.7219595933
 10
1853.3874721346
 20
538.0447982294
 10
1852.1765231434
 20
537.9984066743
 10
1851.0009373103
 20
537.5849541457
 10
1849.9156837224
 20
536.8237732243
 10
1848.9715076312
 20
535.7504558839
  0
ARC
  5
1FE
330
1F
100
AcDbEntity
  8
0
  6
Continuous
 62
     7
370
    15
100
AcDbCircle
 10
1850.5573902327
 20
525.9100097429
 30
0.0
 40
5.228890188307927
100
AcDbArc
 50
233.3352734629
 51
320.4377283261
  0
ARC
  5
1FF
330
1F
100
AcDbEntity
  8
0
  6
Continuous
 62
     7
370
    15
100
AcDbCircle
 10
1850.5443038452
 20
534.3320248031
 30
0.0
 40
5.26506598353361
100
AcDbArc
 50
41.9135197705
 51
126.1955567619
  0
LWPOLYLINE
  5
200
330
1F
100
AcDbEntity
  8
0
  6
Continuous
 62
     7
370
    15
100
AcDbPolyline
 90
        3
 70
   128
 43
0.0
 10
1848.5156029217
 20
520.917858848
 10
1848.7938613652
 20
520.8308674197
 10
1850.1043834168
 20
520.6483275835
  0
LWPOLYLINE
  5
201
330
1F
100
AcDbEntity
  8
0
  6
Continuous
 62
     7
370
    15
100
AcDbPolyline
 90
        3
 70
   128
 43
0.0
 10
1850.1043834168
 20
539.6483275835
 10
1848.7938613652
 20
539.4657877473
 10
1848.5156029145
 20
539.3787963165
  0
LINE
  5
202
330
1F
100
AcDbEntity
  8
0
  6
Continuous
 62
     7
370
    15
100
AcDbLine
 10
1795.7105502723
 20
490.7483275835
 30
0.0
 11
1779.865338631
 21
490.7483275835
 31
0.0
  0
LINE
  5
203
330
1F
100
AcDbEntity
  8
0
  6
Continuous
 62
     7
370
    15
100
AcDbLine
 10
1603.1869192036
 20
490.7483275835
 30
0.0
 11
1587.6777915562
 21
490.7483275835
 31
0.0
  0
LINE
  5
204
330
1F
100
AcDbEntity
  8
0
  6
Continuous
 62
     7
370
    15
100
AcDbLine
 10
1603.5230031975
 20
490.7483275835
 30
0.0
 11
1603.1869192036
 21
490.7483275835
 31
0.0
  0
LINE
  5
205
330
1F
100
AcDbEntity
  8
0
  6
Continuous
 62
     7
370
    15
100
AcDbLine
 10
1767.1074749427
 20
524.4777484617
 30
0.0
 11
1766.3269774924
 21
523.5562586369
 31
0.0
  0
LWPOLYLINE
  5
206
330
1F
100
AcDbEntity
  8
0
  6
Continuous
 62
     7
370
    15
100
AcDbPolyline
 90
       30
 70
   128
 43
0.0
 10
1764.5668612107
 20
522.4027173986
 10
1763.9848440038
 20
522.2276499263
 10
1762.8009948117
 20
522.1399080056
 10
1761.630116119
 20
522.402172449
 10
1760.5233809432
 20
523.002981042
 10
1759.5291589221
 20
523.9160755661
 10
1758.6909023289
 20
525.1015494089
 10
1758.0452469991
 20
526.5075916752
 10
1757.6204111688
 20
528.0727515708
 10
1757.4349622023
 20
529.7286240979
 10
1757.4970051095
 20
531.4028396812
 10
1757.8038283175
 20
533.0222270661
 10
1758.3420221798
 20
534.5160112531
 10
1759.0880650422
 20
535.8189067053
 10
1760.0093512516
 20
536.8739706393
 10
1761.0656161799
 20
537.6350916987
 10
1762.2106959811
 20
538.0690052407
 10
1763.3945451733
 20
538.1567471614
 10
1764.5654238659
 20
537.894482718
 10
1765.6721590418
 20
537.293674125
 10
1766.6663810628
 20
536.3805796009
 10
1767.5046376561
 20
535.1951057581
 10
1768.1502929859
 20
533.7890634918
 10
1768.5751288162
 20
532.2239035962
 10
1768.7605777826
 20
530.5680310691
 10
1768.6985348754
 20
528.8938154858
 10
1768.3917116674
 20
527.2744281009
 10
1767.8535178051
 20
525.7806439139
 10
1767.1074749427
 20
524.4777484617
 10
1767.1074749427
 20
524.4777484617
  0
LWPOLYLINE
  5
207
330
1F
100
AcDbEntity
  8
0
  6
Continuous
 62
     7
370
    15
100
AcDbPolyline
 90
       30
 70
   128
 43
0.0
 10
1759.1894440335
 20
535.7504558839
 10
1758.4304940638
 20
534.4151892506
 10
1757.8922578726
 20
532.8804089079
 10
1757.5999027859
 20
531.217879479
 10
1757.5670990027
 20
529.5053389922
 10
1757.7953803915
 20
527.8228639373
 10
1758.2740727683
 20
526.249124978
 10
1758.9807930094
 20
524.8577083988
 10
1759.8824956619
 20
523.7136752925
 10
1760.937018112
 20
522.8705193758
 10
1762.0950520619
 20
522.3676656822
 10
1763.3024491311
 20
522.2286270916
 10
1764.5027527747
 20
522.4599048938
 10
1765.6398381283
 20
523.0506847959
 10
1766.6605363445
 20
523.9733425862
 10
1767.5171207092
 20
525.1847358121
 10
1768.1695382895
 20
526.6282210726
 10
1768.5872827644
 20
528.2363026011
 10
1768.7508208667
 20
529.9337882928
 10
1768.6525057364
 20
531.6413056033
 10
1768.2969344797
 20
533.2790129209
 10
1767.7007332134
 20
534.7703328717
 10
1766.8917796461
 20
536.0455329921
 10
1765.9078995475
 20
537.0449863419
 10
1764.7950980575
 20
537.7219595933
 10
1763.605408537
 20
538.0447982294
 10
1762.3944595457
 20
537.9984066743
 10
1761.2188737126
 20
537.5849541457
 10
1760.1336201247
 20
536.8237732243
 10
1759.1894440335
 20
535.7504558839
  0
ARC
  5
208
330
1F
100
AcDbEntity
  8
0
  6
Continuous
 62
     7
370
    15
100
AcDbCircle
 10
1760.7753266321
 20
525.9100097575
 30
0.0
 40
5.228890200331967
100
AcDbArc
 50
233.3352704042
 51
320.4377282916
  0
ARC
  5
209
330
1F
100
AcDbEntity
  8
0
  6
Continuous
 62
     7
370
    15
100
AcDbCircle
 10
1760.7622402472
 20
534.3320247969
 30
0.0
 40
5.265065988022291
100
AcDbArc
 50
41.9135197855
 51
126.1955594914
  0
LWPOLYLINE
  5
20A
330
1F
100
AcDbEntity
  8
0
  6
Continuous
 62
     7
370
    15
100
AcDbPolyline
 90
        3
 70
   128
 43
0.0
 10
1758.7335392714
 20
520.9178588661
 10
1759.0117977675
 20
520.8308674197
 10
1760.3223198191
 20
520.6483275835
  0
LWPOLYLINE
  5
20B
330
1F
100
AcDbEntity
  8
0
  6
Continuous
 62
     7
370
    15
100
AcDbPolyline
 90
        3
 70
   128
 43
0.0
 10
1760.3223198191
 20
539.6483275835
 10
1759.0117977675
 20
539.4657877473
 10
1758.7335392712
 20
539.3787963008
  0
LINE
  5
20C
330
1F
100
AcDbEntity
  8
0
  6
Continuous
 62
     7
370
    15
100
AcDbLine
 10
1767.1074749428
 20
1040.4777484617
 30
0.0
 11
1766.3269774925
 21
1039.5562586369
 31
0.0
  0
LWPOLYLINE
  5
20D
330
1F
100
AcDbEntity
  8
0
  6
Continuous
 62
     7
370
    15
100
AcDbPolyline
 90
       30
 70
   128
 43
0.0
 10
1764.5668612108
 20
1038.4027173986
 10
1763.9848440039
 20
1038.2276499263
 10
1762.8009948117
 20
1038.1399080056
 10
1761.6301161191
 20
1038.402172449
 10
1760.5233809432
 20
1039.002981042
 10
1759.5291589221
 20
1039.9160755661
 10
1758.6909023289
 20
1041.1015494089
 10
1758.0452469991
 20
1042.5075916752
 10
1757.6204111688
 20
1044.0727515708
 10
1757.4349622024
 20
1045.7286240979
 10
1757.4970051095
 20
1047.4028396812
 10
1757.8038283176
 20
1049.0222270661
 10
1758.3420221799
 20
1050.5160112531
 10
1759.0880650423
 20
1051.8189067053
 10
1760.0093512517
 20
1052.8739706393
 10
1761.0656161799
 20
1053.6350916987
 10
1762.2106959811
 20
1054.0690052407
 10
1763.3945451733
 20
1054.1567471614
 10
1764.565423866
 20
1053.894482718
 10
1765.6721590418
 20
1053.293674125
 10
1766.6663810629
 20
1052.3805796009
 10
1767.5046376561
 20
1051.1951057581
 10
1768.1502929859
 20
1049.7890634918
 10
1768.5751288162
 20
1048.2239035962
 10
1768.7605777827
 20
1046.5680310691
 10
1768.6985348755
 20
1044.8938154858
 10
1768.3917116675
 20
1043.2744281009
 10
1767.8535178051
 20
1041.7806439139
 10
1767.1074749428
 20
1040.4777484617
 10
1767.1074749428
 20
1040.4777484617
  0
LWPOLYLINE
  5
20E
330
1F
100
AcDbEntity
  8
0
  6
Continuous
 62
     7
370
    15
100
AcDbPolyline
 90
       30
 70
   128
 43
0.0
 10
1759.1894440336
 20
1051.7504558839
 10
1758.4304940639
 20
1050.4151892506
 10
1757.8922578726
 20
1048.8804089079
 10
1757.599902786
 20
1047.217879479
 10
1757.5670990028
 20
1045.5053389922
 10
1757.7953803916
 20
1043.8228639373
 10
1758.2740727683
 20
1042.249124978
 10
1758.9807930094
 20
1040.8577083988
 10
1759.882495662
 20
1039.7136752925
 10
1760.9370181121
 20
1038.8705193758
 10
1762.0950520619
 20
1038.3676656822
 10
1763.3024491312
 20
1038.2286270916
 10
1764.5027527747
 20
1038.4599048938
 10
1765.6398381283
 20
1039.0506847959
 10
1766.6605363445
 20
1039.9733425862
 10
1767.5171207092
 20
1041.1847358121
 10
1768.1695382895
 20
1042.6282210726
 10
1768.5872827645
 20
1044.2363026011
 10
1768.7508208668
 20
1045.9337882928
 10
1768.6525057364
 20
1047.6413056033
 10
1768.2969344797
 20
1049.2790129209
 10
1767.7007332134
 20
1050.7703328717
 10
1766.8917796461
 20
1052.0455329921
 10
1765.9078995475
 20
1053.0449863419
 10
1764.7950980575
 20
1053.7219595933
 10
1763.605408537
 20
1054.0447982294
 10
1762.3944595458
 20
1053.9984066743
 10
1761.2188737127
 20
1053.5849541457
 10
1760.1336201248
 20
1052.8237732243
 10
1759.1894440336
 20
1051.7504558839
  0
ARC
  5
20F
330
1F
100
AcDbEntity
  8
0
  6
Continuous
 62
     7
370
    15
100
AcDbCircle
 10
1760.7753266319
 20
1041.9100097583
 30
0.0
 40
5.228890200940332
100
AcDbArc
 50
233.3352702416
 51
320.4377282872
  0
ARC
  5
210
330
1F
100
AcDbEntity
  8
0
  6
Continuous
 62
     7
370
    15
100
AcDbCircle
 10
1760.7622402472
 20
1050.3320247965
 30
0.0
 40
5.265065988295992
100
AcDbArc
 50
41.9135197869
 51
126.1955596637
  0
LWPOLYLINE
  5
211
330
1F
100
AcDbEntity
  8
0
  6
Continuous
 62
     7
370
    15
100
AcDbPolyline
 90
        3
 70
   128
 43
0.0
 10
1758.7335392704
 20
1036.9178588665
 10
1759.0117977676
 20
1036.8308674197
 10
1760.3223198192
 20
1036.6483275835
  0
LWPOLYLINE
  5
212
330
1F
100
AcDbEntity
  8
0
  6
Continuous
 62
     7
370
    15
100
AcDbPolyline
 90
        3
 70
   128
 43
0.0
 10
1760.3223198192
 20
1055.6483275835
 10
1759.0117977676
 20
1055.4657877473
 10
1758.7335392705
 20
1055.3787963005
  0
LINE
  5
213
330
1F
100
AcDbEntity
  8
0
  6
Continuous
 62
     7
370
    15
100
AcDbLine
 10
1850.6436414617
 20
490.7483275835
 30
0.0
 11
1834.7984298204
 21
490.7483275835
 31
0.0
  0
LINE
  5
214
330
1F
100
AcDbEntity
  8
0
  6
Continuous
 62
     7
370
    15
100
AcDbLine
 10
1856.8895385404
 20
1040.4777484617
 30
0.0
 11
1856.1090410901
 21
1039.5562586369
 31
0.0
  0
LWPOLYLINE
  5
215
330
1F
100
AcDbEntity
  8
0
  6
Continuous
 62
     7
370
    15
100
AcDbPolyline
 90
       30
 70
   128
 43
0.0
 10
1854.3489248084
 20
1038.4027173986
 10
1853.7669076015
 20
1038.2276499263
 10
1852.5830584094
 20
1038.1399080056
 10
1851.4121797167
 20
1038.402172449
 10
1850.3054445409
 20
1039.002981042
 10
1849.3112225198
 20
1039.9160755661
 10
1848.4729659266
 20
1041.1015494089
 10
1847.8273105968
 20
1042.5075916752
 10
1847.4024747665
 20
1044.0727515708
 10
1847.2170258
 20
1045.7286240979
 10
1847.2790687072
 20
1047.4028396812
 10
1847.5858919152
 20
1049.0222270661
 10
1848.1240857775
 20
1050.5160112531
 10
1848.8701286399
 20
1051.8189067053
 10
1849.7914148493
 20
1052.8739706393
 10
1850.8476797776
 20
1053.6350916987
 10
1851.9927595788
 20
1054.0690052407
 10
1853.176608771
 20
1054.1567471614
 10
1854.3474874636
 20
1053.894482718
 10
1855.4542226395
 20
1053.293674125
 10
1856.4484446605
 20
1052.3805796009
 10
1857.2867012538
 20
1051.1951057581
 10
1857.9323565836
 20
1049.7890634918
 10
1858.3571924139
 20
1048.2239035962
 10
1858.5426413803
 20
1046.5680310691
 10
1858.4805984731
 20
1044.8938154858
 10
1858.1737752651
 20
1043.2744281009
 10
1857.6355814028
 20
1041.7806439139
 10
1856.8895385404
 20
1040.4777484617
 10
1856.8895385404
 20
1040.4777484617
  0
LWPOLYLINE
  5
216
330
1F
100
AcDbEntity
  8
0
  6
Continuous
 62
     7
370
    15
100
AcDbPolyline
 90
       30
 70
   128
 43
0.0
 10
1848.9715076312
 20
1051.7504558839
 10
1848.2125576615
 20
1050.4151892506
 10
1847.6743214703
 20
1048.8804089079
 10
1847.3819663836
 20
1047.217879479
 10
1847.3491626004
 20
1045.5053389922
 10
1847.5774439892
 20
1043.8228639373
 10
1848.0561363659
 20
1042.249124978
 10
1848.7628566071
 20
1040.8577083988
 10
1849.6645592596
 20
1039.7136752925
 10
1850.7190817097
 20
1038.8705193758
 10
1851.8771156596
 20
1038.3676656822
 10
1853.0845127288
 20
1038.2286270916
 10
1854.2848163724
 20
1038.4599048938
 10
1855.421901726
 20
1039.0506847959
 10
1856.4425999422
 20
1039.9733425862
 10
1857.2991843069
 20
1041.1847358121
 10
1857.9516018872
 20
1042.6282210726
 10
1858.3693463621
 20
1044.2363026011
 10
1858.5328844644
 20
1045.9337882928
 10
1858.4345693341
 20
1047.6413056033
 10
1858.0789980774
 20
1049.2790129209
 10
1857.4827968111
 20
1050.7703328717
 10
1856.6738432438
 20
1052.0455329921
 10
1855.6899631452
 20
1053.0449863419
 10
1854.5771616552
 20
1053.7219595933
 10
1853.3874721347
 20
1054.0447982294
 10
1852.1765231434
 20
1053.9984066743
 10
1851.0009373103
 20
1053.5849541457
 10
1849.9156837224
 20
1052.8237732243
 10
1848.9715076312
 20
1051.7504558839
  0
ARC
  5
217
330
1F
100
AcDbEntity
  8
0
  6
Continuous
 62
     7
370
    15
100
AcDbCircle
 10
1850.5573902291
 20
1041.9100097612
 30
0.0
 40
5.228890203367184
100
AcDbArc
 50
233.3352697045
 51
320.4377283085
  0
ARC
  5
218
330
1F
100
AcDbEntity
  8
0
  6
Continuous
 62
     7
370
    15
100
AcDbCircle
 10
1850.5443038447
 20
1050.332024796
 30
0.0
 40
5.265065988514099
100
AcDbArc
 50
41.9135198542
 51
126.1955602928
  0
LWPOLYLINE
  5
219
330
1F
100
AcDbEntity
  8
0
  6
Continuous
 62
     7
370
    15
100
AcDbPolyline
 90
        3
 70
   128
 43
0.0
 10
1848.5156028638
 20
1036.917858868
 10
1848.7938613652
 20
1036.8308674197
 10
1850.1043834168
 20
1036.6483275835
  0
LWPOLYLINE
  5
21A
330
1F
100
AcDbEntity
  8
0
  6
Continuous
 62
     7
370
    15
100
AcDbPolyline
 90
        3
 70
   128
 43
0.0
 10
1850.1043834168
 20
1055.6483275835
 10
1848.7938613652
 20
1055.4657877473
 10
1848.5156028631
 20
1055.3787962988
  0
LINE
  5
21B
330
1F
100
AcDbEntity
  8
0
  6
Continuous
 62
     7
370
    15
100
AcDbLine
 10
1703.0385876356
 20
1045.8791043096
 30
0.0
 11
1701.2256900696
 21
1043.6683498398
 31
0.0
  0
LINE
  5
21C
330
1F
100
AcDbEntity
  8
0
  6
Continuous
 62
     7
370
    15
100
AcDbLine
 10
1701.2256900696
 20
1043.6683498398
 30
0.0
 11
1702.1685734441
 21
1040.9375731138
 31
0.0
  0
LINE
  5
21D
330
1F
100
AcDbEntity
  8
0
  6
Continuous
 62
     7
370
    15
100
AcDbLine
 10
1704.9243543846
 20
1040.4175508574
 30
0.0
 11
1702.1685734441
 21
1040.9375731138
 31
0.0
  0
LINE
  5
21E
330
1F
100
AcDbEntity
  8
0
  6
Continuous
 62
     7
370
    15
100
AcDbLine
 10
1706.7372519505
 20
1042.6283053272
 30
0.0
 11
1704.9243543846
 21
1040.4175508574
 31
0.0
  0
LINE
  5
21F
330
1F
100
AcDbEntity
  8
0
  6
Continuous
 62
     7
370
    15
100
AcDbLine
 10
1705.794368576
 20
1045.3590820532
 30
0.0
 11
1706.7372519505
 21
1042.6283053272
 31
0.0
  0
LINE
  5
220
330
1F
100
AcDbEntity
  8
0
  6
Continuous
 62
     7
370
    15
100
AcDbLine
 10
1705.794368576
 20
1045.3590820532
 30
0.0
 11
1703.0385876356
 21
1045.8791043096
 31
0.0
  0
LWPOLYLINE
  5
221
330
1F
100
AcDbEntity
  8
0
  6
Continuous
 62
     7
370
    15
100
AcDbPolyline
 90
       26
 70
   128
 43
0.0
 10
1702.0306778214
 20
1048.798210465
 10
1700.7347733966
 20
1048.1184524912
 10
1699.6428709234
 20
1047.1264032906
 10
1698.8235786498
 20
1045.884396963
 10
1698.3283757227
 20
1044.4704733338
 10
1698.1883775631
 20
1042.9734744245
 10
1698.4123807702
 20
1041.4874621823
 10
1698.9863103989
 20
1040.1058082214
 10
1699.8741043396
 20
1038.9153269417
 10
1701.0199792341
 20
1037.9908206602
 10
1702.3519355484
 20
1037.3903795067
 10
1703.7862815689
 20
1037.1517314071
 10
1705.2328920598
 20
1037.2898714992
 10
1706.6008711637
 20
1037.796119933
 10
1707.8042637225
 20
1038.6386672574
 10
1708.7674561559
 20
1039.7645731256
 10
1709.429927541
 20
1041.1030927309
 10
1709.7500523642
 20
1042.5701219639
 10
1709.7077160056
 20
1044.0734819824
 10
1709.3055786143
 20
1045.5187111475
 10
1708.5689079615
 20
1046.8150003957
 10
1707.5439917736
 20
1047.880899106
 10
1706.2952293041
 20
1048.6494329424
 10
1704.9010848916
 20
1049.0723120974
 10
1703.4491577568
 20
1049.1229655185
 10
1702.0306778214
 20
1048.798210465
  0
LINE
  5
222
330
1F
100
AcDbEntity
  8
0
  6
Continuous
 62
     7
370
    15
100
AcDbLine
 10
1705.2767304858
 20
1045.3590820532
 30
0.0
 11
1705.794368576
 21
1045.3590820532
 31
0.0
  0
LINE
  5
223
330
1F
100
AcDbEntity
  8
0
  6
Continuous
 62
     7
370
    15
100
AcDbLine
 10
1705.2767304858
 20
1045.3590820532
 30
0.0
 11
1702.9692209382
 21
1045.7945144578
 31
0.0
  0
LINE
  5
224
330
1F
100
AcDbEntity
  8
0
  6
Continuous
 62
     7
370
    15
100
AcDbLine
 10
1706.2196138603
 20
1042.6283053272
 30
0.0
 11
1704.4760829917
 21
1040.5021407092
 31
0.0
  0
LINE
  5
225
330
1F
100
AcDbEntity
  8
0
  6
Continuous
 62
     7
370
    15
100
AcDbLine
 10
1706.2196138603
 20
1042.6283053272
 30
0.0
 11
1706.7372519505
 21
1042.6283053272
 31
0.0
  0
LINE
  5
226
330
1F
100
AcDbEntity
  8
0
  6
Continuous
 62
     7
370
    15
100
AcDbLine
 10
1705.2767304858
 20
1045.3590820532
 30
0.0
 11
1706.2196138603
 21
1042.6283053272
 31
0.0
  0
ARC
  5
227
330
1F
100
AcDbEntity
  8
0
  6
Continuous
 62
     7
370
    15
100
AcDbCircle
 10
1703.4634222832
 20
1043.0156258649
 30
0.0
 40
2.166394893363532
100
AcDbArc
 50
227.6428763199
 51
290.2045776857
  0
LINE
  5
228
330
1F
100
AcDbEntity
  8
0
  6
Continuous
 62
     7
370
    15
100
AcDbLine
 10
1701.2731514332
 20
1043.5308923445
 30
0.0
 11
1701.3330289605
 21
1043.7992452293
 31
0.0
  0
ARC
  5
229
330
1F
100
AcDbEntity
  8
0
  6
Continuous
 62
     7
370
    15
100
AcDbCircle
 10
1703.4334933214
 20
1043.1328818881
 30
0.0
 40
2.286805950835716
100
AcDbArc
 50
289.8936496649
 51
114.1577055869
  0
LWPOLYLINE
  5
22A
330
1F
100
AcDbEntity
  8
0
  6
Continuous
 62
     7
370
    15
100
AcDbPolyline
 90
       17
 70
   128
 43
0.0
 10
1703.2381704513
 20
1042.67750401
 10
1703.051758824
 20
1042.6489373889
 10
1702.8689774622
 20
1042.6963983979
 10
1702.7176531714
 20
1042.8126615286
 10
1702.620823703
 20
1042.9800267734
 10
1702.5932304658
 20
1043.1730142909
 10
1702.6390742802
 20
1043.3622434809
 10
1702.7513758408
 20
1043.5189059148
 10
1702.9130382532
 20
1043.619151157
 10
1703.0994498804
 20
1043.6477177781
 10
1703.2822312422
 20
1043.6002567691
 10
1703.433555533
 20
1043.4839936384
 10
1703.5303850014
 20
1043.3166283936
 10
1703.5579782386
 20
1043.1236408761
 10
1703.5121344243
 20
1042.9344116861
 10
1703.3998328636
 20
1042.7777492522
 10
1703.2381704513
 20
1042.67750401
  0
LINE
  5
22B
330
1F
100
AcDbEntity
  8
0
  6
Continuous
 62
     7
370
    15
100
AcDbLine
 10
1738.721035641
 20
1083.6483275835
 30
0.0
 11
1750.721035641
 21
1083.6483275835
 31
0.0
  0
LINE
  5
22C
330
1F
100
AcDbEntity
  8
0
  6
Continuous
 62
     7
370
    15
100
AcDbLine
 10
1703.0385876356
 20
550.8791043096
 30
0.0
 11
1701.2256900696
 21
548.6683498398
 31
0.0
  0
LINE
  5
22D
330
1F
100
AcDbEntity
  8
0
  6
Continuous
 62
     7
370
    15
100
AcDbLine
 10
1701.2256900696
 20
548.6683498398
 30
0.0
 11
1702.1685734441
 21
545.9375731138
 31
0.0
  0
LINE
  5
22E
330
1F
100
AcDbEntity
  8
0
  6
Continuous
 62
     7
370
    15
100
AcDbLine
 10
1704.9243543846
 20
545.4175508574
 30
0.0
 11
1702.1685734441
 21
545.9375731138
 31
0.0
  0
LINE
  5
22F
330
1F
100
AcDbEntity
  8
0
  6
Continuous
 62
     7
370
    15
100
AcDbLine
 10
1706.7372519505
 20
547.6283053272
 30
0.0
 11
1704.9243543846
 21
545.4175508574
 31
0.0
  0
LINE
  5
230
330
1F
100
AcDbEntity
  8
0
  6
Continuous
 62
     7
370
    15
100
AcDbLine
 10
1705.794368576
 20
550.3590820532
 30
0.0
 11
1706.7372519505
 21
547.6283053272
 31
0.0
  0
LINE
  5
231
330
1F
100
AcDbEntity
  8
0
  6
Continuous
 62
     7
370
    15
100
AcDbLine
 10
1705.794368576
 20
550.3590820532
 30
0.0
 11
1703.0385876356
 21
550.8791043096
 31
0.0
  0
LWPOLYLINE
  5
232
330
1F
100
AcDbEntity
  8
0
  6
Continuous
 62
     7
370
    15
100
AcDbPolyline
 90
       26
 70
   128
 43
0.0
 10
1702.0306778214
 20
553.798210465
 10
1700.7347733966
 20
553.1184524912
 10
1699.6428709234
 20
552.1264032906
 10
1698.8235786498
 20
550.884396963
 10
1698.3283757227
 20
549.4704733338
 10
1698.1883775631
 20
547.9734744245
 10
1698.4123807702
 20
546.4874621823
 10
1698.9863103989
 20
545.1058082214
 10
1699.8741043396
 20
543.9153269417
 10
1701.0199792341
 20
542.9908206602
 10
1702.3519355484
 20
542.3903795067
 10
1703.7862815689
 20
542.1517314071
 10
1705.2328920598
 20
542.2898714992
 10
1706.6008711637
 20
542.796119933
 10
1707.8042637225
 20
543.6386672574
 10
1708.7674561559
 20
544.7645731256
 10
1709.429927541
 20
546.1030927309
 10
1709.7500523642
 20
547.5701219639
 10
1709.7077160056
 20
549.0734819824
 10
1709.3055786143
 20
550.5187111475
 10
1708.5689079615
 20
551.8150003957
 10
1707.5439917736
 20
552.880899106
 10
1706.2952293041
 20
553.6494329424
 10
1704.9010848916
 20
554.0723120974
 10
1703.4491577568
 20
554.1229655185
 10
1702.0306778214
 20
553.798210465
  0
LINE
  5
233
330
1F
100
AcDbEntity
  8
0
  6
Continuous
 62
     7
370
    15
100
AcDbLine
 10
1705.2767304858
 20
550.3590820532
 30
0.0
 11
1705.794368576
 21
550.3590820532
 31
0.0
  0
LINE
  5
234
330
1F
100
AcDbEntity
  8
0
  6
Continuous
 62
     7
370
    15
100
AcDbLine
 10
1705.2767304858
 20
550.3590820532
 30
0.0
 11
1702.9692209382
 21
550.7945144578
 31
0.0
  0
LINE
  5
235
330
1F
100
AcDbEntity
  8
0
  6
Continuous
 62
     7
370
    15
100
AcDbLine
 10
1706.2196138603
 20
547.6283053272
 30
0.0
 11
1704.4760829917
 21
545.5021407092
 31
0.0
  0
LINE
  5
236
330
1F
100
AcDbEntity
  8
0
  6
Continuous
 62
     7
370
    15
100
AcDbLine
 10
1706.2196138603
 20
547.6283053272
 30
0.0
 11
1706.7372519505
 21
547.6283053272
 31
0.0
  0
LINE
  5
237
330
1F
100
AcDbEntity
  8
0
  6
Continuous
 62
     7
370
    15
100
AcDbLine
 10
1705.2767304858
 20
550.3590820532
 30
0.0
 11
1706.2196138603
 21
547.6283053272
 31
0.0
  0
ARC
  5
238
330
1F
100
AcDbEntity
  8
0
  6
Continuous
 62
     7
370
    15
100
AcDbCircle
 10
1703.4634222832
 20
548.0156258649
 30
0.0
 40
2.166394893364105
100
AcDbArc
 50
227.6428763199
 51
290.2045776857
  0
LINE
  5
239
330
1F
100
AcDbEntity
  8
0
  6
Continuous
 62
     7
370
    15
100
AcDbLine
 10
1701.2731514332
 20
548.5308923445
 30
0.0
 11
1701.3330289605
 21
548.7992452293
 31
0.0
  0
ARC
  5
23A
330
1F
100
AcDbEntity
  8
0
  6
Continuous
 62
     7
370
    15
100
AcDbCircle
 10
1703.4357844302
 20
548.1338087508
 30
0.0
 40
2.286899229574304
100
AcDbArc
 50
289.8317720603
 51
114.2195831914
  0
LWPOLYLINE
  5
23B
330
1F
100
AcDbEntity
  8
0
  6
Continuous
 62
     7
370
    15
100
AcDbPolyline
 90
       17
 70
   128
 43
0.0
 10
1703.2381704513
 20
547.67750401
 10
1703.051758824
 20
547.6489373889
 10
1702.8689774622
 20
547.6963983979
 10
1702.7176531714
 20
547.8126615286
 10
1702.620823703
 20
547.9800267734
 10
1702.5932304658
 20
548.1730142909
 10
1702.6390742802
 20
548.3622434809
 10
1702.7513758408
 20
548.5189059148
 10
1702.9130382532
 20
548.619151157
 10
1703.0994498804
 20
548.6477177781
 10
1703.2822312422
 20
548.6002567691
 10
1703.433555533
 20
548.4839936384
 10
1703.5303850014
 20
548.3166283936
 10
1703.5579782386
 20
548.1236408761
 10
1703.5121344243
 20
547.9344116861
 10
1703.3998328636
 20
547.7777492522
 10
1703.2381704513
 20
547.67750401
  0
LINE
  5
23C
330
1F
100
AcDbEntity
  8
0
  6
Continuous
 62
     7
370
    15
100
AcDbLine
 10
1601.5373596604
 20
1075.3483275835
 30
0.0
 11
1571.0198490927
 21
1075.3483275835
 31
0.0
  0
LINE
  5
23D
330
1F
100
AcDbEntity
  8
0
  6
Continuous
 62
     7
370
    15
100
AcDbLine
 10
1601.5373596604
 20
1075.3483275835
 30
0.0
 11
1601.5373596604
 21
1070.1483275835
 31
0.0
  0
LINE
  5
23E
330
1F
100
AcDbEntity
  8
0
  6
Continuous
 62
     7
370
    15
100
AcDbLine
 10
1571.0198490927
 20
1070.1483275835
 30
0.0
 11
1601.5373596604
 21
1070.1483275835
 31
0.0
  0
LINE
  5
23F
330
1F
100
AcDbEntity
  8
0
  6
Continuous
 62
     7
370
    15
100
AcDbLine
 10
1571.0198490927
 20
1075.3483275835
 30
0.0
 11
1571.0198490927
 21
1070.1483275835
 31
0.0
  0
LINE
  5
240
330
1F
100
AcDbEntity
  8
0
  6
Continuous
 62
     7
370
    15
100
AcDbLine
 10
1601.0197215702
 20
1068.1483275835
 30
0.0
 11
1572.993436355
 21
1068.1483275835
 31
0.0
  0
ARC
  5
241
330
1F
100
AcDbEntity
  8
0
  6
Continuous
 62
     7
370
    15
100
AcDbCircle
 10
1573.006731095
 20
1070.1352084187
 30
0.0
 40
1.986925314015855
100
AcDbArc
 50
179.6216877257
 51
269.6166246554
  0
ARC
  5
242
330
1F
100
AcDbEntity
  8
0
  6
Continuous
 62
     7
370
    15
100
AcDbCircle
 10
1599.2172794402
 20
1069.6818212326
 30
0.0
 40
2.36651651246979
100
AcDbArc
 50
319.6093080931
 51
11.3690545088
  0
ARC
  5
243
330
1F
100
AcDbEntity
  8
0
  6
Continuous
 62
     7
370
    15
100
AcDbCircle
 10
1578.7686889016
 20
1075.3994923261
 30
0.0
 40
7.749008724661368
100
AcDbArc
 50
90.3833753446
 51
180.3783122743
  0
LINE
  5
244
330
1F
100
AcDbEntity
  8
0
  6
Continuous
 62
     7
370
    15
100
AcDbLine
 10
1578.7168394155
 20
1083.1483275835
 30
0.0
 11
1599.5185711086
 21
1083.1483275835
 31
0.0
  0
LWPOLYLINE
  5
245
330
1F
100
AcDbEntity
  8
0
  6
Continuous
 62
     7
370
    15
100
AcDbPolyline
 90
        9
 70
   128
 43
0.0
 10
1601.5373596604
 20
1075.3483275835
 10
1601.4985692045
 20
1076.8700320952
 10
1601.3836885321
 20
1078.3332583559
 10
1601.1971324431
 20
1079.6817754011
 10
1600.9460701834
 20
1080.8637604768
 10
1600.6401499348
 20
1081.8337905595
 10
1600.2911280408
 20
1082.5545879371
 10
1599.9124172173
 20
1082.9984527706
 10
1599.5185711086
 20
1083.1483275835
  0
LINE
  5
246
330
1F
100
AcDbEntity
  8
0
  6
Continuous
 62
     7
370
    15
100
AcDbLine
 10
1743.2076150665
 20
1068.1483275835
 30
0.0
 11
1601.0197215702
 21
1068.1483275835
 31
0.0
  0
LINE
  5
247
330
1F
100
AcDbEntity
  8
0
  6
Continuous
 62
     7
370
    15
100
AcDbLine
 10
1601.5373596604
 20
1070.1483275835
 30
0.0
 11
1743.7252531567
 21
1070.1483275835
 31
0.0
  0
ARC
  5
248
330
1F
100
AcDbEntity
  8
0
  6
Continuous
 62
     7
370
    15
100
AcDbCircle
 10
1741.4051729364
 20
1069.6818212326
 30
0.0
 40
2.366516512470012
100
AcDbArc
 50
319.6093080931
 51
11.3690545088
  0
LINE
  5
249
330
1F
100
AcDbEntity
  8
0
  6
Continuous
 62
     7
370
    15
100
AcDbLine
 10
1743.7252531567
 20
1075.3483275835
 30
0.0
 11
1601.5373596604
 21
1075.3483275835
 31
0.0
  0
LINE
  5
24A
330
1F
100
AcDbEntity
  8
0
  6
Continuous
 62
     7
370
    15
100
AcDbLine
 10
1743.7252531567
 20
1075.3483275835
 30
0.0
 11
1743.7252531567
 21
1070.1483275835
 31
0.0
  0
LINE
  5
24B
330
1F
100
AcDbEntity
  8
0
  6
Continuous
 62
     7
370
    15
100
AcDbLine
 10
1599.5185711086
 20
1083.1483275835
 30
0.0
 11
1741.7064646049
 21
1083.1483275835
 31
0.0
  0
LWPOLYLINE
  5
24C
330
1F
100
AcDbEntity
  8
0
  6
Continuous
 62
     7
370
    15
100
AcDbPolyline
 90
        9
 70
   128
 43
0.0
 10
1743.7252531567
 20
1075.3483275835
 10
1743.6864627007
 20
1076.8700320952
 10
1743.5715820283
 20
1078.3332583559
 10
1743.3850259393
 20
1079.6817754011
 10
1743.1339636796
 20
1080.8637604768
 10
1742.828043431
 20
1081.8337905595
 10
1742.4790215371
 20
1082.5545879371
 10
1742.1003107135
 20
1082.9984527706
 10
1741.7064646049
 20
1083.1483275835
  0
LINE
  5
24D
330
1F
100
AcDbEntity
  8
0
  6
Continuous
 62
     7
370
    15
100
AcDbLine
 10
1565.521035641
 20
1083.1483275835
 30
0.0
 11
1578.7168394155
 21
1083.1483275835
 31
0.0
  0
LINE
  5
24E
330
1F
100
AcDbEntity
  8
0
  6
Continuous
 62
     7
370
    15
100
AcDbLine
 10
1572.993436355
 20
1068.1483275835
 30
0.0
 11
1559.721035641
 21
1068.1483275835
 31
0.0
  0
LINE
  5
24F
330
1F
100
AcDbEntity
  8
0
  6
Continuous
 62
     7
370
    15
100
AcDbLine
 10
1747.3115550453
 20
1075.3483275835
 30
0.0
 11
1743.7252531567
 21
1075.3483275835
 31
0.0
  0
LINE
  5
250
330
1F
100
AcDbEntity
  8
0
  6
Continuous
 62
     7
370
    15
100
AcDbLine
 10
1747.3115550453
 20
1075.3483275835
 30
0.0
 11
1747.3115550453
 21
1070.1483275835
 31
0.0
  0
LINE
  5
251
330
1F
100
AcDbEntity
  8
0
  6
Continuous
 62
     7
370
    15
100
AcDbLine
 10
1743.7252531567
 20
1070.1483275835
 30
0.0
 11
1747.3115550453
 21
1070.1483275835
 31
0.0
  0
ARC
  5
252
330
1F
100
AcDbEntity
  8
0
  6
Continuous
 62
     7
370
    15
100
AcDbCircle
 10
1745.5437880924
 20
1069.8983275835
 30
0.0
 40
1.785357107135366
100
AcDbArc
 50
281.4217536589
 51
8.0494669755
  0
LINE
  5
253
330
1F
100
AcDbEntity
  8
0
  6
Continuous
 62
     7
370
    15
100
AcDbLine
 10
1745.897341483
 20
1068.1483275835
 30
0.0
 11
1743.2076150665
 21
1068.1483275835
 31
0.0
  0
LWPOLYLINE
  5
254
330
1F
100
AcDbEntity
  8
0
  6
Continuous
 62
     7
370
    15
100
AcDbPolyline
 90
        9
 70
   128
 43
0.0
 10
1741.7961221521
 20
1083.1483275835
 10
1742.8721297313
 20
1082.9984527706
 10
1743.9067869426
 20
1082.5545879371
 10
1744.8603324898
 20
1081.8337905595
 10
1745.6961221521
 20
1080.8637604768
 10
1746.3820370015
 20
1079.6817754011
 10
1746.8917177151
 20
1078.3332583559
 10
1747.2055775488
 20
1076.8700320952
 10
1747.3115550453
 20
1075.3483275835
  0
LINE
  5
255
330
1F
100
AcDbEntity
  8
0
  6
Continuous
 62
     7
370
    15
100
AcDbLine
 10
1741.7064646049
 20
1083.1483275835
 30
0.0
 11
1741.7961221521
 21
1083.1483275835
 31
0.0
  0
LWPOLYLINE
  5
256
330
1F
100
AcDbEntity
  8
0
  6
Continuous
 62
     7
370
    15
100
AcDbPolyline
 90
        9
 70
   128
 43
0.0
 10
1859.8624569972
 20
1083.1483275835
 10
1860.9384645764
 20
1082.9984527706
 10
1861.9731217878
 20
1082.5545879371
 10
1862.926667335
 20
1081.8337905595
 10
1863.7624569972
 20
1080.8637604768
 10
1864.4483718467
 20
1079.6817754011
 10
1864.9580525603
 20
1078.3332583559
 10
1865.271912394
 20
1076.8700320952
 10
1865.3778898905
 20
1075.3483275835
  0
LINE
  5
257
330
1F
100
AcDbEntity
  8
0
  6
Continuous
 62
     7
370
    15
100
AcDbLine
 10
1865.3778898905
 20
1075.3483275835
 30
0.0
 11
1747.3115550453
 21
1075.3483275835
 31
0.0
  0
LINE
  5
258
330
1F
100
AcDbEntity
  8
0
  6
Continuous
 62
     7
370
    15
100
AcDbLine
 10
1741.7961221521
 20
1083.1483275835
 30
0.0
 11
1859.8624569972
 21
1083.1483275835
 31
0.0
  0
LINE
  5
259
330
1F
100
AcDbEntity
  8
0
  6
Continuous
 62
     7
370
    15
100
AcDbLine
 10
1747.3115550453
 20
1070.1483275835
 30
0.0
 11
1865.3778898905
 21
1070.1483275835
 31
0.0
  0
ARC
  5
25A
330
1F
100
AcDbEntity
  8
0
  6
Continuous
 62
     7
370
    15
100
AcDbCircle
 10
1863.6101229375
 20
1069.8983275835
 30
0.0
 40
1.785357107135366
100
AcDbArc
 50
281.4217536589
 51
8.0494669755
  0
LINE
  5
25B
330
1F
100
AcDbEntity
  8
0
  6
Continuous
 62
     7
370
    15
100
AcDbLine
 10
1865.3778898905
 20
1075.3483275835
 30
0.0
 11
1865.3778898905
 21
1070.1483275835
 31
0.0
  0
ARC
  5
25C
330
1F
100
AcDbEntity
  8
0
  6
Continuous
 62
     7
370
    15
100
AcDbCircle
 10
1859.921035641
 20
1075.3483275835
 30
0.0
 40
7.799999999999955
100
AcDbArc
 50
0.0
 51
90.0
  0
LINE
  5
25D
330
1F
100
AcDbEntity
  8
0
  6
Continuous
 62
     7
370
    15
100
AcDbLine
 10
1867.721035641
 20
1075.3483275835
 30
0.0
 11
1865.3778898905
 21
1075.3483275835
 31
0.0
  0
LINE
  5
25E
330
1F
100
AcDbEntity
  8
0
  6
Continuous
 62
     7
370
    15
100
AcDbLine
 10
1859.8624569972
 20
1083.1483275835
 30
0.0
 11
1859.921035641
 21
1083.1483275835
 31
0.0
  0
LINE
  5
25F
330
1F
100
AcDbEntity
  8
0
  6
Continuous
 62
     7
370
    15
100
AcDbLine
 10
1865.3778898905
 20
1070.1483275835
 30
0.0
 11
1867.721035641
 21
1070.1483275835
 31
0.0
  0
ARC
  5
260
330
1F
100
AcDbEntity
  8
0
  6
Continuous
 62
     7
370
    15
100
AcDbCircle
 10
1865.721035641
 20
1070.1483275835
 30
0.0
 40
2.0
100
AcDbArc
 50
270.0
 51
0.0
  0
LINE
  5
261
330
1F
100
AcDbEntity
  8
0
  6
Continuous
 62
     7
370
    15
100
AcDbLine
 10
1865.721035641
 20
1068.1483275835
 30
0.0
 11
1863.9636763281
 21
1068.1483275835
 31
0.0
  0
LINE
  5
262
330
1F
100
AcDbEntity
  8
0
  6
Continuous
 62
     7
370
    15
100
AcDbLine
 10
1867.721035641
 20
1075.3483275835
 30
0.0
 11
1867.721035641
 21
1070.1483275835
 31
0.0
  0
LINE
  5
263
330
1F
100
AcDbEntity
  8
0
  6
Continuous
 62
     7
370
    15
100
AcDbLine
 10
1601.5373596604
 20
505.1483275835
 30
0.0
 11
1571.0198490927
 21
505.1483275835
 31
0.0
  0
ARC
  5
264
330
1F
100
AcDbEntity
  8
0
  6
Continuous
 62
     7
370
    15
100
AcDbCircle
 10
1574.0001720961
 20
505.1680063307
 30
0.0
 40
2.980387971023308
100
AcDbArc
 50
90.3833753446
 51
180.3783122743
  0
LINE
  5
265
330
1F
100
AcDbEntity
  8
0
  6
Continuous
 62
     7
370
    15
100
AcDbLine
 10
1573.9802299861
 20
508.1483275835
 30
0.0
 11
1600.7609025251
 21
508.1483275835
 31
0.0
  0
ARC
  5
266
330
1F
100
AcDbEntity
  8
0
  6
Continuous
 62
     7
370
    15
100
AcDbCircle
 10
1598.0572393301
 20
505.8480871099
 30
0.0
 40
3.549774768704239
100
AcDbArc
 50
348.6309454912
 51
40.3906919069
  0
LINE
  5
267
330
1F
100
AcDbEntity
  8
0
  6
Continuous
 62
     7
370
    15
100
AcDbLine
 10
1599.5962168221
 20
493.1483275835
 30
0.0
 11
1578.4208013262
 21
493.1483275835
 31
0.0
  0
ARC
  5
268
330
1F
100
AcDbEntity
  8
0
  6
Continuous
 62
     7
370
    15
100
AcDbCircle
 10
1578.4706566013
 20
500.5991307156
 30
0.0
 40
7.450969927557916
100
AcDbArc
 50
179.6216877257
 51
269.6166246554
  0
LINE
  5
269
330
1F
100
AcDbEntity
  8
0
  6
Continuous
 62
     7
370
    15
100
AcDbLine
 10
1571.0198490927
 20
500.6483275835
 30
0.0
 11
1601.5373596604
 21
500.6483275835
 31
0.0
  0
LWPOLYLINE
  5
26A
330
1F
100
AcDbEntity
  8
0
  6
Continuous
 62
     7
370
    15
100
AcDbPolyline
 90
        9
 70
   128
 43
0.0
 10
1599.5962168221
 20
493.1483275835
 10
1599.9749150035
 20
493.2924379805
 10
1600.3390600262
 20
493.7192310897
 10
1600.6746580011
 20
494.4123054912
 10
1600.9688120863
 20
495.3450267246
 10
1601.2102181053
 20
496.4815508359
 10
1601.3895989601
 20
497.7782018408
 10
1601.5000611451
 20
499.1851501684
 10
1601.5373596604
 20
500.6483275835
  0
LINE
  5
26B
330
1F
100
AcDbEntity
  8
0
  6
Continuous
 62
     7
370
    15
100
AcDbLine
 10
1571.0198490927
 20
500.6483275835
 30
0.0
 11
1571.0198490927
 21
505.1483275835
 31
0.0
  0
LINE
  5
26C
330
1F
100
AcDbEntity
  8
0
  6
Continuous
 62
     7
370
    15
100
AcDbLine
 10
1601.5373596604
 20
500.6483275835
 30
0.0
 11
1601.5373596604
 21
505.1483275835
 31
0.0
  0
LINE
  5
26D
330
1F
100
AcDbEntity
  8
0
  6
Continuous
 62
     7
370
    15
100
AcDbLine
 10
1741.7841103184
 20
493.1483275835
 30
0.0
 11
1599.5962168221
 21
493.1483275835
 31
0.0
  0
LINE
  5
26E
330
1F
100
AcDbEntity
  8
0
  6
Continuous
 62
     7
370
    15
100
AcDbLine
 10
1601.5373596604
 20
500.6483275835
 30
0.0
 11
1743.7252531567
 21
500.6483275835
 31
0.0
  0
LWPOLYLINE
  5
26F
330
1F
100
AcDbEntity
  8
0
  6
Continuous
 62
     7
370
    15
100
AcDbPolyline
 90
        9
 70
   128
 43
0.0
 10
1741.7841103184
 20
493.1483275835
 10
1742.1628084998
 20
493.2924379805
 10
1742.5269535225
 20
493.7192310897
 10
1742.8625514974
 20
494.4123054912
 10
1743.1567055826
 20
495.3450267246
 10
1743.3981116016
 20
496.4815508359
 10
1743.5774924564
 20
497.7782018408
 10
1743.6879546413
 20
499.1851501684
 10
1743.7252531567
 20
500.6483275835
  0
LINE
  5
270
330
1F
100
AcDbEntity
  8
0
  6
Continuous
 62
     7
370
    15
100
AcDbLine
 10
1743.7252531567
 20
505.1483275835
 30
0.0
 11
1601.5373596604
 21
505.1483275835
 31
0.0
  0
LINE
  5
271
330
1F
100
AcDbEntity
  8
0
  6
Continuous
 62
     7
370
    15
100
AcDbLine
 10
1743.7252531567
 20
500.6483275835
 30
0.0
 11
1743.7252531567
 21
505.1483275835
 31
0.0
  0
LINE
  5
272
330
1F
100
AcDbEntity
  8
0
  6
Continuous
 62
     7
370
    15
100
AcDbLine
 10
1600.7609025251
 20
508.1483275835
 30
0.0
 11
1614.721035641
 21
508.1483275835
 31
0.0
  0
ARC
  5
273
330
1F
100
AcDbEntity
  8
0
  6
Continuous
 62
     7
370
    15
100
AcDbCircle
 10
1740.2451328263
 20
505.8480871099
 30
0.0
 40
3.549774768704038
100
AcDbArc
 50
348.6309454912
 51
40.3906919069
  0
LINE
  5
274
330
1F
100
AcDbEntity
  8
0
  6
Continuous
 62
     7
370
    15
100
AcDbLine
 10
1578.4208013262
 20
493.1483275835
 30
0.0
 11
1565.221035641
 21
493.1483275835
 31
0.0
  0
LINE
  5
275
330
1F
100
AcDbEntity
  8
0
  6
Continuous
 62
     7
370
    15
100
AcDbLine
 10
1560.721035641
 20
508.1483275835
 30
0.0
 11
1573.9802299861
 21
508.1483275835
 31
0.0
  0
LINE
  5
276
330
1F
100
AcDbEntity
  8
0
  6
Continuous
 62
     7
370
    15
100
AcDbLine
 10
1747.3115550453
 20
505.1483275835
 30
0.0
 11
1743.7252531567
 21
505.1483275835
 31
0.0
  0
ARC
  5
277
330
1F
100
AcDbEntity
  8
0
  6
Continuous
 62
     7
370
    15
100
AcDbCircle
 10
1744.6599046159
 20
505.5233275835
 30
0.0
 40
2.678035660703578
100
AcDbArc
 50
351.9505330245
 51
78.578246341
  0
LINE
  5
278
330
1F
100
AcDbEntity
  8
0
  6
Continuous
 62
     7
370
    15
100
AcDbLine
 10
1743.7252531567
 20
500.6483275835
 30
0.0
 11
1747.3115550453
 21
500.6483275835
 31
0.0
  0
LINE
  5
279
330
1F
100
AcDbEntity
  8
0
  6
Continuous
 62
     7
370
    15
100
AcDbLine
 10
1747.3115550453
 20
500.6483275835
 30
0.0
 11
1747.3115550453
 21
505.1483275835
 31
0.0
  0
LWPOLYLINE
  5
27A
330
1F
100
AcDbEntity
  8
0
  6
Continuous
 62
     7
370
    15
100
AcDbPolyline
 90
        9
 70
   128
 43
0.0
 10
1742.0082541864
 20
493.1483275835
 10
1743.0428768587
 20
493.2924379805
 10
1744.037739562
 20
493.7192310897
 10
1744.9546102804
 20
494.4123054912
 10
1745.7582541864
 20
495.3450267246
 10
1746.4177876955
 20
496.4815508359
 10
1746.9078653047
 20
497.7782018408
 10
1747.2096536064
 20
499.1851501684
 10
1747.3115550453
 20
500.6483275835
  0
LINE
  5
27B
330
1F
100
AcDbEntity
  8
0
  6
Continuous
 62
     7
370
    15
100
AcDbLine
 10
1742.0082541864
 20
493.1483275835
 30
0.0
 11
1741.7841103184
 21
493.1483275835
 31
0.0
  0
ARC
  5
27C
330
1F
100
AcDbEntity
  8
0
  6
Continuous
 62
     7
370
    15
100
AcDbCircle
 10
1862.726239461
 20
505.5233275835
 30
0.0
 40
2.678035660703576
100
AcDbArc
 50
351.9505330245
 51
78.578246341
  0
LINE
  5
27D
330
1F
100
AcDbEntity
  8
0
  6
Continuous
 62
     7
370
    15
100
AcDbLine
 10
1865.3778898905
 20
505.1483275835
 30
0.0
 11
1747.3115550453
 21
505.1483275835
 31
0.0
  0
LINE
  5
27E
330
1F
100
AcDbEntity
  8
0
  6
Continuous
 62
     7
370
    15
100
AcDbLine
 10
1747.3115550453
 20
500.6483275835
 30
0.0
 11
1865.3778898905
 21
500.6483275835
 31
0.0
  0
LWPOLYLINE
  5
27F
330
1F
100
AcDbEntity
  8
0
  6
Continuous
 62
     7
370
    15
100
AcDbPolyline
 90
        9
 70
   128
 43
0.0
 10
1860.0745890316
 20
493.1483275835
 10
1861.1092117039
 20
493.2924379805
 10
1862.1040744071
 20
493.7192310897
 10
1863.0209451255
 20
494.4123054912
 10
1863.8245890316
 20
495.3450267246
 10
1864.4841225407
 20
496.4815508359
 10
1864.9742001499
 20
497.7782018408
 10
1865.2759884516
 20
499.1851501684
 10
1865.3778898905
 20
500.6483275835
  0
LINE
  5
280
330
1F
100
AcDbEntity
  8
0
  6
Continuous
 62
     7
370
    15
100
AcDbLine
 10
1860.0745890316
 20
493.1483275835
 30
0.0
 11
1742.0082541864
 21
493.1483275835
 31
0.0
  0
LINE
  5
281
330
1F
100
AcDbEntity
  8
0
  6
Continuous
 62
     7
370
    15
100
AcDbLine
 10
1865.3778898905
 20
500.6483275835
 30
0.0
 11
1865.3778898905
 21
505.1483275835
 31
0.0
  0
LINE
  5
282
330
1F
100
AcDbEntity
  8
0
  6
Continuous
 62
     7
370
    15
100
AcDbLine
 10
1865.3778898905
 20
500.6483275835
 30
0.0
 11
1867.721035641
 21
500.6483275835
 31
0.0
  0
ARC
  5
283
330
1F
100
AcDbEntity
  8
0
  6
Continuous
 62
     7
370
    15
100
AcDbCircle
 10
1860.221035641
 20
500.6483275835
 30
0.0
 40
7.5
100
AcDbArc
 50
270.0
 51
0.0
  0
LINE
  5
284
330
1F
100
AcDbEntity
  8
0
  6
Continuous
 62
     7
370
    15
100
AcDbLine
 10
1860.221035641
 20
493.1483275835
 30
0.0
 11
1860.0745890316
 21
493.1483275835
 31
0.0
  0
LINE
  5
285
330
1F
100
AcDbEntity
  8
0
  6
Continuous
 62
     7
370
    15
100
AcDbLine
 10
1867.721035641
 20
505.1483275835
 30
0.0
 11
1865.3778898905
 21
505.1483275835
 31
0.0
  0
LINE
  5
286
330
1F
100
AcDbEntity
  8
0
  6
Continuous
 62
     7
370
    15
100
AcDbLine
 10
1867.721035641
 20
500.6483275835
 30
0.0
 11
1867.721035641
 21
505.1483275835
 31
0.0
  0
ARC
  5
287
330
1F
100
AcDbEntity
  8
0
  6
Continuous
 62
     7
370
    15
100
AcDbCircle
 10
1864.721035641
 20
505.1483275835
 30
0.0
 40
3.000000000000227
100
AcDbArc
 50
0.0
 51
90.0
  0
LINE
  5
288
330
1F
100
AcDbEntity
  8
0
  6
Continuous
 62
     8
370
    15
100
AcDbLine
 10
1577.9274045106
 20
1068.1483275835
 30
0.0
 11
1577.9274045106
 21
508.1483275835
 31
0.0
  0
LINE
  5
289
330
1F
100
AcDbEntity
  8
0
  6
Continuous
 62
     8
370
    15
100
AcDbLine
 10
1599.7256263447
 20
1068.1483275835
 30
0.0
 11
1599.7256263447
 21
508.1483275835
 31
0.0
  0
LINE
  5
28A
330
1F
100
AcDbEntity
  8
0
  6
Continuous
 62
     8
370
    15
100
AcDbLine
 10
1607.4339007947
 20
1068.1483275835
 30
0.0
 11
1607.4339007947
 21
508.1483275835
 31
0.0
  0
LINE
  5
28B
330
1F
100
AcDbEntity
  8
0
  6
Continuous
 62
     8
370
    15
100
AcDbLine
 10
1609.457635641
 20
1068.1483275835
 30
0.0
 11
1609.457635641
 21
508.1483275835
 31
0.0
  0
LWPOLYLINE
  5
28C
330
1F
100
AcDbEntity
  8
0
  6
Continuous
 62
     8
370
    15
100
AcDbPolyline
 90
       20
 70
   128
 43
0.0
 10
1852.5509166668
 20
521.7206696559
 10
1852.0409567976
 20
521.5596205386
 10
1850.7961625838
 20
521.4255604723
 10
1849.5577673314
 20
521.6486115165
 10
1848.3764710874
 20
522.219641935
 10
1847.300636259
 20
523.1152736756
 10
1846.3743076504
 20
524.2988394696
 10
1845.6354092637
 20
525.7218839942
 10
1845.1141916856
 20
527.3261476394
 10
1844.8319936251
 20
529.0459516632
 10
1844.8003683039
 20
530.8108870866
 10
1845.0206104663
 20
532.5486972462
 10
1845.4837033724
 20
534.1882359897
 10
1846.1706879441
 20
535.6623804084
 10
1847.0534389524
 20
536.9107788566
 10
1848.0958164674
 20
537.8823217551
 10
1849.2551454309
 20
538.5372340235
 10
1850.4839627791
 20
538.8487034766
 10
1851.7319605854
 20
538.8039785184
 10
1852.5509166668
 20
538.5759855111
  0
LINE
  5
28D
330
1F
100
AcDbEntity
  8
0
  6
Continuous
 62
     8
370
    15
100
AcDbLine
 10
1782.8539454707
 20
490.8232483067
 30
0.0
 11
1795.8073543522
 21
490.8232483067
 31
0.0
  0
LINE
  5
28E
330
1F
100
AcDbEntity
  8
0
  6
Continuous
 62
     8
370
    15
100
AcDbLine
 10
1779.7685345512
 20
490.8232483067
 30
0.0
 11
1782.8539454707
 21
490.8232483067
 31
0.0
  0
LINE
  5
28F
330
1F
100
AcDbEntity
  8
0
  6
Continuous
 62
     8
370
    15
100
AcDbLine
 10
1587.5809874764
 20
490.8232483067
 30
0.0
 11
1603.6198072774
 21
490.8232483067
 31
0.0
  0
LWPOLYLINE
  5
290
330
1F
100
AcDbEntity
  8
0
  6
Continuous
 62
     8
370
    15
100
AcDbPolyline
 90
       20
 70
   128
 43
0.0
 10
1762.7688530691
 20
521.7206696559
 10
1762.2588932
 20
521.5596205386
 10
1761.0140989861
 20
521.4255604723
 10
1759.7757037337
 20
521.6486115165
 10
1758.5944074898
 20
522.219641935
 10
1757.5185726614
 20
523.1152736756
 10
1756.5922440528
 20
524.2988394696
 10
1755.853345666
 20
525.7218839942
 10
1755.332128088
 20
527.3261476394
 10
1755.0499300274
 20
529.0459516632
 10
1755.0183047062
 20
530.8108870866
 10
1755.2385468686
 20
532.5486972462
 10
1755.7016397747
 20
534.1882359897
 10
1756.3886243464
 20
535.6623804084
 10
1757.2713753548
 20
536.9107788566
 10
1758.3137528697
 20
537.8823217551
 10
1759.4730818332
 20
538.5372340235
 10
1760.7018991815
 20
538.8487034766
 10
1761.9498969877
 20
538.8039785184
 10
1762.7688530691
 20
538.5759855111
  0
LWPOLYLINE
  5
291
330
1F
100
AcDbEntity
  8
0
  6
Continuous
 62
     8
370
    15
100
AcDbPolyline
 90
       20
 70
   128
 43
0.0
 10
1762.7688530691
 20
1037.7206696559
 10
1762.2588932
 20
1037.5596205386
 10
1761.0140989862
 20
1037.4255604723
 10
1759.7757037338
 20
1037.6486115165
 10
1758.5944074898
 20
1038.219641935
 10
1757.5185726614
 20
1039.1152736756
 10
1756.5922440528
 20
1040.2988394696
 10
1755.8533456661
 20
1041.7218839942
 10
1755.332128088
 20
1043.3261476394
 10
1755.0499300275
 20
1045.0459516632
 10
1755.0183047063
 20
1046.8108870866
 10
1755.2385468687
 20
1048.5486972462
 10
1755.7016397748
 20
1050.1882359897
 10
1756.3886243465
 20
1051.6623804084
 10
1757.2713753548
 20
1052.9107788566
 10
1758.3137528697
 20
1053.8823217551
 10
1759.4730818333
 20
1054.5372340235
 10
1760.7018991815
 20
1054.8487034766
 10
1761.9498969878
 20
1054.8039785184
 10
1762.7688530691
 20
1054.5759855111
  0
LINE
  5
292
330
1F
100
AcDbEntity
  8
0
  6
Continuous
 62
     8
370
    15
100
AcDbLine
 10
1837.78703666
 20
490.8232483067
 30
0.0
 11
1850.7404455415
 21
490.8232483067
 31
0.0
  0
LINE
  5
293
330
1F
100
AcDbEntity
  8
0
  6
Continuous
 62
     8
370
    15
100
AcDbLine
 10
1834.7016257405
 20
490.8232483067
 30
0.0
 11
1837.78703666
 21
490.8232483067
 31
0.0
  0
LWPOLYLINE
  5
294
330
1F
100
AcDbEntity
  8
0
  6
Continuous
 62
     8
370
    15
100
AcDbPolyline
 90
       20
 70
   128
 43
0.0
 10
1852.5509166668
 20
1037.7206696559
 10
1852.0409567977
 20
1037.5596205386
 10
1850.7961625838
 20
1037.4255604723
 10
1849.5577673314
 20
1037.6486115165
 10
1848.3764710875
 20
1038.219641935
 10
1847.3006362591
 20
1039.1152736756
 10
1846.3743076505
 20
1040.2988394696
 10
1845.6354092637
 20
1041.7218839942
 10
1845.1141916857
 20
1043.3261476394
 10
1844.8319936251
 20
1045.0459516632
 10
1844.8003683039
 20
1046.8108870866
 10
1845.0206104663
 20
1048.5486972462
 10
1845.4837033724
 20
1050.1882359897
 10
1846.1706879441
 20
1051.6623804084
 10
1847.0534389525
 20
1052.9107788566
 10
1848.0958164674
 20
1053.8823217551
 10
1849.2551454309
 20
1054.5372340235
 10
1850.4839627792
 20
1054.8487034766
 10
1851.7319605854
 20
1054.8039785184
 10
1852.5509166668
 20
1054.5759855111
  0
LINE
  5
295
330
1F
100
AcDbEntity
  8
0
  6
Continuous
 62
     8
370
    15
100
AcDbLine
 10
1571.0198490927
 20
1075.3483275835
 30
0.0
 11
1557.721035641
 21
1075.3483275835
 31
0.0
  0
LINE
  5
296
330
1F
100
AcDbEntity
  8
0
  6
Continuous
 62
     8
370
    15
100
AcDbLine
 10
1557.721035641
 20
1070.1483275835
 30
0.0
 11
1571.0198490927
 21
1070.1483275835
 31
0.0
  0
LINE
  5
297
330
1F
100
AcDbEntity
  8
0
  6
Continuous
 62
     8
370
    15
100
AcDbLine
 10
1557.721035641
 20
500.6483275835
 30
0.0
 11
1571.0198490927
 21
500.6483275835
 31
0.0
  0
LINE
  5
298
330
1F
100
AcDbEntity
  8
0
  6
Continuous
 62
     8
370
    15
100
AcDbLine
 10
1571.0198490927
 20
505.1483275835
 30
0.0
 11
1557.721035641
 21
505.1483275835
 31
0.0
  0
DIMENSION
  5
299
330
1F
100
AcDbEntity
  8
MEDIÇÕES
100
AcDbDimension
  2
_D_1
 10
1457.721035641
 20
1083.1483275835
 30
0.0
 11
1457.721035641
 21
786.9857879451
 31
0.0
 70
   160
  1
<>
 71
     2
 42
-1.0
  3
SLDDIMSTYLE0
100
AcDbAlignedDimension
 13
1587.5809874764
 23
490.8232483067
 33
0.0
 14
1599.5185711086
 24
1083.1483275835
 34
0.0
 50
90.0
100
AcDbRotatedDimension
  0
LINE
  5
2A3
330
1F
100
AcDbEntity
  8
0
  6
Continuous
 62
     7
370
    15
100
AcDbLine
 10
1055.3751709244
 20
1571.8016936861
 30
0.0
 11
1056.5933144758
 21
1573.8717087816
 31
0.0
  0
LINE
  5
2A4
330
1F
100
AcDbEntity
  8
0
  6
Continuous
 62
     7
370
    15
100
AcDbLine
 10
1045.2521562323
 20
1585.2128670251
 30
0.0
 11
1043.1821411368
 21
1583.9947234737
 31
0.0
  0
ARC
  5
2A5
330
1F
100
AcDbEntity
  8
0
  6
Continuous
 62
     7
370
    15
100
AcDbCircle
 10
1045.3028733269
 20
1585.1266824771
 30
0.0
 40
0.1000000000002153
100
AcDbArc
 50
45.0
 51
120.4755709219
  0
ARC
  5
2A6
330
1F
100
AcDbEntity
  8
0
  6
Continuous
 62
     7
370
    15
100
AcDbCircle
 10
1056.5071299278
 20
1573.9224258762
 30
0.0
 40
0.1000000000000193
100
AcDbArc
 50
329.5244290781
 51
44.9999999999
  0
LINE
  5
2A7
330
1F
100
AcDbEntity
  8
0
  6
Continuous
 62
     7
370
    15
100
AcDbLine
 10
965.5931073267
 20
1661.5837572838
 30
0.0
 11
966.8112508781
 21
1663.6537723792
 31
0.0
  0
LINE
  5
2A8
330
1F
100
AcDbEntity
  8
0
  6
Continuous
 62
     7
370
    15
100
AcDbLine
 10
955.4700926346
 20
1674.9949306227
 30
0.0
 11
953.4000775391
 21
1673.7767870714
 31
0.0
  0
ARC
  5
2A9
330
1F
100
AcDbEntity
  8
0
  6
Continuous
 62
     7
370
    15
100
AcDbCircle
 10
955.5208097292
 20
1674.9087460747
 30
0.0
 40
0.1000000000000651
100
AcDbArc
 50
45.0
 51
120.4755709219
  0
ARC
  5
2AA
330
1F
100
AcDbEntity
  8
0
  6
Continuous
 62
     7
370
    15
100
AcDbCircle
 10
966.7250663301
 20
1663.7044894738
 30
0.0
 40
0.1000000000000193
100
AcDbArc
 50
329.5244290781
 51
45.0
  0
LINE
  5
2AB
330
1F
100
AcDbEntity
  8
0
  6
Continuous
 62
     7
370
    15
100
AcDbLine
 10
1054.9370152158
 20
1575.6339619444
 30
0.0
 11
1056.577840606
 21
1573.9931365543
 31
0.0
  0
LINE
  5
2AC
330
1F
100
AcDbEntity
  8
0
  6
Continuous
 62
     7
370
    15
100
AcDbLine
 10
1045.3735840051
 20
1585.1973931552
 30
0.0
 11
1054.9370152158
 21
1575.6339619444
 31
0.0
  0
LINE
  5
2AD
330
1F
100
AcDbEntity
  8
0
  6
Continuous
 62
     7
370
    15
100
AcDbLine
 10
965.1549516181
 20
1665.4160255421
 30
0.0
 11
966.7957770082
 21
1663.7752001519
 31
0.0
  0
LINE
  5
2AE
330
1F
100
AcDbEntity
  8
0
  6
Continuous
 62
     7
370
    15
100
AcDbLine
 10
955.5915204073
 20
1674.9794567528
 30
0.0
 11
965.1549516181
 21
1665.4160255421
 31
0.0
  0
LINE
  5
2AF
330
1F
100
AcDbEntity
  8
0
  6
Continuous
 62
     7
370
    15
100
AcDbLine
 10
917.9519956259
 20
1641.5968997233
 30
0.0
 11
920.8495710935
 21
1641.7154594516
 31
0.0
  0
LINE
  5
2B0
330
1F
100
AcDbEntity
  8
0
  6
Continuous
 62
     7
370
    15
100
AcDbLine
 10
920.8495710935
 20
1641.7154594516
 30
0.0
 11
922.1956830908
 21
1644.2841132802
 31
0.0
  0
LINE
  5
2B1
330
1F
100
AcDbEntity
  8
0
  6
Continuous
 62
     7
370
    15
100
AcDbLine
 10
916.4005321554
 20
1644.0469938235
 30
0.0
 11
917.9519956259
 21
1641.5968997233
 31
0.0
  0
LINE
  5
2B2
330
1F
100
AcDbEntity
  8
0
  6
Continuous
 62
     7
370
    15
100
AcDbLine
 10
917.7466441527
 20
1646.615647652
 30
0.0
 11
920.6442196203
 21
1646.7342073804
 31
0.0
  0
LINE
  5
2B3
330
1F
100
AcDbEntity
  8
0
  6
Continuous
 62
     7
370
    15
100
AcDbLine
 10
916.4005321554
 20
1644.0469938235
 30
0.0
 11
917.7466441527
 21
1646.615647652
 31
0.0
  0
LINE
  5
2B4
330
1F
100
AcDbEntity
  8
0
  6
Continuous
 62
     7
370
    15
100
AcDbLine
 10
920.6442196203
 20
1646.7342073804
 30
0.0
 11
922.1956830908
 21
1644.2841132802
 31
0.0
  0
CIRCLE
  5
2B5
330
1F
100
AcDbEntity
  8
0
  6
Continuous
 62
     7
370
    15
100
AcDbCircle
 10
919.2981076231
 20
1644.1655535518
 30
0.0
 40
6.000000000000263
  0
CIRCLE
  5
2B6
330
1F
100
AcDbEntity
  8
0
  6
Continuous
 62
     7
370
    15
100
AcDbCircle
 10
919.2981076231
 20
1644.1655535518
 30
0.0
 40
2.300000000000125
  0
CIRCLE
  5
2B7
330
1F
100
AcDbEntity
  8
0
  6
Continuous
 62
     7
370
    15
100
AcDbCircle
 10
919.2981076231
 20
1644.1655535518
 30
0.0
 40
0.4999999999999935
  0
LINE
  5
2B8
330
1F
100
AcDbEntity
  8
0
  6
Continuous
 62
     7
370
    15
100
AcDbLine
 10
919.4313765213
 20
1558.5968997233
 30
0.0
 11
922.328951989
 21
1558.7154594516
 31
0.0
  0
LINE
  5
2B9
330
1F
100
AcDbEntity
  8
0
  6
Continuous
 62
     7
370
    15
100
AcDbLine
 10
922.328951989
 20
1558.7154594516
 30
0.0
 11
923.6750639862
 21
1561.2841132802
 31
0.0
  0
LINE
  5
2BA
330
1F
100
AcDbEntity
  8
0
  6
Continuous
 62
     7
370
    15
100
AcDbLine
 10
922.1236005158
 20
1563.7342073804
 30
0.0
 11
923.6750639862
 21
1561.2841132802
 31
0.0
  0
LINE
  5
2BB
330
1F
100
AcDbEntity
  8
0
  6
Continuous
 62
     7
370
    15
100
AcDbLine
 10
919.2260250481
 20
1563.615647652
 30
0.0
 11
922.1236005158
 21
1563.7342073804
 31
0.0
  0
LINE
  5
2BC
330
1F
100
AcDbEntity
  8
0
  6
Continuous
 62
     7
370
    15
100
AcDbLine
 10
917.8799130509
 20
1561.0469938235
 30
0.0
 11
919.2260250481
 21
1563.615647652
 31
0.0
  0
LINE
  5
2BD
330
1F
100
AcDbEntity
  8
0
  6
Continuous
 62
     7
370
    15
100
AcDbLine
 10
917.8799130509
 20
1561.0469938235
 30
0.0
 11
919.4313765213
 21
1558.5968997233
 31
0.0
  0
CIRCLE
  5
2BE
330
1F
100
AcDbEntity
  8
0
  6
Continuous
 62
     7
370
    15
100
AcDbCircle
 10
920.7774885185
 20
1561.1655535518
 30
0.0
 40
6.000000000000061
  0
CIRCLE
  5
2BF
330
1F
100
AcDbEntity
  8
0
  6
Continuous
 62
     7
370
    15
100
AcDbCircle
 10
920.7774885185
 20
1561.1655535518
 30
0.0
 40
2.300000000000125
  0
CIRCLE
  5
2C0
330
1F
100
AcDbEntity
  8
0
  6
Continuous
 62
     7
370
    15
100
AcDbCircle
 10
920.7774885185
 20
1561.1655535518
 30
0.0
 40
0.4999999999999408
  0
LINE
  5
2C1
330
1F
100
AcDbEntity
  8
0
  6
Continuous
 62
     7
370
    15
100
AcDbLine
 10
1036.1575132967
 20
1507.5045732882
 30
0.0
 11
1039.0550887644
 21
1507.6231330166
 31
0.0
  0
LINE
  5
2C2
330
1F
100
AcDbEntity
  8
0
  6
Continuous
 62
     7
370
    15
100
AcDbLine
 10
1039.0550887644
 20
1507.6231330166
 30
0.0
 11
1040.4012007616
 21
1510.1917868451
 31
0.0
  0
LINE
  5
2C3
330
1F
100
AcDbEntity
  8
0
  6
Continuous
 62
     7
370
    15
100
AcDbLine
 10
1038.8497372912
 20
1512.6418809453
 30
0.0
 11
1040.4012007616
 21
1510.1917868451
 31
0.0
  0
LINE
  5
2C4
330
1F
100
AcDbEntity
  8
0
  6
Continuous
 62
     7
370
    15
100
AcDbLine
 10
1035.9521618235
 20
1512.523321217
 30
0.0
 11
1038.8497372912
 21
1512.6418809453
 31
0.0
  0
LINE
  5
2C5
330
1F
100
AcDbEntity
  8
0
  6
Continuous
 62
     7
370
    15
100
AcDbLine
 10
1034.6060498263
 20
1509.9546673885
 30
0.0
 11
1035.9521618235
 21
1512.523321217
 31
0.0
  0
LINE
  5
2C6
330
1F
100
AcDbEntity
  8
0
  6
Continuous
 62
     7
370
    15
100
AcDbLine
 10
1034.6060498263
 20
1509.9546673885
 30
0.0
 11
1036.1575132967
 21
1507.5045732882
 31
0.0
  0
CIRCLE
  5
2C7
330
1F
100
AcDbEntity
  8
0
  6
Continuous
 62
     7
370
    15
100
AcDbCircle
 10
1037.503625294
 20
1510.0732271168
 30
0.0
 40
6.00000000000021
  0
CIRCLE
  5
2C8
330
1F
100
AcDbEntity
  8
0
  6
Continuous
 62
     7
370
    15
100
AcDbCircle
 10
1037.503625294
 20
1510.0732271168
 30
0.0
 40
2.299999999999871
  0
CIRCLE
  5
2C9
330
1F
100
AcDbEntity
  8
0
  6
Continuous
 62
     7
370
    15
100
AcDbCircle
 10
1037.503625294
 20
1510.0732271168
 30
0.0
 40
0.5000000000000463
  0
CIRCLE
  5
2CA
330
1F
100
AcDbEntity
  8
0
  6
Continuous
 62
     7
370
    15
100
AcDbCircle
 10
920.7774885185
 20
1477.1655535518
 30
0.0
 40
5.999999999999861
  0
LINE
  5
2CB
330
1F
100
AcDbEntity
  8
0
  6
Continuous
 62
     7
370
    15
100
AcDbLine
 10
919.4313765213
 20
1474.5968997233
 30
0.0
 11
922.328951989
 21
1474.7154594516
 31
0.0
  0
LINE
  5
2CC
330
1F
100
AcDbEntity
  8
0
  6
Continuous
 62
     7
370
    15
100
AcDbLine
 10
922.328951989
 20
1474.7154594516
 30
0.0
 11
923.6750639862
 21
1477.2841132802
 31
0.0
  0
LINE
  5
2CD
330
1F
100
AcDbEntity
  8
0
  6
Continuous
 62
     7
370
    15
100
AcDbLine
 10
922.1236005158
 20
1479.7342073804
 30
0.0
 11
923.6750639862
 21
1477.2841132802
 31
0.0
  0
LINE
  5
2CE
330
1F
100
AcDbEntity
  8
0
  6
Continuous
 62
     7
370
    15
100
AcDbLine
 10
919.2260250481
 20
1479.615647652
 30
0.0
 11
922.1236005158
 21
1479.7342073804
 31
0.0
  0
LINE
  5
2CF
330
1F
100
AcDbEntity
  8
0
  6
Continuous
 62
     7
370
    15
100
AcDbLine
 10
917.8799130509
 20
1477.0469938235
 30
0.0
 11
919.2260250481
 21
1479.615647652
 31
0.0
  0
LINE
  5
2D0
330
1F
100
AcDbEntity
  8
0
  6
Continuous
 62
     7
370
    15
100
AcDbLine
 10
917.8799130509
 20
1477.0469938235
 30
0.0
 11
919.4313765213
 21
1474.5968997233
 31
0.0
  0
CIRCLE
  5
2D1
330
1F
100
AcDbEntity
  8
0
  6
Continuous
 62
     7
370
    15
100
AcDbCircle
 10
920.7774885185
 20
1477.1655535518
 30
0.0
 40
2.299999999999723
  0
CIRCLE
  5
2D2
330
1F
100
AcDbEntity
  8
0
  6
Continuous
 62
     7
370
    15
100
AcDbCircle
 10
920.7774885185
 20
1477.1655535518
 30
0.0
 40
0.4999999999999408
  0
LINE
  5
2D3
330
1F
100
AcDbEntity
  8
0
  6
Continuous
 62
     7
370
    15
100
AcDbLine
 10
802.2770173014
 20
1507.7793794128
 30
0.0
 11
805.1507149063
 21
1507.3896845635
 31
0.0
  0
LINE
  5
2D4
330
1F
100
AcDbEntity
  8
0
  6
Continuous
 62
     7
370
    15
100
AcDbLine
 10
805.1507149063
 20
1507.3896845635
 30
0.0
 11
806.925049348
 21
1509.6835322675
 31
0.0
  0
LINE
  5
2D5
330
1F
100
AcDbEntity
  8
0
  6
Continuous
 62
     7
370
    15
100
AcDbLine
 10
805.8256861848
 20
1512.3670748208
 30
0.0
 11
806.925049348
 21
1509.6835322675
 31
0.0
  0
LINE
  5
2D6
330
1F
100
AcDbEntity
  8
0
  6
Continuous
 62
     7
370
    15
100
AcDbLine
 10
802.9519885799
 20
1512.7567696701
 30
0.0
 11
805.8256861848
 21
1512.3670748208
 31
0.0
  0
LINE
  5
2D7
330
1F
100
AcDbEntity
  8
0
  6
Continuous
 62
     7
370
    15
100
AcDbLine
 10
801.1776541382
 20
1510.4629219661
 30
0.0
 11
802.9519885799
 21
1512.7567696701
 31
0.0
  0
LINE
  5
2D8
330
1F
100
AcDbEntity
  8
0
  6
Continuous
 62
     7
370
    15
100
AcDbLine
 10
801.1776541382
 20
1510.4629219661
 30
0.0
 11
802.2770173014
 21
1507.7793794128
 31
0.0
  0
CIRCLE
  5
2D9
330
1F
100
AcDbEntity
  8
0
  6
Continuous
 62
     7
370
    15
100
AcDbCircle
 10
804.0513517431
 20
1510.0732271168
 30
0.0
 40
5.999999999999996
  0
CIRCLE
  5
2DA
330
1F
100
AcDbEntity
  8
0
  6
Continuous
 62
     7
370
    15
100
AcDbCircle
 10
804.0513517431
 20
1510.0732271168
 30
0.0
 40
2.300000000000075
  0
CIRCLE
  5
2DB
330
1F
100
AcDbEntity
  8
0
  6
Continuous
 62
     7
370
    15
100
AcDbCircle
 10
804.0513517431
 20
1510.0732271168
 30
0.0
 40
0.5000000000000886
  0
LINE
  5
2DC
330
1F
100
AcDbEntity
  8
0
  6
Continuous
 62
     7
370
    15
100
AcDbLine
 10
939.6976025597
 20
1676.3655535518
 30
0.0
 11
815.4268187073
 21
1676.3655535518
 31
0.0
  0
LINE
  5
2DD
330
1F
100
AcDbEntity
  8
0
  6
Continuous
 62
     7
370
    15
100
AcDbLine
 10
815.4268187073
 20
1676.3655535518
 30
0.0
 11
815.4268187073
 21
1684.1655535518
 31
0.0
  0
LINE
  5
2DE
330
1F
100
AcDbEntity
  8
0
  6
Continuous
 62
     7
370
    15
100
AcDbLine
 10
815.4268187073
 20
1684.1655535518
 30
0.0
 11
939.6976025597
 21
1684.1655535518
 31
0.0
  0
LINE
  5
2DF
330
1F
100
AcDbEntity
  8
0
  6
Continuous
 62
     7
370
    15
100
AcDbLine
 10
939.6976025597
 20
1676.3655535518
 30
0.0
 11
939.6976025597
 21
1684.1655535518
 31
0.0
  0
ARC
  5
2E0
330
1F
100
AcDbEntity
  8
0
  6
Continuous
 62
     7
370
    15
100
AcDbCircle
 10
939.6976025597
 20
1676.1655535518
 30
0.0
 40
0.2000000000002728
100
AcDbArc
 50
45.0
 51
90.0
  0
ARC
  5
2E1
330
1F
100
AcDbEntity
  8
0
  6
Continuous
 62
     7
370
    15
100
AcDbCircle
 10
939.6976025597
 20
1676.1655535518
 30
0.0
 40
8.000000000000227
100
AcDbArc
 50
45.0
 51
90.0
  0
LINE
  5
2E2
330
1F
100
AcDbEntity
  8
0
  6
Continuous
 62
     7
370
    15
100
AcDbLine
 10
939.839023916
 20
1676.3069749081
 30
0.0
 11
945.3544568092
 21
1681.8224078013
 31
0.0
  0
ARC
  5
2E3
330
1F
100
AcDbEntity
  8
0
  6
Continuous
 62
     7
370
    15
100
AcDbCircle
 10
815.4268187073
 20
1676.1655535518
 30
0.0
 40
0.2000000000002728
100
AcDbArc
 50
90.0
 51
164.9999999999
  0
LINE
  5
2E4
330
1F
100
AcDbEntity
  8
0
  6
Continuous
 62
     7
370
    15
100
AcDbLine
 10
815.233633542
 20
1676.2173173609
 30
0.0
 11
807.6994120969
 21
1678.2361059127
 31
0.0
  0
ARC
  5
2E5
330
1F
100
AcDbEntity
  8
0
  6
Continuous
 62
     7
370
    15
100
AcDbCircle
 10
815.4268187073
 20
1676.1655535518
 30
0.0
 40
8.000000000000227
100
AcDbArc
 50
90.0
 51
165.0
  0
LINE
  5
2E6
330
1F
100
AcDbEntity
  8
0
  6
Continuous
 62
     7
370
    15
100
AcDbLine
 10
1057.9053587611
 20
1558.2406400629
 30
0.0
 11
939.839023916
 21
1676.3069749081
 31
0.0
  0
LINE
  5
2E7
330
1F
100
AcDbEntity
  8
0
  6
Continuous
 62
     7
370
    15
100
AcDbLine
 10
945.3544568092
 20
1681.8224078013
 30
0.0
 11
1063.4207916544
 21
1563.7560729562
 31
0.0
  0
LINE
  5
2E8
330
1F
100
AcDbEntity
  8
0
  6
Continuous
 62
     7
370
    15
100
AcDbLine
 10
1057.9053587611
 20
1558.2406400629
 30
0.0
 11
1063.4207916544
 21
1563.7560729562
 31
0.0
  0
LINE
  5
2E9
330
1F
100
AcDbEntity
  8
0
  6
Continuous
 62
     7
370
    15
100
AcDbLine
 10
815.233633542
 20
1676.2173173609
 30
0.0
 11
745.4987232311
 21
1415.9630890194
 31
0.0
  0
LINE
  5
2EA
330
1F
100
AcDbEntity
  8
0
  6
Continuous
 62
     7
370
    15
100
AcDbLine
 10
737.9645017861
 20
1417.9818775712
 30
0.0
 11
745.4987232311
 21
1415.9630890194
 31
0.0
  0
LINE
  5
2EB
330
1F
100
AcDbEntity
  8
0
  6
Continuous
 62
     7
370
    15
100
AcDbLine
 10
737.9645017861
 20
1417.9818775712
 30
0.0
 11
807.6994120969
 21
1678.2361059127
 31
0.0
  0
ARC
  5
2EC
330
1F
100
AcDbEntity
  8
0
  6
Continuous
 62
     7
370
    15
100
AcDbCircle
 10
1057.7639374049
 20
1558.0992187067
 30
0.0
 40
0.2000000000000151
100
AcDbArc
 50
15.0000000001
 51
45.0
  0
LINE
  5
2ED
330
1F
100
AcDbEntity
  8
0
  6
Continuous
 62
     7
370
    15
100
AcDbLine
 10
1096.0562538059
 20
1415.9630890194
 30
0.0
 11
1057.9571225701
 21
1558.1509825157
 31
0.0
  0
ARC
  5
2EE
330
1F
100
AcDbEntity
  8
0
  6
Continuous
 62
     7
370
    15
100
AcDbCircle
 10
1079.9252925069
 20
1411.6408109662
 30
0.0
 40
16.70000000000017
100
AcDbArc
 50
279.3219862464
 51
15.0
  0
ARC
  5
2EF
330
1F
100
AcDbEntity
  8
0
  6
Continuous
 62
     7
370
    15
100
AcDbCircle
 10
920.7774885185
 20
2381.1655535518
 30
0.0
 40
999.1999999999999
100
AcDbArc
 50
260.6780137536
 51
279.3219862464
  0
ARC
  5
2F0
330
1F
100
AcDbEntity
  8
0
  6
Continuous
 62
     7
370
    15
100
AcDbCircle
 10
761.6296845302
 20
1411.6408109662
 30
0.0
 40
16.70000000000002
100
AcDbArc
 50
165.0
 51
260.6780137536
  0
CIRCLE
  5
2F1
330
1F
100
AcDbEntity
  8
0
  6
Continuous
 62
     7
370
    15
100
AcDbCircle
 10
920.7774885185
 20
1477.1655535518
 30
0.0
 40
5.500000000000114
  0
LINE
  5
2F2
330
1F
100
AcDbEntity
  8
0
  6
Continuous
 62
     7
370
    15
100
AcDbLine
 10
1065.4913440152
 20
1560.1697710675
 30
0.0
 11
1103.590475251
 21
1417.9818775712
 31
0.0
  0
LINE
  5
2F3
330
1F
100
AcDbEntity
  8
0
  6
Continuous
 62
     7
370
    15
100
AcDbLine
 10
1103.590475251
 20
1417.9818775712
 30
0.0
 11
1096.0562538059
 21
1415.9630890194
 31
0.0
  0
LINE
  5
2F4
330
1F
100
AcDbEntity
  8
0
  6
Continuous
 62
     7
370
    15
100
AcDbLine
 10
1065.4913440152
 20
1560.1697710675
 30
0.0
 11
1057.9571225701
 21
1558.1509825157
 31
0.0
  0
ARC
  5
2F5
330
1F
100
AcDbEntity
  8
0
  6
Continuous
 62
     7
370
    15
100
AcDbCircle
 10
1057.7639374049
 20
1558.0992187067
 30
0.0
 40
8.000000000000243
100
AcDbArc
 50
15.0
 51
45.0
  0
ARC
  5
2F6
330
1F
100
AcDbEntity
  8
0
  6
Continuous
 62
     7
370
    15
100
AcDbCircle
 10
761.6296845302
 20
1411.6408109662
 30
0.0
 40
24.49999999999996
100
AcDbArc
 50
165.0
 51
260.6780137536
  0
LINE
  5
2F7
330
1F
100
AcDbEntity
  8
0
  6
Continuous
 62
     7
370
    15
100
AcDbLine
 10
757.6611133366
 20
1387.4643670035
 30
0.0
 11
758.9245768186
 21
1395.1613573264
 31
0.0
  0
ARC
  5
2F8
330
1F
100
AcDbEntity
  8
0
  6
Continuous
 62
     7
370
    15
100
AcDbCircle
 10
1079.9252925069
 20
1411.6408109662
 30
0.0
 40
24.50000000000017
100
AcDbArc
 50
279.3219862464
 51
15.0
  0
LINE
  5
2F9
330
1F
100
AcDbEntity
  8
0
  6
Continuous
 62
     7
370
    15
100
AcDbLine
 10
1083.8938637005
 20
1387.4643670035
 30
0.0
 11
1082.6304002185
 21
1395.1613573264
 31
0.0
  0
ARC
  5
2FA
330
1F
100
AcDbEntity
  8
0
  6
Continuous
 62
     7
370
    15
100
AcDbCircle
 10
920.7774885185
 20
2381.1655535518
 30
0.0
 40
1007.0
100
AcDbArc
 50
260.6780137536
 51
279.3219862464
  0
LINE
  5
2FB
330
1F
100
AcDbEntity
  8
0
  6
Continuous
 62
     8
370
    15
100
AcDbLine
 10
1056.5933144758
 20
1573.8717087816
 30
0.0
 11
1045.2521562323
 21
1585.2128670251
 31
0.0
  0
LINE
  5
2FC
330
1F
100
AcDbEntity
  8
0
  6
Continuous
 62
     8
370
    15
100
AcDbLine
 10
966.8112508781
 20
1663.6537723792
 30
0.0
 11
955.4700926346
 21
1674.9949306227
 31
0.0
  0
DIMENSION
  5
2FD
330
1F
100
AcDbEntity
  8
MEDIÇÕES
100
AcDbDimension
  2
_D_2
 10
684.9787978095
 20
1374.1655535518
 30
0.0
 11
684.9787978095
 21
1529.1655535518
 31
0.0
 70
   160
  1
<>
 71
     2
 42
-1.0
  3
SLDDIMSTYLE1
100
AcDbAlignedDimension
 13
815.4268187073
 23
1684.1655535518
 33
0.0
 14
920.7774885185
 24
1374.1655535518
 34
0.0
 50
90.0
100
AcDbRotatedDimension
  0
SPLINE
  5
308
330
1F
100
AcDbEntity
  8
0
  6
Continuous
 62
     7
370
    15
100
AcDbSpline
210
0.0
220
0.0
230
1.0
 70
     8
 71
     3
 72
     9
 73
     5
 74
     0
 42
0.00000001
 43
0.00000001
 12
1.0
 22
0.0
 32
0.0
 13
1.0
 23
0.0
 33
0.0
 40
0.0
 40
0.0
 40
0.0
 40
0.0
 40
0.4541667105328683
 40
1.0
 40
1.0
 40
1.0
 40
1.0
 10
2758.791753279119
 20
1326.392544957107
 30
0.0
 10
2758.895286461369
 20
1326.645581464797
 30
0.0
 10
2759.123249409442
 20
1327.202726015073
 30
0.0
 10
2759.161311904527
 20
1327.803256607659
 30
0.0
 10
2759.182087681425
 20
1328.131046196435
 30
0.0
  0
SPLINE
  5
309
330
1F
100
AcDbEntity
  8
0
  6
Continuous
 62
     7
370
    15
100
AcDbSpline
210
0.0
220
0.0
230
1.0
 70
     8
 71
     3
 72
    12
 73
     8
 74
     0
 42
0.00000001
 43
0.00000001
 12
1.0
 22
0.0
 32
0.0
 13
1.0
 23
0.0
 33
0.0
 40
0.0
 40
0.0
 40
0.0
 40
0.0
 40
0.2135902948109898
 40
0.4655467405179783
 40
0.700982197106691
 40
0.9286426273872371
 40
1.0
 40
1.0
 40
1.0
 40
1.0
 10
2686.651739687925
 20
1258.4564843797
 30
0.0
 10
2686.925353504762
 20
1258.302020166425
 30
0.0
 10
2687.521729012843
 20
1257.965346109768
 30
0.0
 10
2688.524425080293
 20
1257.729271498814
 30
0.0
 10
2689.566396965643
 20
1257.734875687703
 30
0.0
 10
2690.322218941598
 20
1257.953126323703
 30
0.0
 10
2690.702927239053
 20
1258.158850077966
 30
0.0
 10
2690.79377916685
 20
1258.207943832406
 30
0.0
  0
LINE
  5
30A
330
1F
100
AcDbEntity
  8
0
  6
Continuous
 62
     7
370
    15
100
AcDbLine
 10
2684.0124347824
 20
1259.9538636745
 30
0.0
 11
2686.6728651502
 21
1258.4180299143
 31
0.0
  0
SPLINE
  5
30B
330
1F
100
AcDbEntity
  8
0
  6
Continuous
 62
     7
370
    15
100
AcDbSpline
210
0.0
220
0.0
230
1.0
 70
     8
 71
     3
 72
     9
 73
     5
 74
     0
 42
0.00000001
 43
0.00000001
 12
1.0
 22
0.0
 32
0.0
 13
1.0
 23
0.0
 33
0.0
 40
0.0
 40
0.0
 40
0.0
 40
0.0
 40
0.6329807964544267
 40
1.0
 40
1.0
 40
1.0
 40
1.0
 10
2690.79377916685
 20
1258.207943832406
 30
0.0
 10
2690.996425381903
 20
1258.335079136637
 30
0.0
 10
2691.316571295002
 20
1258.53593089224
 30
0.0
 10
2691.585903244183
 20
1258.790865923648
 30
0.0
 10
2691.684753241661
 20
1258.884431975832
 30
0.0
  0
LINE
  5
30C
330
1F
100
AcDbEntity
  8
0
  6
Continuous
 62
     7
370
    15
100
AcDbLine
 10
2691.6847532417
 20
1258.8844319758
 30
0.0
 11
2757.7923770438
 21
1324.9848928792
 31
0.0
  0
SPLINE
  5
30D
330
1F
100
AcDbEntity
  8
0
  6
Continuous
 62
     7
370
    15
100
AcDbSpline
210
0.0
220
0.0
230
1.0
 70
     8
 71
     3
 72
     9
 73
     5
 74
     0
 42
0.00000001
 43
0.00000001
 12
1.0
 22
0.0
 32
0.0
 13
1.0
 23
0.0
 33
0.0
 40
0.0
 40
0.0
 40
0.0
 40
0.0
 40
0.451240355792929
 40
1.0
 40
1.0
 40
1.0
 40
1.0
 10
2757.792377043786
 20
1324.984892879238
 30
0.0
 10
2757.972837604957
 20
1325.178084471755
 30
0.0
 10
2758.372758753089
 20
1325.606219034713
 30
0.0
 10
2758.643294292672
 20
1326.113932368628
 30
0.0
 10
2758.791753279119
 20
1326.392544957107
 30
0.0
  0
LINE
  5
30E
330
1F
100
AcDbEntity
  8
0
  6
Continuous
 62
     7
370
    15
100
AcDbLine
 10
2682.6690001944
 20
1256.8377251972
 30
0.0
 11
2682.6690001944
 21
1707.3384648969
 31
0.0
  0
LINE
  5
30F
330
1F
100
AcDbEntity
  8
0
  6
Continuous
 62
     7
370
    15
100
AcDbLine
 10
2420.721816057
 20
1835.7416444854
 30
0.0
 11
2420.721816057
 21
1387.5962516284
 31
0.0
  0
LINE
  5
310
330
1F
100
AcDbEntity
  8
0
  6
Continuous
 62
     7
370
    15
100
AcDbLine
 10
2759.1820876814
 20
1420.6846476472
 30
0.0
 11
2761.5071669582
 21
1421.2870117927
 31
0.0
  0
LINE
  5
311
330
1F
100
AcDbEntity
  8
0
  6
Continuous
 62
     7
370
    15
100
AcDbLine
 10
2761.5071669582
 20
1437.3258315937
 30
0.0
 11
2759.1820876814
 21
1437.9281957392
 31
0.0
  0
ARC
  5
312
330
1F
100
AcDbEntity
  8
0
  6
Continuous
 62
     7
370
    15
100
AcDbCircle
 10
2761.4820876813
 20
1437.2290275139
 30
0.0
 40
0.0999999999999091
100
AcDbArc
 50
0.0000000003
 51
75.475570922
  0
ARC
  5
313
330
1F
100
AcDbEntity
  8
0
  6
Continuous
 62
     7
370
    15
100
AcDbCircle
 10
2761.4820876813
 20
1421.3838158726
 30
0.0
 40
0.0999999999999091
100
AcDbArc
 50
284.524429078
 51
0.0
  0
LINE
  5
314
330
1F
100
AcDbEntity
  8
0
  6
Continuous
 62
     7
370
    15
100
AcDbLine
 10
2759.1820876814
 20
1347.3858426299
 30
0.0
 11
2761.5071669582
 21
1347.9882067754
 31
0.0
  0
LINE
  5
315
330
1F
100
AcDbEntity
  8
0
  6
Continuous
 62
     7
370
    15
100
AcDbLine
 10
2761.5071669582
 20
1364.0270265764
 30
0.0
 11
2759.1820876814
 21
1364.6293907219
 31
0.0
  0
ARC
  5
316
330
1F
100
AcDbEntity
  8
0
  6
Continuous
 62
     7
370
    15
100
AcDbCircle
 10
2761.4820876814
 20
1363.9302224965
 30
0.0
 40
0.1000000000003638
100
AcDbArc
 50
0.0000000003
 51
75.4755709217
  0
ARC
  5
317
330
1F
100
AcDbEntity
  8
0
  6
Continuous
 62
     7
370
    15
100
AcDbCircle
 10
2761.4820876814
 20
1348.0850108552
 30
0.0
 40
0.1000000000003638
100
AcDbArc
 50
284.5244290783
 51
359.9999999999
  0
LINE
  5
318
330
1F
100
AcDbEntity
  8
0
  6
Continuous
 62
     7
370
    15
100
AcDbLine
 10
2759.1820876814
 20
1768.7209015629
 30
0.0
 11
2761.5071669583
 21
1769.3232657084
 31
0.0
  0
LINE
  5
319
330
1F
100
AcDbEntity
  8
0
  6
Continuous
 62
     7
370
    15
100
AcDbLine
 10
2761.5071669583
 20
1785.3620855094
 30
0.0
 11
2759.1820876814
 21
1785.9644496549
 31
0.0
  0
ARC
  5
31A
330
1F
100
AcDbEntity
  8
0
  6
Continuous
 62
     7
370
    15
100
AcDbCircle
 10
2761.4820876814
 20
1785.2652814296
 30
0.0
 40
0.1000000000003638
100
AcDbArc
 50
0.0000000003
 51
75.4755709217
  0
ARC
  5
31B
330
1F
100
AcDbEntity
  8
0
  6
Continuous
 62
     7
370
    15
100
AcDbCircle
 10
2761.4820876814
 20
1769.4200697883
 30
0.0
 40
0.1000000000003638
100
AcDbArc
 50
284.5244290783
 51
359.9999999996
  0
LINE
  5
31C
330
1F
100
AcDbEntity
  8
0
  6
Continuous
 62
     7
370
    15
100
AcDbLine
 10
2759.1820876814
 20
1842.0197065802
 30
0.0
 11
2761.5071669582
 21
1842.6220707258
 31
0.0
  0
LINE
  5
31D
330
1F
100
AcDbEntity
  8
0
  6
Continuous
 62
     7
370
    15
100
AcDbLine
 10
2761.5071669582
 20
1858.6608905267
 30
0.0
 11
2759.1820876814
 21
1859.2632546723
 31
0.0
  0
ARC
  5
31E
330
1F
100
AcDbEntity
  8
0
  6
Continuous
 62
     7
370
    15
100
AcDbCircle
 10
2761.4820876814
 20
1858.5640864469
 30
0.0
 40
0.1000000000003638
100
AcDbArc
 50
359.9999999999
 51
75.4755709217
  0
ARC
  5
31F
330
1F
100
AcDbEntity
  8
0
  6
Continuous
 62
     7
370
    15
100
AcDbCircle
 10
2761.4820876814
 20
1842.7188748056
 30
0.0
 40
0.1000000000003638
100
AcDbArc
 50
284.5244290783
 51
0.0000000001
  0
LINE
  5
320
330
1F
100
AcDbEntity
  8
0
  6
Continuous
 62
     7
370
    15
100
AcDbLine
 10
2653.0939280983
 20
1850.7303521572
 30
0.0
 11
2654.2104505147
 21
1850.2885309848
 31
0.0
  0
LINE
  5
321
330
1F
100
AcDbEntity
  8
0
  6
Continuous
 62
     7
370
    15
100
AcDbLine
 10
2658.7620832966
 20
1850.2885309848
 30
0.0
 11
2659.878605713
 21
1850.7303521572
 31
0.0
  0
LINE
  5
322
330
1F
100
AcDbEntity
  8
0
  6
Continuous
 62
     7
370
    15
100
AcDbLine
 10
2653.9862669056
 20
1850.3772430998
 30
0.0
 11
2653.9862669056
 21
1850.3509251091
 31
0.0
  0
LINE
  5
323
330
1F
100
AcDbEntity
  8
0
  6
Continuous
 62
     7
370
    15
100
AcDbLine
 10
2658.9862669056
 20
1850.3509251091
 30
0.0
 11
2658.9862669056
 21
1850.3772430998
 31
0.0
  0
SPLINE
  5
324
330
1F
100
AcDbEntity
  8
0
  6
Continuous
 62
     7
370
    15
100
AcDbSpline
210
0.0
220
0.0
230
1.0
 70
     8
 71
     3
 72
    22
 73
    18
 74
     0
 42
0.00000001
 43
0.00000001
 12
1.0
 22
0.0
 32
0.0
 13
1.0
 23
0.0
 33
0.0
 40
0.0
 40
0.0
 40
0.0
 40
0.0
 40
0.0373266793677792
 40
0.1076932056222341
 40
0.1779396043213256
 40
0.2480734216039374
 40
0.318127047871911
 40
0.3881414624700573
 40
0.4581613861200892
 40
0.5282220273862601
 40
0.598366751170118
 40
0.6686428652025173
 40
0.7390944700447729
 40
0.8097550693256925
 40
0.8806316499195442
 40
0.951674338078999
 40
1.0
 40
1.0
 40
1.0
 40
1.0
 10
2649.402335275148
 20
1704.164010481902
 30
0.0
 10
2649.814825999346
 20
1703.999724003971
 30
0.0
 10
2651.004925122297
 20
1703.525732270753
 30
0.0
 10
2653.098983245835
 20
1702.870217811913
 30
0.0
 10
2655.700789484014
 20
1702.261147502878
 30
0.0
 10
2658.399166322436
 20
1701.836570998342
 30
0.0
 10
2661.15707294959
 20
1701.597670992708
 30
0.0
 10
2663.941249833748
 20
1701.547338740157
 30
0.0
 10
2666.717057636535
 20
1701.685796439546
 30
0.0
 10
2669.450313674697
 20
1702.011748664614
 30
0.0
 10
2672.107325384876
 20
1702.522160016779
 30
0.0
 10
2674.655640938287
 20
1703.212462207506
 30
0.0
 10
2677.063512538386
 20
1704.077031334763
 30
0.0
 10
2679.302243595884
 20
1705.108279419727
 30
0.0
 10
2681.337072370866
 20
1706.300749872062
 30
0.0
 10
2682.965295022391
 20
1707.492971637176
 30
0.0
 10
2683.837428611171
 20
1708.319312833012
 30
0.0
 10
2684.190507404109
 20
1708.653852811444
 30
0.0
  0
SPLINE
  5
325
330
1F
100
AcDbEntity
  8
0
  6
Continuous
 62
     7
370
    15
100
AcDbSpline
210
0.0
220
0.0
230
1.0
 70
     8
 71
     3
 72
    26
 73
    22
 74
     0
 42
0.00000001
 43
0.00000001
 12
1.0
 22
0.0
 32
0.0
 13
1.0
 23
0.0
 33
0.0
 40
0.0
 40
0.0
 40
0.0
 40
0.0
 40
0.0286775550220642
 40
0.083148734224867
 40
0.1376206635290863
 40
0.1920931019154873
 40
0.2465659157197031
 40
0.3010389839615432
 40
0.3555121976934374
 40
0.4099854494640045
 40
0.464458635374186
 40
0.5189316815653411
 40
0.5734045231747112
 40
0.6278771036542667
 40
0.6823493741134028
 40
0.7368212926908561
 40
0.7912928239574601
 40
0.8457639383531946
 40
0.9002346116582387
 40
0.9547048244996016
 40
1.0
 40
1.0
 40
1.0
 40
1.0
 10
2418.691681622367
 20
1837.357967310977
 30
0.0
 10
2420.526817203556
 20
1835.891196577887
 30
0.0
 10
2425.847675295867
 20
1831.638388771901
 30
0.0
 10
2434.849308497104
 20
1824.682149405309
 30
0.0
 10
2445.776464296272
 20
1816.52774572815
 30
0.0
 10
2456.955149578961
 20
1808.488288400779
 30
0.0
 10
2468.377397613853
 20
1800.564469151383
 30
0.0
 10
2480.040792314005
 20
1792.759254928169
 30
0.0
 10
2491.941336911475
 20
1785.074953463285
 30
0.0
 10
2504.07536378435
 20
1777.514000467837
 30
0.0
 10
2516.439025611127
 20
1770.078747197875
 30
0.0
 10
2529.028433784882
 20
1762.771515489238
 30
0.0
 10
2541.839625970075
 20
1755.594583772378
 30
0.0
 10
2554.868566543283
 20
1748.550184141882
 30
0.0
 10
2568.111179114994
 20
1741.640528173544
 30
0.0
 10
2581.563221796169
 20
1734.867704113905
 30
0.0
 10
2595.220760997427
 20
1728.234058891702
 30
0.0
 10
2609.07840847071
 20
1721.740769495716
 30
0.0
 10
2623.135906861088
 20
1715.393172005941
 30
0.0
 10
2636.574196600949
 20
1709.529655740156
 30
0.0
 10
2645.396747697097
 20
1705.839433747938
 30
0.0
 10
2649.402335275148
 20
1704.164010481902
 30
0.0
  0
LINE
  5
326
330
1F
100
AcDbEntity
  8
0
  6
Continuous
 62
     7
370
    15
100
AcDbLine
 10
2684.1905074041
 20
1708.6538528114
 30
0.0
 11
2757.7923770438
 21
1782.2477475353
 31
0.0
  0
SPLINE
  5
327
330
1F
100
AcDbEntity
  8
0
  6
Continuous
 62
     7
370
    15
100
AcDbSpline
210
0.0
220
0.0
230
1.0
 70
     8
 71
     3
 72
    11
 73
     7
 74
     0
 42
0.00000001
 43
0.00000001
 12
1.0
 22
0.0
 32
0.0
 13
1.0
 23
0.0
 33
0.0
 40
0.0
 40
0.0
 40
0.0
 40
0.0
 40
0.2205098238914614
 40
0.5395057803405106
 40
0.8465894227039551
 40
1.0
 40
1.0
 40
1.0
 40
1.0
 10
2757.792377043786
 20
1782.247747535258
 30
0.0
 10
2757.971015700929
 20
1782.441767621307
 30
0.0
 10
2758.408078260867
 20
1782.916462834781
 30
0.0
 10
2758.897789193968
 20
1783.790209322403
 30
0.0
 10
2759.153091429804
 20
1784.676361946376
 30
0.0
 10
2759.174841718007
 20
1785.214592825608
 30
0.0
 10
2759.182087681425
 20
1785.393900852456
 30
0.0
  0
LINE
  5
328
330
1F
100
AcDbEntity
  8
0
  6
Continuous
 62
     7
370
    15
100
AcDbLine
 10
2660.7430376778
 20
1944.257863639
 30
0.0
 11
2427.4054800189
 21
1866.4871052895
 31
0.0
  0
SPLINE
  5
329
330
1F
100
AcDbEntity
  8
0
  6
Continuous
 62
     7
370
    15
100
AcDbSpline
210
0.0
220
0.0
230
1.0
 70
     8
 71
     3
 72
    18
 73
    14
 74
     0
 42
0.00000001
 43
0.00000001
 12
1.0
 22
0.0
 32
0.0
 13
1.0
 23
0.0
 33
0.0
 40
0.0
 40
0.0
 40
0.0
 40
0.0
 40
0.0622523652265105
 40
0.1761453202710387
 40
0.2914484687150315
 40
0.4070041416250127
 40
0.5082306900990499
 40
0.6059612506381363
 40
0.7004807090564765
 40
0.7924741322352055
 40
0.891885080939294
 40
0.9884239319080547
 40
1.0
 40
1.0
 40
1.0
 40
1.0
 10
2427.405480018863
 20
1866.487105289511
 30
0.0
 10
2426.936461578215
 20
1866.322835830542
 30
0.0
 10
2425.609356927006
 20
1865.85802945161
 30
0.0
 10
2423.533783339106
 20
1864.917196101776
 30
0.0
 10
2421.259267024634
 20
1863.594520245375
 30
0.0
 10
2419.279418410025
 20
1862.098989988237
 30
0.0
 10
2417.619824154078
 20
1860.48578507444
 30
0.0
 10
2416.282780196545
 20
1858.811034483721
 30
0.0
 10
2415.219077558626
 20
1857.038012168286
 30
0.0
 10
2414.395979079684
 20
1855.124292329946
 30
0.0
 10
2413.893920953517
 20
1853.093554148269
 30
0.0
 10
2413.680297787742
 20
1851.583254973682
 30
0.0
 10
2413.733225586177
 20
1850.799001756774
 30
0.0
 10
2413.738892665281
 20
1850.715030287164
 30
0.0
  0
LINE
  5
32A
330
1F
100
AcDbEntity
  8
0
  6
Continuous
 62
     7
370
    15
100
AcDbLine
 10
2413.721816057
 20
1850.73820013
 30
0.0
 11
2413.721816057
 21
1846.4921879082
 31
0.0
  0
SPLINE
  5
32B
330
1F
100
AcDbEntity
  8
0
  6
Continuous
 62
     7
370
    15
100
AcDbSpline
210
0.0
220
0.0
230
1.0
 70
     8
 71
     3
 72
    14
 73
    10
 74
     0
 42
0.00000001
 43
0.00000001
 12
1.0
 22
0.0
 32
0.0
 13
1.0
 23
0.0
 33
0.0
 40
0.0
 40
0.0
 40
0.0
 40
0.0
 40
0.0740474786980862
 40
0.2429635655313873
 40
0.4120196326763224
 40
0.5830620153285125
 40
0.7572546720872373
 40
0.9347200742209026
 40
0.9999999999999999
 40
0.9999999999999999
 40
0.9999999999999999
 40
0.9999999999999999
 10
2413.761871156343
 20
1846.602009869373
 30
0.0
 10
2413.749762969258
 20
1846.349032819563
 30
0.0
 10
2413.710033752842
 20
1845.518968013844
 30
0.0
 10
2413.979248756095
 20
1844.118207370069
 30
0.0
 10
2414.548362754117
 20
1842.440014467312
 30
0.0
 10
2415.432819091875
 20
1840.82371158083
 30
0.0
 10
2416.605836730073
 20
1839.283511709617
 30
0.0
 10
2417.742370430271
 20
1838.142284696685
 30
0.0
 10
2418.490493689175
 20
1837.52418803513
 30
0.0
 10
2418.691681622367
 20
1837.357967310977
 30
0.0
  0
SPLINE
  5
32C
330
1F
100
AcDbEntity
  8
0
  6
Continuous
 62
     7
370
    15
100
AcDbSpline
210
0.0
220
0.0
230
1.0
 70
     8
 71
     3
 72
    13
 73
     9
 74
     0
 42
0.00000001
 43
0.00000001
 12
1.0
 22
0.0
 32
0.0
 13
1.0
 23
0.0
 33
0.0
 40
0.0
 40
0.0
 40
0.0
 40
0.0
 40
0.1980121051169999
 40
0.3789644115158974
 40
0.5522428428481262
 40
0.7193613619496112
 40
0.8819004977231215
 40
1.0
 40
1.0
 40
1.0
 40
1.0
 10
2759.182087681425
 20
1886.030226575027
 30
0.0
 10
2759.149315768806
 20
1886.576639938626
 30
0.0
 10
2759.086595418589
 20
1887.622390240903
 30
0.0
 10
2758.61186534833
 20
1889.082358242851
 30
0.0
 10
2757.937626695328
 20
1890.357390219784
 30
0.0
 10
2757.072759695377
 20
1891.447757756005
 30
0.0
 10
2756.154931052266
 20
1892.283376377585
 30
0.0
 10
2755.499157436562
 20
1892.694174684851
 30
0.0
 10
2755.223192094943
 20
1892.867048512779
 30
0.0
  0
LINE
  5
32D
330
1F
100
AcDbEntity
  8
0
  6
Continuous
 62
     7
370
    15
100
AcDbLine
 10
2755.2231920949
 20
1892.8670485128
 30
0.0
 11
2667.3504781295
 21
1943.5948865126
 31
0.0
  0
SPLINE
  5
32E
330
1F
100
AcDbEntity
  8
0
  6
Continuous
 62
     7
370
    15
100
AcDbSpline
210
0.0
220
0.0
230
1.0
 70
     8
 71
     3
 72
    12
 73
     8
 74
     0
 42
0.00000001
 43
0.00000001
 12
1.0
 22
0.0
 32
0.0
 13
1.0
 23
0.0
 33
0.0
 40
0.0
 40
0.0
 40
0.0
 40
0.0
 40
0.2316033665596962
 40
0.4278539465888684
 40
0.6412328988781753
 40
0.8797594441136678
 40
1.0
 40
1.0
 40
1.0
 40
1.0
 10
2667.350478129498
 20
1943.594886512638
 30
0.0
 10
2666.877901153645
 20
1943.832967879843
 30
0.0
 10
2666.004883083186
 20
1944.272789001968
 30
0.0
 10
2664.573342542137
 20
1944.613143563024
 30
0.0
 10
2663.096061820333
 20
1944.718458969809
 30
0.0
 10
2661.788739547162
 20
1944.570897992191
 30
0.0
 10
2661.005529878546
 20
1944.336441557545
 30
0.0
 10
2660.743037677796
 20
1944.257863639044
 30
0.0
  0
SPLINE
  5
32F
330
1F
100
AcDbEntity
  8
0
  6
Continuous
 62
     7
370
    15
100
AcDbSpline
210
0.0
220
0.0
230
1.0
 70
     8
 71
     3
 72
    21
 73
    17
 74
     0
 42
0.00000001
 43
0.00000001
 12
1.0
 22
0.0
 32
0.0
 13
1.0
 23
0.0
 33
0.0
 40
0.0
 40
0.0
 40
0.0
 40
0.0
 40
0.0430440340563329
 40
0.1201559396471106
 40
0.1968362050139779
 40
0.2731964396383746
 40
0.3493424321902813
 40
0.4254614587585006
 40
0.5017575941332975
 40
0.578414643480432
 40
0.655674195677386
 40
0.7337482600208108
 40
0.8127500886614429
 40
0.8925568303874989
 40
0.9723473785267153
 40
1.0
 40
1.0
 40
1.0
 40
1.0
 10
2650.504151001763
 20
1236.642315802833
 30
0.0
 10
2650.959906205612
 20
1236.461858087573
 30
0.0
 10
2652.232131171696
 20
1235.958116586131
 30
0.0
 10
2654.431927518595
 20
1235.295961731022
 30
0.0
 10
2657.10719155175
 20
1234.718327773531
 30
0.0
 10
2659.852433424713
 20
1234.354164698041
 30
0.0
 10
2662.634553473276
 20
1234.199521978292
 30
0.0
 10
2665.424532965817
 20
1234.255240259437
 30
0.0
 10
2668.193138894982
 20
1234.521404702718
 30
0.0
 10
2670.912278976165
 20
1234.99921763699
 30
0.0
 10
2673.554504018939
 20
1235.691080917044
 30
0.0
 10
2676.091803836567
 20
1236.601628882557
 30
0.0
 10
2678.493965907434
 20
1237.735975732853
 30
0.0
 10
2680.716276824381
 20
1239.099830375874
 30
0.0
 10
2682.293160251344
 20
1240.339524022526
 30
0.0
 10
2683.106830230071
 20
1241.128933527817
 30
0.0
 10
2683.316244267343
 20
1241.332103653158
 30
0.0
  0
SPLINE
  5
330
330
1F
100
AcDbEntity
  8
0
  6
Continuous
 62
     7
370
    15
100
AcDbSpline
210
0.0
220
0.0
230
1.0
 70
     8
 71
     3
 72
    26
 73
    22
 74
     0
 42
0.00000001
 43
0.00000001
 12
1.0
 22
0.0
 32
0.0
 13
1.0
 23
0.0
 33
0.0
 40
0.0
 40
0.0
 40
0.0
 40
0.0
 40
0.0287659331260467
 40
0.0833531991578453
 40
0.1379419019888624
 40
0.1925325788487715
 40
0.2471247224516904
 40
0.3017178731608605
 40
0.3563116166303
 40
0.4109055564996289
 40
0.4654992841562222
 40
0.5200925178891641
 40
0.5746850101053832
 40
0.629276544782198
 40
0.6838669350001753
 40
0.7384560205757426
 40
0.7930436658070288
 40
0.8476297573420363
 40
0.902214202174479
 40
0.956796925769384
 40
1.0
 40
1.0
 40
1.0
 40
1.0
 10
2419.713022379443
 20
1369.903441270227
 30
0.0
 10
2421.556934639878
 20
1368.429679229924
 30
0.0
 10
2426.899920914656
 20
1364.159253503828
 30
0.0
 10
2435.936839919243
 20
1357.176392568392
 30
0.0
 10
2446.903433302661
 20
1348.9938220197
 30
0.0
 10
2458.121272886253
 20
1340.928014459198
 30
0.0
 10
2469.582403028017
 20
1332.979555508727
 30
0.0
 10
2481.284336486088
 20
1325.151408307863
 30
0.0
 10
2493.223009856162
 20
1317.445860001425
 30
0.0
 10
2505.394687915252
 20
1309.865327872557
 30
0.0
 10
2517.795460162878
 20
1302.412139619619
 30
0.0
 10
2530.421380341964
 20
1295.088589465131
 30
0.0
 10
2543.268437722029
 20
1287.896922461123
 30
0.0
 10
2556.33255250412
 20
1280.839335426189
 30
0.0
 10
2569.609607298677
 20
1273.918002631917
 30
0.0
 10
2583.09532575408
 20
1267.13497519195
 30
0.0
 10
2596.785733155281
 20
1260.492556506078
 30
0.0
 10
2610.675442072722
 20
1253.991899660006
 30
0.0
 10
2624.764055552016
 20
1247.638240508463
 30
0.0
 10
2638.040863675619
 20
1241.853340054366
 30
0.0
 10
2646.685038757965
 20
1238.239124574144
 30
0.0
 10
2650.504151001763
 20
1236.642315802833
 30
0.0
  0
LINE
  5
331
330
1F
100
AcDbEntity
  8
0
  6
Continuous
 62
     7
370
    15
100
AcDbLine
 10
2683.3162442673
 20
1241.3321036532
 30
0.0
 11
2756.918113907
 21
1314.925998377
 31
0.0
  0
SPLINE
  5
332
330
1F
100
AcDbEntity
  8
0
  6
Continuous
 62
     7
370
    15
100
AcDbSpline
210
0.0
220
0.0
230
1.0
 70
     8
 71
     3
 72
    12
 73
     8
 74
     0
 42
0.00000001
 43
0.00000001
 12
1.0
 22
0.0
 32
0.0
 13
1.0
 23
0.0
 33
0.0
 40
0.0
 40
0.0
 40
0.0
 40
0.0
 40
0.2186522133950195
 40
0.4599628627041418
 40
0.7025692995059956
 40
0.9459838955098191
 40
1.0
 40
1.0
 40
1.0
 40
1.0
 10
2756.91811390702
 20
1314.925998376971
 30
0.0
 10
2757.214600288394
 20
1315.253280788573
 30
0.0
 10
2757.838297266404
 20
1315.941761150217
 30
0.0
 10
2758.537408713255
 20
1317.187598848296
 30
0.0
 10
2759.017221780017
 20
1318.57940493759
 30
0.0
 10
2759.172540371308
 20
1319.665639325086
 30
0.0
 10
2759.180620294345
 20
1320.265050072158
 30
0.0
 10
2759.182087681425
 20
1320.373908483521
 30
0.0
  0
SPLINE
  5
333
330
1F
100
AcDbEntity
  8
0
  6
Continuous
 62
     7
370
    15
100
AcDbSpline
210
0.0
220
0.0
230
1.0
 70
     8
 71
     3
 72
    14
 73
    10
 74
     0
 42
0.00000001
 43
0.00000001
 12
1.0
 22
0.0
 32
0.0
 13
1.0
 23
0.0
 33
0.0
 40
0.0
 40
0.0
 40
0.0
 40
0.0
 40
0.1517407478433641
 40
0.310954566107124
 40
0.4688475004846058
 40
0.6238933251769356
 40
0.7748535436944576
 40
0.9215211426000556
 40
1.0
 40
1.0
 40
1.0
 40
1.0
 10
2420.721816057046
 20
1396.031888799259
 30
0.0
 10
2420.10215791454
 20
1395.615085368279
 30
0.0
 10
2418.832324125159
 20
1394.760951380709
 30
0.0
 10
2417.222141188085
 20
1393.27631707368
 30
0.0
 10
2415.855798935681
 20
1391.646432018513
 30
0.0
 10
2414.806368186825
 20
1389.907995724076
 30
0.0
 10
2414.108678905279
 20
1388.102766205831
 30
0.0
 10
2413.753369021952
 20
1386.540781063207
 30
0.0
 10
2413.760031105252
 20
1385.593179876444
 30
0.0
 10
2413.762353294523
 20
1385.262876394754
 30
0.0
  0
LINE
  5
334
330
1F
100
AcDbEntity
  8
0
  6
Continuous
 62
     7
370
    15
100
AcDbLine
 10
2413.721816057
 20
1385.1466291928
 30
0.0
 11
2413.721816057
 21
1381.4721955393
 31
0.0
  0
SPLINE
  5
335
330
1F
100
AcDbEntity
  8
0
  6
Continuous
 62
     7
370
    15
100
AcDbSpline
210
0.0
220
0.0
230
1.0
 70
     8
 71
     3
 72
    14
 73
    10
 74
     0
 42
0.00000001
 43
0.00000001
 12
1.0
 22
0.0
 32
0.0
 13
1.0
 23
0.0
 33
0.0
 40
0.0
 40
0.0
 40
0.0
 40
0.0
 40
0.135884800528572
 40
0.2867734381587589
 40
0.4376116882359456
 40
0.5903320586908692
 40
0.74674323657238
 40
0.9083209526036097
 40
1.0
 40
1.0
 40
1.0
 40
1.0
 10
2413.73725903818
 20
1381.450010145767
 30
0.0
 10
2413.756405745155
 20
1380.842204925535
 30
0.0
 10
2413.796813259218
 20
1379.559483149012
 30
0.0
 10
2414.239437266335
 20
1377.644652938905
 30
0.0
 10
2414.957946097375
 20
1375.744416900338
 30
0.0
 10
2415.956953400797
 20
1373.943507638041
 30
0.0
 10
2417.221883161752
 20
1372.252126425982
 30
0.0
 10
2418.503879348295
 20
1370.91428210817
 30
0.0
 10
2419.39164930717
 20
1370.172108431432
 30
0.0
 10
2419.713022379443
 20
1369.903441270227
 30
0.0
  0
ARC
  5
336
330
1F
100
AcDbEntity
  8
0
  6
Continuous
 62
     7
370
    15
100
AcDbCircle
 10
2756.956544792
 20
1780.8038028492
 30
0.0
 40
1.957181010527929
100
AcDbArc
 50
3.7683231374
 51
58.3424507075
  0
LINE
  5
337
330
1F
100
AcDbEntity
  8
0
  6
Continuous
 62
     7
370
    15
100
AcDbLine
 10
2758.9094942917
 20
1326.9357417613
 30
0.0
 11
2758.9094942917
 21
1780.9324331698
 31
0.0
  0
LWPOLYLINE
  5
338
330
1F
100
AcDbEntity
  8
0
  6
Continuous
 62
     7
370
    15
100
AcDbPolyline
 90
        3
 70
   128
 43
0.0
 10
2758.7916568554
 20
1326.3923372654
 10
2758.8723743039
 20
1326.6228852013
 10
2758.9094942917
 20
1326.9357417613
  0
ARC
  5
339
330
1F
100
AcDbEntity
  8
0
  6
Continuous
 62
     7
370
    15
100
AcDbCircle
 10
2756.3540030659
 20
1782.1439571108
 30
0.0
 40
2.828131125849429
100
AcDbArc
 50
334.6350005861
 51
359.6714033809
  0
LINE
  5
33A
330
1F
100
AcDbEntity
  8
0
  6
Continuous
 62
     7
370
    15
100
AcDbLine
 10
2759.1820876814
 20
1785.3939008525
 30
0.0
 11
2759.1820876814
 21
1782.1277376049
 31
0.0
  0
LINE
  5
33B
330
1F
100
AcDbEntity
  8
0
  6
Continuous
 62
     7
370
    15
100
AcDbLine
 10
2759.1820876814
 20
1782.1277376049
 30
0.0
 11
2759.1820876814
 21
1328.1310461964
 31
0.0
  0
ARC
  5
33C
330
1F
100
AcDbEntity
  8
0
  6
Continuous
 62
     7
370
    15
100
AcDbCircle
 10
2756.3540030659
 20
1328.1472657023
 30
0.0
 40
2.82813112585076
100
AcDbArc
 50
334.6350005861
 51
359.6714033809
  0
LINE
  5
33D
330
1F
100
AcDbEntity
  8
0
  6
Continuous
 62
     7
370
    15
100
AcDbLine
 10
2683.2542226207
 20
1262.0828759849
 30
0.0
 11
2684.1370061847
 21
1261.573255881
 31
0.0
  0
LINE
  5
33E
330
1F
100
AcDbEntity
  8
0
  6
Continuous
 62
     7
370
    15
100
AcDbLine
 10
2683.2542226207
 20
1258.0001719255
 30
0.0
 11
2683.2542226207
 21
1262.0828759849
 31
0.0
  0
ARC
  5
33F
330
1F
100
AcDbEntity
  8
0
  6
Continuous
 62
     7
370
    15
100
AcDbCircle
 10
2689.3253990764
 20
1262.4530568701
 30
0.0
 40
3.824856232128373
100
AcDbArc
 50
299.4866724923
 51
314.424249303
  0
ELLIPSE
  5
340
330
1F
100
AcDbEntity
  8
0
  6
Continuous
 62
     7
370
    15
100
AcDbEllipse
 10
2687.6725400907
 20
1263.6142761606
 30
0.0
 11
4.160421498338109
 21
-4.002983760840608
 31
0.0
210
0.0
220
0.0
230
1.0
 40
0.6927946976
 41
4.514932113735735
 42
6.085728440530692
  0
ARC
  5
341
330
1F
100
AcDbEntity
  8
0
  6
Continuous
 62
     7
370
    15
100
AcDbCircle
 10
2689.3253990764
 20
1716.4497482786
 30
0.0
 40
3.824856232109318
100
AcDbArc
 50
299.4866724922
 51
314.424249303
  0
LINE
  5
342
330
1F
100
AcDbEntity
  8
0
  6
Continuous
 62
     7
370
    15
100
AcDbLine
 10
2692.0026671096
 20
1713.7181258532
 30
0.0
 11
2692.0026671096
 21
1259.7214344447
 31
0.0
  0
LINE
  5
343
330
1F
100
AcDbEntity
  8
0
  6
Continuous
 62
     7
370
    15
100
AcDbLine
 10
2758.1102909117
 20
1779.8185867566
 30
0.0
 11
2692.0026671096
 21
1713.7181258532
 31
0.0
  0
LINE
  5
344
330
1F
100
AcDbEntity
  8
0
  6
Continuous
 62
     7
370
    15
100
AcDbLine
 10
2758.1102909117
 20
1779.8185867566
 30
0.0
 11
2758.1102909117
 21
1325.8218953481
 31
0.0
  0
LINE
  5
345
330
1F
100
AcDbEntity
  8
0
  6
Continuous
 62
     7
370
    15
100
AcDbLine
 10
2692.0026671096
 20
1259.7214344447
 30
0.0
 11
2758.1102909117
 21
1325.8218953481
 31
0.0
  0
LWPOLYLINE
  5
346
330
1F
100
AcDbEntity
  8
0
  6
Continuous
 62
     7
370
    15
100
AcDbPolyline
 90
       26
 70
   128
 43
0.0
 10
2734.5373954238
 20
1333.2801048842
 10
2734.6316459404
 20
1334.5927378428
 10
2734.9084753837
 20
1336.0113738538
 10
2735.3504895415
 20
1337.4468747994
 10
2735.9299150389
 20
1338.8090428756
 10
2736.6103444407
 20
1340.0122880525
 10
2737.3490238652
 20
1340.9810060105
 10
2738.0995393676
 20
1341.6543286375
 10
2738.8147332985
 20
1341.9899485966
 10
2739.4496673931
 20
1341.9667776515
 10
2739.9644464069
 20
1341.5862717178
 10
2740.3267248815
 20
1340.8723393827
 10
2740.5137395278
 20
1339.8698396405
 10
2740.5137395278
 20
1338.641763237
 10
2740.3267248815
 20
1337.2652747292
 10
2739.9644464069
 20
1335.8268639523
 10
2739.4496673931
 20
1334.4169115456
 10
2738.8147332985
 20
1333.1240100042
 10
2738.0995393676
 20
1332.0293970869
 10
2737.3490238652
 20
1331.2018513491
 10
2736.6103444407
 20
1330.6933705329
 10
2735.9299150389
 20
1330.5359043581
 10
2735.3504895415
 20
1330.7393470036
 10
2734.9084753837
 20
1331.2909154197
 10
2734.6316459404
 20
1332.1559525343
 10
2734.5373954238
 20
1333.2801048842
  0
LWPOLYLINE
  5
347
330
1F
100
AcDbEntity
  8
0
  6
Continuous
 62
     7
370
    15
100
AcDbPolyline
 90
       26
 70
   128
 43
0.0
 10
2734.5373954238
 20
1737.4678067676
 10
2734.6316459404
 20
1738.7804397262
 10
2734.9084753837
 20
1740.1990757373
 10
2735.3504895415
 20
1741.6345766828
 10
2735.9299150389
 20
1742.996744759
 10
2736.6103444407
 20
1744.1999899359
 10
2737.3490238652
 20
1745.1687078939
 10
2738.0995393676
 20
1745.842030521
 10
2738.8147332985
 20
1746.1776504801
 10
2739.4496673931
 20
1746.1544795349
 10
2739.9644464069
 20
1745.7739736012
 10
2740.3267248815
 20
1745.0600412661
 10
2740.5137395278
 20
1744.057541524
 10
2740.5137395278
 20
1742.8294651205
 10
2740.3267248815
 20
1741.4529766126
 10
2739.9644464069
 20
1740.0145658357
 10
2739.4496673931
 20
1738.604613429
 10
2738.8147332985
 20
1737.3117118876
 10
2738.0995393676
 20
1736.2170989704
 10
2737.3490238652
 20
1735.3895532326
 10
2736.6103444407
 20
1734.8810724164
 10
2735.9299150389
 20
1734.7236062416
 10
2735.3504895415
 20
1734.927048887
 10
2734.9084753837
 20
1735.4786173031
 10
2734.6316459404
 20
1736.3436544178
 10
2734.5373954238
 20
1737.4678067676
  0
ARC
  5
348
330
1F
100
AcDbEntity
  8
0
  6
Continuous
 62
     7
370
    15
100
AcDbCircle
 10
2755.3647397765
 20
1782.6322095753
 30
0.0
 40
3.931224287965605
100
AcDbArc
 50
314.29845238
 51
334.3814066623
  0
ARC
  5
349
330
1F
100
AcDbEntity
  8
0
  6
Continuous
 62
     7
370
    15
100
AcDbCircle
 10
2756.9566873798
 20
1780.8038492574
 30
0.0
 40
1.957035681287198
100
AcDbArc
 50
3.7672417482
 51
58.3214627964
  0
ARC
  5
34A
330
1F
100
AcDbEntity
  8
0
  6
Continuous
 62
     7
370
    15
100
AcDbCircle
 10
2755.3647397765
 20
1328.6355181668
 30
0.0
 40
3.931224287968873
100
AcDbArc
 50
314.29845238
 51
334.3814066623
  0
ELLIPSE
  5
34B
330
1F
100
AcDbEntity
  8
0
  6
Continuous
 62
     7
370
    15
100
AcDbEllipse
 10
2685.8424130717
 20
1264.6707860001
 30
0.0
 11
1.684274944336266
 21
4.78404370834005
 31
0.0
210
0.0
220
0.0
230
1.0
 40
0.4107788327
 41
2.279373200946315
 42
3.064852628406062
  0
LWPOLYLINE
  5
34C
330
1F
100
AcDbEntity
  8
0
  6
Continuous
 62
     7
370
    15
100
AcDbPolyline
 90
        3
 70
   128
 43
0.0
 10
2758.9094942917
 20
1326.9357417613
 10
2758.8723743039
 20
1326.6228852013
 10
2758.7912375885
 20
1326.3914353477
  0
LINE
  5
34D
330
1F
100
AcDbEntity
  8
0
  6
Continuous
 62
     7
370
    15
100
AcDbLine
 10
2761.5820876813
 20
1430.6467482546
 30
0.0
 11
2761.5820876813
 21
1421.3838158726
 31
0.0
  0
LINE
  5
34E
330
1F
100
AcDbEntity
  8
0
  6
Continuous
 62
     7
370
    15
100
AcDbLine
 10
2761.5820876813
 20
1437.2290275139
 30
0.0
 11
2761.5820876813
 21
1430.6467482546
 31
0.0
  0
LINE
  5
34F
330
1F
100
AcDbEntity
  8
0
  6
Continuous
 62
     7
370
    15
100
AcDbLine
 10
2761.5820876814
 20
1357.3479432372
 30
0.0
 11
2761.5820876814
 21
1348.0850108552
 31
0.0
  0
LINE
  5
350
330
1F
100
AcDbEntity
  8
0
  6
Continuous
 62
     7
370
    15
100
AcDbLine
 10
2761.5820876814
 20
1363.9302224965
 30
0.0
 11
2761.5820876814
 21
1357.3479432372
 31
0.0
  0
LINE
  5
351
330
1F
100
AcDbEntity
  8
0
  6
Continuous
 62
     7
370
    15
100
AcDbLine
 10
2761.5820876814
 20
1778.6830021703
 30
0.0
 11
2761.5820876814
 21
1769.4200697883
 31
0.0
  0
LINE
  5
352
330
1F
100
AcDbEntity
  8
0
  6
Continuous
 62
     7
370
    15
100
AcDbLine
 10
2761.5820876814
 20
1785.2652814296
 30
0.0
 11
2761.5820876814
 21
1778.6830021703
 31
0.0
  0
LINE
  5
353
330
1F
100
AcDbEntity
  8
0
  6
Continuous
 62
     7
370
    15
100
AcDbLine
 10
2761.5820876814
 20
1851.9818071876
 30
0.0
 11
2761.5820876814
 21
1842.7188748056
 31
0.0
  0
LINE
  5
354
330
1F
100
AcDbEntity
  8
0
  6
Continuous
 62
     7
370
    15
100
AcDbLine
 10
2761.5820876814
 20
1858.5640864469
 30
0.0
 11
2761.5820876814
 21
1851.9818071876
 31
0.0
  0
LWPOLYLINE
  5
355
330
1F
100
AcDbEntity
  8
0
  6
Continuous
 62
     7
370
    15
100
AcDbPolyline
 90
       26
 70
   128
 43
0.0
 10
2736.5275905633
 20
1744.0711462204
 10
2735.8567810717
 20
1742.8453592847
 10
2735.2915707608
 20
1741.4701615558
 10
2734.867473873
 20
1740.0319617647
 10
2734.6111379755
 20
1738.6211272935
 10
2734.5386695955
 20
1737.3263060609
 10
2734.6546221879
 20
1736.2288564468
 10
2734.9517100248
 20
1735.3977352467
 10
2735.4112659847
 20
1734.8851648621
 10
2736.0044144767
 20
1734.7233519755
 10
2736.6938857995
 20
1734.9224638857
 10
2737.4363579342
 20
1735.469989659
 10
2738.185178626
 20
1736.3315262374
 10
2738.8932967168
 20
1737.4529401093
 10
2739.5162185427
 20
1738.7637687167
 10
2740.0148036344
 20
1740.1816478774
 10
2740.357724057
 20
1741.6174870291
 10
2740.5234328592
 20
1742.9810671173
 10
2740.5015179473
 20
1744.18670939
 10
2740.2933563161
 20
1745.1586589094
 10
2739.9120275263
 20
1745.8358445125
 10
2739.3814918682
 20
1746.1757161373
 10
2738.7350848483
 20
1746.1569183998
 10
2738.0134225972
 20
1745.7806324308
 10
2737.261849808
 20
1745.0705016617
 10
2736.5275905633
 20
1744.0711462204
  0
LINE
  5
356
330
1F
100
AcDbEntity
  8
0
  6
Continuous
 62
     7
370
    15
100
AcDbLine
 10
2737.0493230745
 20
1742.2092528907
 30
0.0
 11
2736.1108982408
 21
1739.4657584877
 31
0.0
  0
LINE
  5
357
330
1F
100
AcDbEntity
  8
0
  6
Continuous
 62
     7
370
    15
100
AcDbLine
 10
2736.1108982408
 20
1739.4657584877
 30
0.0
 11
2736.59897059
 21
1737.7239873083
 31
0.0
  0
LINE
  5
358
330
1F
100
AcDbEntity
  8
0
  6
Continuous
 62
     7
370
    15
100
AcDbLine
 10
2738.0254677731
 20
1738.725710532
 30
0.0
 11
2736.59897059
 21
1737.7239873083
 31
0.0
  0
LINE
  5
359
330
1F
100
AcDbEntity
  8
0
  6
Continuous
 62
     7
370
    15
100
AcDbLine
 10
2738.9638926069
 20
1741.4692049351
 30
0.0
 11
2738.0254677731
 21
1738.725710532
 31
0.0
  0
LINE
  5
35A
330
1F
100
AcDbEntity
  8
0
  6
Continuous
 62
     7
370
    15
100
AcDbLine
 10
2738.4758202576
 20
1743.2109761145
 30
0.0
 11
2738.9638926069
 21
1741.4692049351
 31
0.0
  0
LINE
  5
35B
330
1F
100
AcDbEntity
  8
0
  6
Continuous
 62
     7
370
    15
100
AcDbLine
 10
2738.4758202576
 20
1743.2109761145
 30
0.0
 11
2737.0493230745
 21
1742.2092528907
 31
0.0
  0
LINE
  5
35C
330
1F
100
AcDbEntity
  8
0
  6
Continuous
 62
     7
370
    15
100
AcDbLine
 10
2736.1924364794
 20
1739.663364695
 30
0.0
 11
2736.1625674393
 21
1739.6168139071
 31
0.0
  0
ARC
  5
35D
330
1F
100
AcDbEntity
  8
0
  6
Continuous
 62
     7
370
    15
100
AcDbCircle
 10
2731.7103629816
 20
1742.410290312
 30
0.0
 40
5.256860582657985
100
AcDbArc
 50
328.4971428735
 51
354.378119238
  0
LINE
  5
35E
330
1F
100
AcDbEntity
  8
0
  6
Continuous
 62
     7
370
    15
100
AcDbLine
 10
2737.1637227584
 20
1742.2895873081
 30
0.0
 11
2737.2318417993
 21
1742.0464926472
 31
0.0
  0
LINE
  5
35F
330
1F
100
AcDbEntity
  8
0
  6
Continuous
 62
     7
370
    15
100
AcDbLine
 10
2737.2318417993
 20
1742.0464926472
 30
0.0
 11
2736.2934169655
 21
1739.3029982441
 31
0.0
  0
LINE
  5
360
330
1F
100
AcDbEntity
  8
0
  6
Continuous
 62
     7
370
    15
100
AcDbLine
 10
2736.2934169655
 20
1739.3029982441
 30
0.0
 11
2736.1790172817
 21
1739.2226638267
 31
0.0
  0
LINE
  5
361
330
1F
100
AcDbEntity
  8
0
  6
Continuous
 62
     7
370
    15
100
AcDbLine
 10
2736.2934169655
 20
1739.3029982441
 30
0.0
 11
2738.0254677731
 21
1738.725710532
 31
0.0
  0
LINE
  5
362
330
1F
100
AcDbEntity
  8
0
  6
Continuous
 62
     7
370
    15
100
AcDbLine
 10
2737.2318417993
 20
1742.0464926472
 30
0.0
 11
2738.9638926069
 21
1741.4692049351
 31
0.0
  0
LWPOLYLINE
  5
363
330
1F
100
AcDbEntity
  8
0
  6
Continuous
 62
     7
370
    15
100
AcDbPolyline
 90
       26
 70
   128
 43
0.0
 10
2708.4028271455
 20
1886.6313616198
 10
2709.0275535834
 20
1885.8415676198
 10
2709.9728886042
 20
1885.1662756866
 10
2711.1794333318
 20
1884.6479168958
 10
2712.5713761237
 20
1884.3190616366
 10
2714.0612560951
 20
1884.2003730945
 10
2715.5554586079
 20
1884.299308907
 10
2716.9600974229
 20
1884.6096525731
 10
2718.1869139176
 20
1885.111904059
 10
2719.1588226996
 20
1885.7745050567
 10
2719.8147551658
 20
1886.5558219086
 10
2720.1134966669
 20
1887.4067616033
 10
2720.0362761757
 20
1888.2738564704
 10
2719.5879457398
 20
1889.1026237504
 10
2718.7966756091
 20
1889.8409889471
 10
2717.7121841962
 20
1890.4425578597
 10
2716.4026140849
 20
1890.8695317009
 10
2714.9502503817
 20
1891.0950821341
 10
2713.4463504394
 20
1891.105036996
 10
2711.9854098223
 20
1890.898770786
 10
2710.6592248025
 20
1890.4892439687
 10
2709.5511244619
 20
1889.9021886201
 10
2708.7307348205
 20
1889.1744915869
 10
2708.2496039764
 20
1888.3518767499
 10
2708.1379631502
 20
1887.4860320247
 10
2708.4028271455
 20
1886.6313616198
  0
LINE
  5
364
330
1F
100
AcDbEntity
  8
0
  6
Continuous
 62
     7
370
    15
100
AcDbLine
 10
2711.3618920188
 20
1887.1648251562
 30
0.0
 11
2713.4946216689
 21
1886.0304196599
 31
0.0
  0
LINE
  5
365
330
1F
100
AcDbEntity
  8
0
  6
Continuous
 62
     7
370
    15
100
AcDbLine
 10
2713.4946216689
 20
1886.0304196599
 30
0.0
 11
2716.2627791311
 21
1886.529466194
 31
0.0
  0
LINE
  5
366
330
1F
100
AcDbEntity
  8
0
  6
Continuous
 62
     7
370
    15
100
AcDbLine
 10
2716.8982069432
 20
1888.1629182243
 30
0.0
 11
2716.2627791311
 21
1886.529466194
 31
0.0
  0
LINE
  5
367
330
1F
100
AcDbEntity
  8
0
  6
Continuous
 62
     7
370
    15
100
AcDbLine
 10
2714.7654772931
 20
1889.2973237205
 30
0.0
 11
2716.8982069432
 21
1888.1629182243
 31
0.0
  0
LINE
  5
368
330
1F
100
AcDbEntity
  8
0
  6
Continuous
 62
     7
370
    15
100
AcDbLine
 10
2711.9973198309
 20
1888.7982771865
 30
0.0
 11
2714.7654772931
 21
1889.2973237205
 31
0.0
  0
LINE
  5
369
330
1F
100
AcDbEntity
  8
0
  6
Continuous
 62
     7
370
    15
100
AcDbLine
 10
2711.9973198309
 20
1888.7982771865
 30
0.0
 11
2711.3618920188
 21
1887.1648251562
 31
0.0
  0
ARC
  5
36A
330
1F
100
AcDbEntity
  8
0
  6
Continuous
 62
     7
370
    15
100
AcDbCircle
 10
2714.10783243
 20
1884.3823963218
 30
0.0
 40
3.041167264924991
100
AcDbArc
 50
44.9058200804
 51
129.4254603421
  0
LINE
  5
36B
330
1F
100
AcDbEntity
  8
0
  6
Continuous
 62
     7
370
    15
100
AcDbLine
 10
2711.9973198309
 20
1887.1651955627
 30
0.0
 11
2714.7654772931
 21
1887.6642420968
 31
0.0
  0
LINE
  5
36C
330
1F
100
AcDbEntity
  8
0
  6
Continuous
 62
     7
370
    15
100
AcDbLine
 10
2714.7654772931
 20
1887.6642420968
 30
0.0
 11
2716.371837127
 21
1886.8098143335
 31
0.0
  0
LINE
  5
36D
330
1F
100
AcDbEntity
  8
0
  6
Continuous
 62
     7
370
    15
100
AcDbLine
 10
2711.9973198309
 20
1887.1651955627
 30
0.0
 11
2711.888261835
 21
1886.8848474232
 31
0.0
  0
LINE
  5
36E
330
1F
100
AcDbEntity
  8
0
  6
Continuous
 62
     7
370
    15
100
AcDbLine
 10
2711.9973198309
 20
1887.1651955627
 30
0.0
 11
2711.9973198309
 21
1888.7982771865
 31
0.0
  0
LINE
  5
36F
330
1F
100
AcDbEntity
  8
0
  6
Continuous
 62
     7
370
    15
100
AcDbLine
 10
2714.7654772931
 20
1887.6642420968
 30
0.0
 11
2714.7654772931
 21
1889.2973237205
 31
0.0
  0
LWPOLYLINE
  5
370
330
1F
100
AcDbEntity
  8
0
  6
Continuous
 62
     7
370
    15
100
AcDbPolyline
 90
       26
 70
   128
 43
0.0
 10
2650.7590445701
 20
1852.5548061033
 10
2651.383771008
 20
1851.7650121034
 10
2652.3291060288
 20
1851.0897201701
 10
2653.5356507564
 20
1850.5713613793
 10
2654.9275935483
 20
1850.2425061202
 10
2656.4174735197
 20
1850.123817578
 10
2657.9116760325
 20
1850.2227533905
 10
2659.3163148475
 20
1850.5330970567
 10
2660.5431313422
 20
1851.0353485426
 10
2661.5150401243
 20
1851.6979495403
 10
2662.1709725904
 20
1852.4792663921
 10
2662.4697140915
 20
1853.3302060869
 10
2662.3924936004
 20
1854.197300954
 10
2661.9441631644
 20
1855.026068234
 10
2661.1528930337
 20
1855.7644334307
 10
2660.0684016208
 20
1856.3660023432
 10
2658.7588315096
 20
1856.7929761845
 10
2657.3064678063
 20
1857.0185266177
 10
2655.802567864
 20
1857.0284814796
 10
2654.341627247
 20
1856.8222152696
 10
2653.0154422271
 20
1856.4126884523
 10
2651.9073418866
 20
1855.8256331037
 10
2651.0869522451
 20
1855.0979360705
 10
2650.6058214011
 20
1854.2753212335
 10
2650.4941805748
 20
1853.4094765083
 10
2650.7590445701
 20
1852.5548061033
  0
LINE
  5
371
330
1F
100
AcDbEntity
  8
0
  6
Continuous
 62
     7
370
    15
100
AcDbLine
 10
2653.7181094435
 20
1853.0882696397
 30
0.0
 11
2655.8508390935
 21
1851.9538641435
 31
0.0
  0
LINE
  5
372
330
1F
100
AcDbEntity
  8
0
  6
Continuous
 62
     7
370
    15
100
AcDbLine
 10
2655.8508390935
 20
1851.9538641435
 30
0.0
 11
2658.6189965557
 21
1852.4529106776
 31
0.0
  0
LINE
  5
373
330
1F
100
AcDbEntity
  8
0
  6
Continuous
 62
     7
370
    15
100
AcDbLine
 10
2659.2544243678
 20
1854.0863627079
 30
0.0
 11
2658.6189965557
 21
1852.4529106776
 31
0.0
  0
LINE
  5
374
330
1F
100
AcDbEntity
  8
0
  6
Continuous
 62
     7
370
    15
100
AcDbLine
 10
2657.1216947177
 20
1855.2207682041
 30
0.0
 11
2659.2544243678
 21
1854.0863627079
 31
0.0
  0
LINE
  5
375
330
1F
100
AcDbEntity
  8
0
  6
Continuous
 62
     7
370
    15
100
AcDbLine
 10
2654.3535372556
 20
1854.72172167
 30
0.0
 11
2657.1216947177
 21
1855.2207682041
 31
0.0
  0
LINE
  5
376
330
1F
100
AcDbEntity
  8
0
  6
Continuous
 62
     7
370
    15
100
AcDbLine
 10
2654.3535372556
 20
1854.72172167
 30
0.0
 11
2653.7181094435
 21
1853.0882696397
 31
0.0
  0
ARC
  5
377
330
1F
100
AcDbEntity
  8
0
  6
Continuous
 62
     7
370
    15
100
AcDbCircle
 10
2656.4640498547
 20
1850.3058408053
 30
0.0
 40
3.041167264925806
100
AcDbArc
 50
44.9058200805
 51
129.4254603421
  0
LINE
  5
378
330
1F
100
AcDbEntity
  8
0
  6
Continuous
 62
     7
370
    15
100
AcDbLine
 10
2654.3535372556
 20
1853.0886400463
 30
0.0
 11
2657.1216947177
 21
1853.5876865803
 31
0.0
  0
LINE
  5
379
330
1F
100
AcDbEntity
  8
0
  6
Continuous
 62
     7
370
    15
100
AcDbLine
 10
2657.1216947177
 20
1853.5876865803
 30
0.0
 11
2658.7280545517
 21
1852.7332588171
 31
0.0
  0
LINE
  5
37A
330
1F
100
AcDbEntity
  8
0
  6
Continuous
 62
     7
370
    15
100
AcDbLine
 10
2654.3535372556
 20
1853.0886400463
 30
0.0
 11
2654.2444792596
 21
1852.8082919067
 31
0.0
  0
LINE
  5
37B
330
1F
100
AcDbEntity
  8
0
  6
Continuous
 62
     7
370
    15
100
AcDbLine
 10
2654.3535372556
 20
1853.0886400463
 30
0.0
 11
2654.3535372556
 21
1854.72172167
 31
0.0
  0
LINE
  5
37C
330
1F
100
AcDbEntity
  8
0
  6
Continuous
 62
     7
370
    15
100
AcDbLine
 10
2657.1216947177
 20
1853.5876865803
 30
0.0
 11
2657.1216947177
 21
1855.2207682041
 31
0.0
  0
LWPOLYLINE
  5
37D
330
1F
100
AcDbEntity
  8
0
  6
Continuous
 62
     7
370
    15
100
AcDbPolyline
 90
       26
 70
   128
 43
0.0
 10
2697.1691569369
 20
1783.642358358
 10
2697.7938833748
 20
1782.8525643581
 10
2698.7392183956
 20
1782.1772724249
 10
2699.9457631232
 20
1781.6589136341
 10
2701.3377059151
 20
1781.3300583749
 10
2702.8275858865
 20
1781.2113698328
 10
2704.3217883993
 20
1781.3103056453
 10
2705.7264272144
 20
1781.6206493114
 10
2706.953243709
 20
1782.1229007973
 10
2707.9251524911
 20
1782.785501795
 10
2708.5810849572
 20
1783.5668186468
 10
2708.8798264583
 20
1784.4177583416
 10
2708.8026059672
 20
1785.2848532087
 10
2708.3542755312
 20
1786.1136204887
 10
2707.5630054005
 20
1786.8519856854
 10
2706.4785139876
 20
1787.453554598
 10
2705.1689438764
 20
1787.8805284392
 10
2703.7165801731
 20
1788.1060788724
 10
2702.2126802308
 20
1788.1160337343
 10
2700.7517396138
 20
1787.9097675243
 10
2699.4255545939
 20
1787.500240707
 10
2698.3174542534
 20
1786.9131853584
 10
2697.4970646119
 20
1786.1854883252
 10
2697.0159337679
 20
1785.3628734882
 10
2696.9042929416
 20
1784.497028763
 10
2697.1691569369
 20
1783.642358358
  0
LINE
  5
37E
330
1F
100
AcDbEntity
  8
0
  6
Continuous
 62
     7
370
    15
100
AcDbLine
 10
2700.1282218103
 20
1784.1758218945
 30
0.0
 11
2702.2609514603
 21
1783.0414163982
 31
0.0
  0
LINE
  5
37F
330
1F
100
AcDbEntity
  8
0
  6
Continuous
 62
     7
370
    15
100
AcDbLine
 10
2702.2609514603
 20
1783.0414163982
 30
0.0
 11
2705.0291089225
 21
1783.5404629323
 31
0.0
  0
LINE
  5
380
330
1F
100
AcDbEntity
  8
0
  6
Continuous
 62
     7
370
    15
100
AcDbLine
 10
2705.6645367346
 20
1785.1739149626
 30
0.0
 11
2705.0291089225
 21
1783.5404629323
 31
0.0
  0
LINE
  5
381
330
1F
100
AcDbEntity
  8
0
  6
Continuous
 62
     7
370
    15
100
AcDbLine
 10
2703.5318070845
 20
1786.3083204588
 30
0.0
 11
2705.6645367346
 21
1785.1739149626
 31
0.0
  0
LINE
  5
382
330
1F
100
AcDbEntity
  8
0
  6
Continuous
 62
     7
370
    15
100
AcDbLine
 10
2700.7636496224
 20
1785.8092739248
 30
0.0
 11
2703.5318070845
 21
1786.3083204588
 31
0.0
  0
LINE
  5
383
330
1F
100
AcDbEntity
  8
0
  6
Continuous
 62
     7
370
    15
100
AcDbLine
 10
2700.7636496224
 20
1785.8092739248
 30
0.0
 11
2700.1282218103
 21
1784.1758218945
 31
0.0
  0
ARC
  5
384
330
1F
100
AcDbEntity
  8
0
  6
Continuous
 62
     7
370
    15
100
AcDbCircle
 10
2702.8741622215
 20
1781.39339306
 30
0.0
 40
3.041167264925626
100
AcDbArc
 50
44.9058200804
 51
129.4254603421
  0
LINE
  5
385
330
1F
100
AcDbEntity
  8
0
  6
Continuous
 62
     7
370
    15
100
AcDbLine
 10
2700.7636496224
 20
1784.176192301
 30
0.0
 11
2703.5318070845
 21
1784.6752388351
 31
0.0
  0
LINE
  5
386
330
1F
100
AcDbEntity
  8
0
  6
Continuous
 62
     7
370
    15
100
AcDbLine
 10
2703.5318070845
 20
1784.6752388351
 30
0.0
 11
2705.1381669185
 21
1783.8208110718
 31
0.0
  0
LINE
  5
387
330
1F
100
AcDbEntity
  8
0
  6
Continuous
 62
     7
370
    15
100
AcDbLine
 10
2700.7636496224
 20
1784.176192301
 30
0.0
 11
2700.6545916264
 21
1783.8958441615
 31
0.0
  0
LINE
  5
388
330
1F
100
AcDbEntity
  8
0
  6
Continuous
 62
     7
370
    15
100
AcDbLine
 10
2700.7636496224
 20
1784.176192301
 30
0.0
 11
2700.7636496224
 21
1785.8092739248
 31
0.0
  0
LINE
  5
389
330
1F
100
AcDbEntity
  8
0
  6
Continuous
 62
     7
370
    15
100
AcDbLine
 10
2703.5318070845
 20
1784.6752388351
 30
0.0
 11
2703.5318070845
 21
1786.3083204588
 31
0.0
  0
LWPOLYLINE
  5
38A
330
1F
100
AcDbEntity
  8
0
  6
Continuous
 62
     7
370
    15
100
AcDbPolyline
 90
       26
 70
   128
 43
0.0
 10
2736.5275905633
 20
1339.883444337
 10
2735.8567810717
 20
1338.6576574012
 10
2735.2915707608
 20
1337.2824596723
 10
2734.867473873
 20
1335.8442598812
 10
2734.6111379755
 20
1334.4334254101
 10
2734.5386695955
 20
1333.1386041774
 10
2734.6546221879
 20
1332.0411545633
 10
2734.9517100248
 20
1331.2100333632
 10
2735.4112659847
 20
1330.6974629787
 10
2736.0044144767
 20
1330.5356500921
 10
2736.6938857995
 20
1330.7347620023
 10
2737.4363579342
 20
1331.2822877756
 10
2738.185178626
 20
1332.143824354
 10
2738.8932967168
 20
1333.2652382258
 10
2739.5162185427
 20
1334.5760668333
 10
2740.0148036344
 20
1335.9939459939
 10
2740.357724057
 20
1337.4297851456
 10
2740.5234328592
 20
1338.7933652338
 10
2740.5015179473
 20
1339.9990075066
 10
2740.2933563161
 20
1340.970957026
 10
2739.9120275263
 20
1341.6481426291
 10
2739.3814918682
 20
1341.9880142539
 10
2738.7350848483
 20
1341.9692165163
 10
2738.0134225972
 20
1341.5929305473
 10
2737.261849808
 20
1340.8827997782
 10
2736.5275905633
 20
1339.883444337
  0
LINE
  5
38B
330
1F
100
AcDbEntity
  8
0
  6
Continuous
 62
     7
370
    15
100
AcDbLine
 10
2737.0493230745
 20
1338.0215510073
 30
0.0
 11
2736.1108982408
 21
1335.2780566042
 31
0.0
  0
LINE
  5
38C
330
1F
100
AcDbEntity
  8
0
  6
Continuous
 62
     7
370
    15
100
AcDbLine
 10
2736.1108982408
 20
1335.2780566042
 30
0.0
 11
2736.59897059
 21
1333.5362854249
 31
0.0
  0
LINE
  5
38D
330
1F
100
AcDbEntity
  8
0
  6
Continuous
 62
     7
370
    15
100
AcDbLine
 10
2738.0254677731
 20
1334.5380086486
 30
0.0
 11
2736.59897059
 21
1333.5362854249
 31
0.0
  0
LINE
  5
38E
330
1F
100
AcDbEntity
  8
0
  6
Continuous
 62
     7
370
    15
100
AcDbLine
 10
2738.9638926069
 20
1337.2815030516
 30
0.0
 11
2738.0254677731
 21
1334.5380086486
 31
0.0
  0
LINE
  5
38F
330
1F
100
AcDbEntity
  8
0
  6
Continuous
 62
     7
370
    15
100
AcDbLine
 10
2738.4758202576
 20
1339.023274231
 30
0.0
 11
2738.9638926069
 21
1337.2815030516
 31
0.0
  0
LINE
  5
390
330
1F
100
AcDbEntity
  8
0
  6
Continuous
 62
     7
370
    15
100
AcDbLine
 10
2738.4758202576
 20
1339.023274231
 30
0.0
 11
2737.0493230745
 21
1338.0215510073
 31
0.0
  0
LINE
  5
391
330
1F
100
AcDbEntity
  8
0
  6
Continuous
 62
     7
370
    15
100
AcDbLine
 10
2736.1924364794
 20
1335.4756628116
 30
0.0
 11
2736.1625674393
 21
1335.4291120237
 31
0.0
  0
ARC
  5
392
330
1F
100
AcDbEntity
  8
0
  6
Continuous
 62
     7
370
    15
100
AcDbCircle
 10
2731.7103629816
 20
1338.2225884286
 30
0.0
 40
5.25686058264796
100
AcDbArc
 50
328.4971428735
 51
354.3781192381
  0
LINE
  5
393
330
1F
100
AcDbEntity
  8
0
  6
Continuous
 62
     7
370
    15
100
AcDbLine
 10
2737.1637227584
 20
1338.1018854247
 30
0.0
 11
2737.2318417993
 21
1337.8587907637
 31
0.0
  0
LINE
  5
394
330
1F
100
AcDbEntity
  8
0
  6
Continuous
 62
     7
370
    15
100
AcDbLine
 10
2737.2318417993
 20
1337.8587907637
 30
0.0
 11
2736.2934169655
 21
1335.1152963607
 31
0.0
  0
LINE
  5
395
330
1F
100
AcDbEntity
  8
0
  6
Continuous
 62
     7
370
    15
100
AcDbLine
 10
2736.2934169655
 20
1335.1152963607
 30
0.0
 11
2736.1790172817
 21
1335.0349619433
 31
0.0
  0
LINE
  5
396
330
1F
100
AcDbEntity
  8
0
  6
Continuous
 62
     7
370
    15
100
AcDbLine
 10
2736.2934169655
 20
1335.1152963607
 30
0.0
 11
2738.0254677731
 21
1334.5380086486
 31
0.0
  0
LINE
  5
397
330
1F
100
AcDbEntity
  8
0
  6
Continuous
 62
     7
370
    15
100
AcDbLine
 10
2737.2318417993
 20
1337.8587907637
 30
0.0
 11
2738.9638926069
 21
1337.2815030516
 31
0.0
  0
LWPOLYLINE
  5
398
330
1F
100
AcDbEntity
  8
0
  6
Continuous
 62
     7
370
    15
100
AcDbPolyline
 90
       26
 70
   128
 43
0.0
 10
2591.3620749504
 20
1817.8573950008
 10
2591.9868013883
 20
1817.0676010009
 10
2592.9321364091
 20
1816.3923090676
 10
2594.1386811368
 20
1815.8739502768
 10
2595.5306239287
 20
1815.5450950177
 10
2597.0205039
 20
1815.4264064755
 10
2598.5147064128
 20
1815.525342288
 10
2599.9193452279
 20
1815.8356859542
 10
2601.1461617226
 20
1816.3379374401
 10
2602.1180705046
 20
1817.0005384378
 10
2602.7740029708
 20
1817.7818552896
 10
2603.0727444719
 20
1818.6327949844
 10
2602.9955239807
 20
1819.4998898515
 10
2602.5471935447
 20
1820.3286571315
 10
2601.7559234141
 20
1821.0670223282
 10
2600.6714320011
 20
1821.6685912407
 10
2599.3618618899
 20
1822.095565082
 10
2597.9094981866
 20
1822.3211155152
 10
2596.4055982443
 20
1822.3310703771
 10
2594.9446576273
 20
1822.1248041671
 10
2593.6184726074
 20
1821.7152773498
 10
2592.5103722669
 20
1821.1282220012
 10
2591.6899826254
 20
1820.400524968
 10
2591.2088517814
 20
1819.577910131
 10
2591.0972109552
 20
1818.7120654058
 10
2591.3620749504
 20
1817.8573950008
  0
LINE
  5
399
330
1F
100
AcDbEntity
  8
0
  6
Continuous
 62
     7
370
    15
100
AcDbLine
 10
2594.3211398238
 20
1818.3908585372
 30
0.0
 11
2596.4538694739
 21
1817.256453041
 31
0.0
  0
LINE
  5
39A
330
1F
100
AcDbEntity
  8
0
  6
Continuous
 62
     7
370
    15
100
AcDbLine
 10
2596.4538694739
 20
1817.256453041
 30
0.0
 11
2599.222026936
 21
1817.7554995751
 31
0.0
  0
LINE
  5
39B
330
1F
100
AcDbEntity
  8
0
  6
Continuous
 62
     7
370
    15
100
AcDbLine
 10
2599.8574547481
 20
1819.3889516054
 30
0.0
 11
2599.222026936
 21
1817.7554995751
 31
0.0
  0
LINE
  5
39C
330
1F
100
AcDbEntity
  8
0
  6
Continuous
 62
     7
370
    15
100
AcDbLine
 10
2597.7247250981
 20
1820.5233571016
 30
0.0
 11
2599.8574547481
 21
1819.3889516054
 31
0.0
  0
LINE
  5
39D
330
1F
100
AcDbEntity
  8
0
  6
Continuous
 62
     7
370
    15
100
AcDbLine
 10
2594.9565676359
 20
1820.0243105675
 30
0.0
 11
2597.7247250981
 21
1820.5233571016
 31
0.0
  0
LINE
  5
39E
330
1F
100
AcDbEntity
  8
0
  6
Continuous
 62
     7
370
    15
100
AcDbLine
 10
2594.9565676359
 20
1820.0243105675
 30
0.0
 11
2594.3211398238
 21
1818.3908585372
 31
0.0
  0
ARC
  5
39F
330
1F
100
AcDbEntity
  8
0
  6
Continuous
 62
     7
370
    15
100
AcDbCircle
 10
2597.067080235
 20
1815.6084297028
 30
0.0
 40
3.041167264925869
100
AcDbArc
 50
44.9058200804
 51
129.4254603421
  0
LINE
  5
3A0
330
1F
100
AcDbEntity
  8
0
  6
Continuous
 62
     7
370
    15
100
AcDbLine
 10
2594.9565676359
 20
1818.3912289438
 30
0.0
 11
2597.7247250981
 21
1818.8902754778
 31
0.0
  0
LINE
  5
3A1
330
1F
100
AcDbEntity
  8
0
  6
Continuous
 62
     7
370
    15
100
AcDbLine
 10
2597.7247250981
 20
1818.8902754778
 30
0.0
 11
2599.331084932
 21
1818.0358477146
 31
0.0
  0
LINE
  5
3A2
330
1F
100
AcDbEntity
  8
0
  6
Continuous
 62
     7
370
    15
100
AcDbLine
 10
2594.9565676359
 20
1818.3912289438
 30
0.0
 11
2594.8475096399
 21
1818.1108808042
 31
0.0
  0
LINE
  5
3A3
330
1F
100
AcDbEntity
  8
0
  6
Continuous
 62
     7
370
    15
100
AcDbLine
 10
2594.9565676359
 20
1818.3912289438
 30
0.0
 11
2594.9565676359
 21
1820.0243105675
 31
0.0
  0
LINE
  5
3A4
330
1F
100
AcDbEntity
  8
0
  6
Continuous
 62
     7
370
    15
100
AcDbLine
 10
2597.7247250981
 20
1818.8902754778
 30
0.0
 11
2597.7247250981
 21
1820.5233571016
 31
0.0
  0
LWPOLYLINE
  5
3A5
330
1F
100
AcDbEntity
  8
0
  6
Continuous
 62
     7
370
    15
100
AcDbPolyline
 90
       26
 70
   128
 43
0.0
 10
2531.8690262875
 20
1879.5322731728
 10
2532.245022444
 20
1878.6916028525
 10
2532.9713585226
 20
1877.9313238559
 10
2534.0023961564
 20
1877.2992073086
 10
2535.2733514588
 20
1876.8349714181
 10
2536.7043656339
 20
1876.5677858325
 10
2538.2055227983
 20
1876.514438805
 10
2539.6824997265
 20
1876.6782823255
 10
2541.042492526
 20
1877.049021503
 10
2542.2000478476
 20
1877.6033614314
 10
2543.0824322333
 20
1878.3064708944
 10
2543.6342022269
 20
1879.1141709386
 10
2543.8206880904
 20
1879.9757107996
 10
2543.6301722312
 20
1880.8369567595
 10
2543.0746254614
 20
1881.6437935672
 10
2542.1889548277
 20
1882.3455246986
 10
2541.0288102733
 20
1882.8980578061
 10
2539.6670879473
 20
1883.2666752025
 10
2538.1893498714
 20
1883.4282153009
 10
2536.6884477637
 20
1883.372527943
 10
2535.2586888236
 20
1883.1031121702
 10
2533.9899100635
 20
1882.6368963664
 10
2532.9618335192
 20
1882.0031745851
 10
2532.239057021
 20
1881.2417658966
 10
2531.8669952745
 20
1880.400512409
 10
2531.8690262875
 20
1879.5322731728
  0
LINE
  5
3A6
330
1F
100
AcDbEntity
  8
0
  6
Continuous
 62
     7
370
    15
100
AcDbLine
 10
2534.9440543789
 20
1879.7589659329
 30
0.0
 11
2536.7005095719
 21
1878.4268358971
 31
0.0
  0
LINE
  5
3A7
330
1F
100
AcDbEntity
  8
0
  6
Continuous
 62
     7
370
    15
100
AcDbLine
 10
2536.7005095719
 20
1878.4268358971
 30
0.0
 11
2539.5771487542
 21
1878.6389033179
 31
0.0
  0
LINE
  5
3A8
330
1F
100
AcDbEntity
  8
0
  6
Continuous
 62
     7
370
    15
100
AcDbLine
 10
2540.6973327435
 20
1880.1831007745
 30
0.0
 11
2539.5771487542
 21
1878.6389033179
 31
0.0
  0
LINE
  5
3A9
330
1F
100
AcDbEntity
  8
0
  6
Continuous
 62
     7
370
    15
100
AcDbLine
 10
2538.9408775505
 20
1881.5152308103
 30
0.0
 11
2540.6973327435
 21
1880.1831007745
 31
0.0
  0
LINE
  5
3AA
330
1F
100
AcDbEntity
  8
0
  6
Continuous
 62
     7
370
    15
100
AcDbLine
 10
2536.0642383682
 20
1881.3031633896
 30
0.0
 11
2538.9408775505
 21
1881.5152308103
 31
0.0
  0
LINE
  5
3AB
330
1F
100
AcDbEntity
  8
0
  6
Continuous
 62
     7
370
    15
100
AcDbLine
 10
2536.0642383682
 20
1881.3031633896
 30
0.0
 11
2534.9440543789
 21
1879.7589659329
 31
0.0
  0
ARC
  5
3AC
330
1F
100
AcDbEntity
  8
0
  6
Continuous
 62
     7
370
    15
100
AcDbCircle
 10
2537.8151187231
 20
1876.6354080472
 30
0.0
 40
3.094696046520424
100
AcDbArc
 50
49.411519796
 51
128.7245665098
  0
LINE
  5
3AD
330
1F
100
AcDbEntity
  8
0
  6
Continuous
 62
     7
370
    15
100
AcDbLine
 10
2536.0642383682
 20
1879.6700817658
 30
0.0
 11
2538.9408775505
 21
1879.8821491866
 31
0.0
  0
LINE
  5
3AE
330
1F
100
AcDbEntity
  8
0
  6
Continuous
 62
     7
370
    15
100
AcDbLine
 10
2538.9408775505
 20
1879.8821491866
 30
0.0
 11
2539.933118043
 21
1879.1296145543
 31
0.0
  0
LINE
  5
3AF
330
1F
100
AcDbEntity
  8
0
  6
Continuous
 62
     7
370
    15
100
AcDbLine
 10
2536.0642383682
 20
1879.6700817658
 30
0.0
 11
2535.7082690794
 21
1879.1793705294
 31
0.0
  0
LINE
  5
3B0
330
1F
100
AcDbEntity
  8
0
  6
Continuous
 62
     7
370
    15
100
AcDbLine
 10
2536.0642383682
 20
1879.6700817658
 30
0.0
 11
2536.0642383682
 21
1881.3031633896
 31
0.0
  0
LINE
  5
3B1
330
1F
100
AcDbEntity
  8
0
  6
Continuous
 62
     7
370
    15
100
AcDbLine
 10
2538.9408775505
 20
1879.8821491866
 30
0.0
 11
2538.9408775505
 21
1881.5152308103
 31
0.0
  0
LWPOLYLINE
  5
3B2
330
1F
100
AcDbEntity
  8
0
  6
Continuous
 62
     7
370
    15
100
AcDbPolyline
 90
       14
 70
   128
 43
0.0
 10
2684.508421272
 20
1713.7368675021
 10
2682.764380678
 20
1712.2260682258
 10
2680.6994613592
 20
1710.856689534
 10
2678.3476883186
 20
1709.6512955597
 10
2675.7478132323
 20
1708.629748354
 10
2672.9426759132
 20
1707.808880607
 10
2669.9784984121
 20
1707.2022182842
 10
2666.904123387
 20
1706.8197577507
 10
2663.7702092913
 20
1706.6678010545
 10
2660.6283956422
 20
1706.7488520837
 10
2657.5304521225
 20
1707.0615753085
 10
2654.5274255391
 20
1707.6008177872
 10
2651.6687986912
 20
1708.357694075
 10
2649.0016750109
 20
1709.3197326347
  0
ARC
  5
3B3
330
1F
100
AcDbEntity
  8
0
  6
Continuous
 62
     7
370
    15
100
AcDbCircle
 10
2663.144870245
 20
1708.9482204226
 30
0.0
 40
14.14807381773997
100
AcDbArc
 50
132.6964277135
 51
178.4953055064
  0
LWPOLYLINE
  5
3B4
330
1F
100
AcDbEntity
  8
0
  6
Continuous
 62
     7
370
    15
100
AcDbPolyline
 90
       12
 70
   128
 43
0.0
 10
2653.550865467
 20
1719.3464445533
 10
2655.7143487809
 20
1718.586203131
 10
2658.0521031315
 20
1718.0235796075
 10
2660.5103562549
 20
1717.6715152658
 10
2663.0325642136
 20
1717.5381081752
 10
2665.560712002
 20
1717.626426922
 10
2668.0366479883
 20
1717.9344400273
 10
2670.4034214996
 20
1718.4550626739
 10
2672.6065927828
 20
1719.1763196694
 10
2674.5954852098
 20
1720.0816208954
 10
2676.324350925
 20
1721.150142908
 10
2677.7534231225
 20
1722.3573079119
  0
ARC
  5
3B5
330
1F
100
AcDbEntity
  8
0
  6
Continuous
 62
     7
370
    15
100
AcDbCircle
 10
2674.6307881485
 20
1712.9535667982
 30
0.0
 40
9.908642496087625
100
AcDbArc
 50
4.5340924027
 51
71.6305797063
  0
LINE
  5
3B6
330
1F
100
AcDbEntity
  8
0
  6
Continuous
 62
     7
370
    15
100
AcDbLine
 10
2751.3235090377
 20
1892.4808857189
 30
0.0
 11
2663.4507950722
 21
1943.2087237188
 31
0.0
  0
ARC
  5
3B7
330
1F
100
AcDbEntity
  8
0
  6
Continuous
 62
     7
370
    15
100
AcDbCircle
 10
2751.2819962689
 20
1892.3892636324
 30
0.0
 40
0.1005878556977376
100
AcDbArc
 50
5.6947992507
 51
65.6253417066
  0
LINE
  5
3B8
330
1F
100
AcDbEntity
  8
0
  6
Continuous
 62
     7
370
    15
100
AcDbLine
 10
2751.3820876814
 20
1796.008931407
 30
0.0
 11
2751.3820876814
 21
1892.3992449077
 31
0.0
  0
ARC
  5
3B9
330
1F
100
AcDbEntity
  8
0
  6
Continuous
 62
     7
370
    15
100
AcDbCircle
 10
2751.2997509615
 20
1796.0120653105
 30
0.0
 40
0.0823963396726128
100
AcDbArc
 50
312.3828191455
 51
357.8202579651
  0
LINE
  5
3BA
330
1F
100
AcDbEntity
  8
0
  6
Continuous
 62
     7
370
    15
100
AcDbLine
 10
2677.7534231225
 20
1722.3573079119
 30
0.0
 11
2751.3552927622
 21
1795.9512026358
 31
0.0
  0
LWPOLYLINE
  5
3BB
330
1F
100
AcDbEntity
  8
0
  6
Continuous
 62
     7
370
    15
100
AcDbPolyline
 90
       18
 70
   128
 43
0.0
 10
2424.6562826314
 20
1851.4844745873
 10
2435.9590095266
 20
1842.5778972015
 10
2447.5549628453
 20
1833.7978379938
 10
2459.4398941719
 20
1825.1475137194
 10
2471.6094492176
 20
1816.6300936021
 10
2484.0591694161
 20
1808.2486981737
 10
2496.7844935567
 20
1800.0063981305
 10
2509.7807594556
 20
1791.9062132084
 10
2523.0432056639
 20
1783.9511110765
 10
2536.566973212
 20
1776.1440062499
 10
2550.34710739
 20
1768.4877590217
 10
2564.3785595628
 20
1760.9851744152
 10
2578.6561890198
 20
1753.6390011566
 10
2593.174764858
 20
1746.4519306671
 10
2607.9289678993
 20
1739.4265960776
 10
2622.9133926382
 20
1732.5655712638
 10
2638.122549223
 20
1725.871369903
 10
2653.550865467
 20
1719.3464445533
  0
LWPOLYLINE
  5
3BC
330
1F
100
AcDbEntity
  8
0
  6
Continuous
 62
     7
370
    15
100
AcDbPolyline
 90
       12
 70
   128
 43
0.0
 10
2429.871816057
 20
1865.4563137229
 10
2427.7807183623
 20
1864.6313279036
 10
2425.9297833948
 20
1863.6332749703
 10
2424.3615857578
 20
1862.4851118116
 10
2423.1121966224
 20
1861.2132481022
 10
2422.2103540303
 20
1859.8469388368
 10
2421.676801871
 20
1858.417611416
 10
2421.5238127376
 20
1856.9581427634
 10
2421.7549056361
 20
1855.5021031015
 10
2422.364765043
 20
1854.0829837802
 10
2423.339363171
 20
1852.7334269197
 10
2424.6562826314
 20
1851.4844745873
  0
LINE
  5
3BD
330
1F
100
AcDbEntity
  8
0
  6
Continuous
 62
     7
370
    15
100
AcDbLine
 10
2663.209373716
 20
1943.2270720724
 30
0.0
 11
2429.871816057
 21
1865.4563137229
 31
0.0
  0
ARC
  5
3BE
330
1F
100
AcDbEntity
  8
0
  6
Continuous
 62
     7
370
    15
100
AcDbCircle
 10
2663.3081692802
 20
1942.9295463289
 30
0.0
 40
0.3134998110499082
100
AcDbArc
 50
62.9384771796
 51
108.369118122
  0
LWPOLYLINE
  5
3BF
330
1F
100
AcDbEntity
  8
0
  6
Continuous
 62
     7
370
    15
100
AcDbPolyline
 90
       26
 70
   128
 43
0.0
 10
2698.6537385853
 20
1787.124092764
 10
2699.8421307779
 20
1787.6562432013
 10
2701.2224326362
 20
1788.0010628969
 10
2702.707914718
 20
1788.1368855612
 10
2704.2052387208
 20
1788.0551769566
 10
2705.6203222709
 20
1787.7610711353
 10
2706.8642504644
 20
1787.2730478477
 10
2707.8588627181
 20
1786.6217713917
 10
2708.5416638862
 20
1785.8481638624
 10
2708.86975106
 20
1785.0008338658
 10
2708.822509316
 20
1784.133022262
 10
2708.4029070265
 20
1783.2992568457
 10
2707.6373093467
 20
1782.5519261642
 10
2706.5738215943
 20
1781.9379877528
 10
2705.2792666162
 20
1781.4960176198
 10
2703.8349860627
 20
1781.2537863741
 10
2702.3317293925
 20
1781.2265142958
 10
2700.863951751
 20
1781.4159149898
 10
2699.5238790053
 20
1781.8100877139
 10
2698.3957128546
 20
1782.3842651463
 10
2697.5503401273
 20
1783.1023696071
 10
2697.0408787008
 20
1783.9192799521
 10
2696.8993399102
 20
1784.7836667
 10
2697.1346171584
 20
1785.6412172523
 10
2697.7319271104
 20
1786.4380485541
 10
2698.6537385853
 20
1787.124092764
  0
LWPOLYLINE
  5
3C0
330
1F
100
AcDbEntity
  8
0
  6
Continuous
 62
     7
370
    15
100
AcDbPolyline
 90
       26
 70
   128
 43
0.0
 10
2533.5780528741
 20
1882.4202576892
 10
2534.7664450667
 20
1882.9524081265
 10
2536.146746925
 20
1883.2972278221
 10
2537.6322290067
 20
1883.4330504864
 10
2539.1295530096
 20
1883.3513418818
 10
2540.5446365596
 20
1883.0572360605
 10
2541.7885647531
 20
1882.5692127729
 10
2542.7831770068
 20
1881.9179363169
 10
2543.4659781749
 20
1881.1443287876
 10
2543.7940653488
 20
1880.296998791
 10
2543.7468236048
 20
1879.4291871872
 10
2543.3272213153
 20
1878.5954217708
 10
2542.5616236354
 20
1877.8480910894
 10
2541.4981358831
 20
1877.234152678
 10
2540.203580905
 20
1876.792182545
 10
2538.7593003514
 20
1876.5499512993
 10
2537.2560436813
 20
1876.522679221
 10
2535.7882660397
 20
1876.712079915
 10
2534.4481932941
 20
1877.1062526391
 10
2533.3200271434
 20
1877.6804300715
 10
2532.4746544161
 20
1878.3985345323
 10
2531.9651929896
 20
1879.2154448773
 10
2531.823654199
 20
1880.0798316252
 10
2532.0589314471
 20
1880.9373821775
 10
2532.6562413992
 20
1881.7342134792
 10
2533.5780528741
 20
1882.4202576892
  0
LWPOLYLINE
  5
3C1
330
1F
100
AcDbEntity
  8
0
  6
Continuous
 62
     7
370
    15
100
AcDbPolyline
 90
       26
 70
   128
 43
0.0
 10
2709.8874087939
 20
1890.1130960257
 10
2711.0758009865
 20
1890.645246463
 10
2712.4561028448
 20
1890.9900661586
 10
2713.9415849265
 20
1891.1258888229
 10
2715.4389089294
 20
1891.0441802184
 10
2716.8539924794
 20
1890.7500743971
 10
2718.0979206729
 20
1890.2620511094
 10
2719.0925329266
 20
1889.6107746534
 10
2719.7753340947
 20
1888.8371671241
 10
2720.1034212686
 20
1887.9898371275
 10
2720.0561795246
 20
1887.1220255238
 10
2719.6365772351
 20
1886.2882601074
 10
2718.8709795553
 20
1885.5409294259
 10
2717.8074918029
 20
1884.9269910145
 10
2716.5129368248
 20
1884.4850208815
 10
2715.0686562712
 20
1884.2427896359
 10
2713.5653996011
 20
1884.2155175575
 10
2712.0976219595
 20
1884.4049182515
 10
2710.7575492139
 20
1884.7990909756
 10
2709.6293830632
 20
1885.373268408
 10
2708.7840103359
 20
1886.0913728688
 10
2708.2745489094
 20
1886.9082832138
 10
2708.1330101188
 20
1887.7726699617
 10
2708.3682873669
 20
1888.630220514
 10
2708.965597319
 20
1889.4270518158
 10
2709.8874087939
 20
1890.1130960257
  0
ARC
  5
3C2
330
1F
100
AcDbEntity
  8
0
  6
Continuous
 62
     7
370
    15
100
AcDbCircle
 10
2656.4862669056
 20
1858.2148345776
 30
0.0
 40
8.24646357837179
100
AcDbArc
 50
240.5153680695
 51
299.4846319305
  0
LWPOLYLINE
  5
3C3
330
1F
100
AcDbEntity
  8
0
  6
Continuous
 62
     7
370
    15
100
AcDbPolyline
 90
       25
 70
   128
 43
0.0
 10
2593.2002099894
 20
1821.1350273788
 10
2594.339297286
 20
1821.6396071031
 10
2595.6657925379
 20
1821.956799178
 10
2597.089297286
 20
1822.0649874878
 10
2598.512802034
 20
1821.956799178
 10
2599.839297286
 20
1821.6396071031
 10
2600.9783845825
 20
1821.1350273788
 10
2601.8524370068
 20
1820.4774462795
 10
2602.4018893305
 20
1819.7116768704
 10
2602.589297286
 20
1818.8899050713
 10
2602.4018893305
 20
1818.0681332721
 10
2601.8524370068
 20
1817.3023638631
 10
2600.9783845825
 20
1816.6447827638
 10
2599.839297286
 20
1816.1402030395
 10
2598.512802034
 20
1815.8230109646
 10
2597.089297286
 20
1815.7148226548
 10
2595.6657925379
 20
1815.8230109646
 10
2594.339297286
 20
1816.1402030395
 10
2593.2002099894
 20
1816.6447827638
 10
2592.3261575651
 20
1817.3023638631
 10
2591.7767052414
 20
1818.0681332721
 10
2591.589297286
 20
1818.8899050713
 10
2591.7767052414
 20
1819.7116768704
 10
2592.3261575651
 20
1820.4774462795
 10
2593.2002099894
 20
1821.1350273788
  0
LWPOLYLINE
  5
3C4
330
1F
100
AcDbEntity
  8
0
  6
Continuous
 62
     7
370
    15
100
AcDbPolyline
 90
       18
 70
   128
 43
0.0
 10
2649.0016750109
 20
1709.3197326347
 10
2633.4529215505
 20
1715.8955931502
 10
2618.1250385631
 20
1722.6420510869
 10
2603.0236417336
 20
1729.5566347413
 10
2588.1542637687
 20
1736.6368108137
 10
2573.5223523705
 20
1743.8799853363
 10
2559.13326824
 20
1751.2835046232
 10
2544.9922831139
 20
1758.8446562432
 10
2531.1045778324
 20
1766.560670013
 10
2517.4752404415
 20
1774.4287190126
 10
2504.1092643289
 20
1782.4459206207
 10
2491.0115463944
 20
1790.6093375708
 10
2478.1868852559
 20
1798.9159790275
 10
2465.6399794914
 20
1807.362801682
 10
2453.3754259175
 20
1815.9467108675
 10
2441.3977179052
 20
1824.6645616925
 10
2429.711243734
 20
1833.5131601934
 10
2418.3202849834
 20
1842.4892645044
  0
ARC
  5
3C5
330
1F
100
AcDbEntity
  8
0
  6
Continuous
 62
     7
370
    15
100
AcDbCircle
 10
2428.8728807034
 20
1841.7853469429
 30
0.0
 40
10.57604729389453
100
AcDbArc
 50
113.4965090906
 51
176.1837025296
  0
LINE
  5
3C6
330
1F
100
AcDbEntity
  8
0
  6
Continuous
 62
     7
370
    15
100
AcDbLine
 10
2684.508421272
 20
1713.7368675021
 30
0.0
 11
2684.508421272
 21
1709.4908552803
 31
0.0
  0
LWPOLYLINE
  5
3C7
330
1F
100
AcDbEntity
  8
0
  6
Continuous
 62
     7
370
    15
100
AcDbPolyline
 90
       14
 70
   128
 43
0.0
 10
2649.0016750109
 20
1705.0737204129
 10
2651.6687986912
 20
1704.1116818532
 10
2654.5274255391
 20
1703.3548055654
 10
2657.5304521225
 20
1702.8155630867
 10
2660.6283956422
 20
1702.5028398619
 10
2663.7702092913
 20
1702.4217888327
 10
2666.904123387
 20
1702.5737455289
 10
2669.9784984121
 20
1702.9562060624
 10
2672.9426759132
 20
1703.5628683852
 10
2675.7478132323
 20
1704.3837361322
 10
2678.3476883186
 20
1705.4052833378
 10
2680.6994613592
 20
1706.6106773122
 10
2682.764380678
 20
1707.980056004
 10
2684.508421272
 20
1709.4908552803
  0
LINE
  5
3C8
330
1F
100
AcDbEntity
  8
0
  6
Continuous
 62
     7
370
    15
100
AcDbLine
 10
2649.0016750109
 20
1709.3197326347
 30
0.0
 11
2649.0016750109
 21
1705.0737204129
 31
0.0
  0
LWPOLYLINE
  5
3C9
330
1F
100
AcDbEntity
  8
0
  6
Continuous
 62
     7
370
    15
100
AcDbPolyline
 90
       18
 70
   128
 43
0.0
 10
2418.3202849834
 20
1838.2432522825
 10
2429.711243734
 20
1829.2671479716
 10
2441.3977179052
 20
1820.4185494707
 10
2453.3754259175
 20
1811.7006986457
 10
2465.6399794914
 20
1803.1167894602
 10
2478.1868852559
 20
1794.6699668057
 10
2491.0115463944
 20
1786.363325349
 10
2504.1092643289
 20
1778.1999083989
 10
2517.4752404415
 20
1770.1827067908
 10
2531.1045778324
 20
1762.3146577912
 10
2544.9922831139
 20
1754.5986440214
 10
2559.13326824
 20
1747.0374924014
 10
2573.5223523705
 20
1739.6339731145
 10
2588.1542637687
 20
1732.3907985919
 10
2603.0236417336
 20
1725.3106225195
 10
2618.1250385631
 20
1718.3960388651
 10
2633.4529215505
 20
1711.6495809284
 10
2649.0016750109
 20
1705.0737204129
  0
LINE
  5
3CA
330
1F
100
AcDbEntity
  8
0
  6
Continuous
 62
     7
370
    15
100
AcDbLine
 10
2418.3202849834
 20
1842.4892645044
 30
0.0
 11
2418.3202849834
 21
1838.2432522825
 31
0.0
  0
LINE
  5
3CB
330
1F
100
AcDbEntity
  8
0
  6
Continuous
 62
     7
370
    15
100
AcDbLine
 10
2758.1102909117
 20
1787.3307622259
 30
0.0
 11
2684.508421272
 21
1713.7368675021
 31
0.0
  0
ARC
  5
3CC
330
1F
100
AcDbEntity
  8
0
  6
Continuous
 62
     7
370
    15
100
AcDbCircle
 10
2748.2326577882
 20
1786.547461522
 30
0.0
 40
9.908642496084832
100
AcDbArc
 50
4.5340924027
 51
71.6305797063
  0
LINE
  5
3CD
330
1F
100
AcDbEntity
  8
0
  6
Continuous
 62
     7
370
    15
100
AcDbLine
 10
2758.1102909117
 20
1787.3307622259
 30
0.0
 11
2758.1102909117
 21
1783.0847500041
 31
0.0
  0
LINE
  5
3CE
330
1F
100
AcDbEntity
  8
0
  6
Continuous
 62
     7
370
    15
100
AcDbLine
 10
2684.508421272
 20
1709.4908552803
 30
0.0
 11
2758.1102909117
 21
1783.0847500041
 31
0.0
  0
LWPOLYLINE
  5
3CF
330
1F
100
AcDbEntity
  8
0
  6
Continuous
 62
     7
370
    15
100
AcDbPolyline
 90
        9
 70
   128
 43
0.0
 10
2751.3820876814
 20
1796.008931407
 10
2752.9037921932
 20
1795.8865525056
 10
2754.3670184539
 20
1795.524118754
 10
2755.715535499
 20
1794.9355582781
 10
2756.8975205747
 20
1794.1434891268
 10
2757.8675506574
 20
1793.1783500735
 10
2758.588348035
 20
1792.0772308706
 10
2759.0322128686
 20
1790.8824469117
 10
2759.1820876814
 20
1789.6399130743
  0
ARC
  5
3D0
330
1F
100
AcDbEntity
  8
0
  6
Continuous
 62
     7
370
    15
100
AcDbCircle
 10
2755.8886188864
 20
1789.7652692146
 30
0.0
 40
3.295853586861387
100
AcDbArc
 50
312.3828191457
 51
357.8202579654
  0
LWPOLYLINE
  5
3D1
330
1F
100
AcDbEntity
  8
0
  6
Continuous
 62
     7
370
    15
100
AcDbPolyline
 90
        9
 70
   128
 43
0.0
 10
2751.3820876814
 20
1892.3992449077
 10
2752.9037921932
 20
1892.2768660064
 10
2754.3670184539
 20
1891.9144322548
 10
2755.715535499
 20
1891.3258717789
 10
2756.8975205747
 20
1890.5338026276
 10
2757.8675506574
 20
1889.5686635742
 10
2758.588348035
 20
1888.4675443714
 10
2759.0322128686
 20
1887.2727604125
 10
2759.1820876814
 20
1886.030226575
  0
LINE
  5
3D2
330
1F
100
AcDbEntity
  8
0
  6
Continuous
 62
     7
370
    15
100
AcDbLine
 10
2759.1820876814
 20
1886.030226575
 30
0.0
 11
2759.1820876814
 21
1789.6399130743
 31
0.0
  0
LINE
  5
3D3
330
1F
100
AcDbEntity
  8
0
  6
Continuous
 62
     7
370
    15
100
AcDbLine
 10
2759.1820876814
 20
1789.6399130743
 30
0.0
 11
2759.1820876814
 21
1785.3939008525
 31
0.0
  0
ARC
  5
3D4
330
1F
100
AcDbEntity
  8
0
  6
Continuous
 62
     7
370
    15
100
AcDbCircle
 10
2755.8886188864
 20
1785.5192569928
 30
0.0
 40
3.295853586861404
100
AcDbArc
 50
312.3828191457
 51
357.8202579654
  0
LINE
  5
3D5
330
1F
100
AcDbEntity
  8
0
  6
Continuous
 62
     7
370
    15
100
AcDbLine
 10
2653.3768942134
 20
1850.6183791068
 30
0.0
 11
2653.4650683949
 21
1850.525885231
 31
0.0
  0
LINE
  5
3D6
330
1F
100
AcDbEntity
  8
0
  6
Continuous
 62
     7
370
    15
100
AcDbLine
 10
2659.5074654164
 20
1850.525885231
 30
0.0
 11
2659.5956395979
 21
1850.6183791068
 31
0.0
  0
LWPOLYLINE
  5
3D7
330
1F
100
AcDbEntity
  8
0
  6
Continuous
 62
     7
370
    15
100
AcDbPolyline
 90
       14
 70
   128
 43
0.0
 10
2650.7513636479
 20
1247.5845893584
 10
2653.091900755
 20
1246.7403514387
 10
2655.6004916624
 20
1246.0761538801
 10
2658.235800705
 20
1245.6029410926
 10
2660.9544042018
 20
1245.3285105076
 10
2663.7115059756
 20
1245.2573840942
 10
2666.4616754881
 20
1245.390733848
 10
2669.1595964285
 20
1245.7263624795
 10
2671.7608134193
 20
1246.2587396199
 10
2674.222464536
 20
1246.9790929489
 10
2676.5039875709
 20
1247.8755527416
 10
2678.5677884025
 20
1248.9333474538
 10
2680.3798604577
 20
1250.1350471221
 10
2681.9103450607
 20
1251.4608505686
  0
LWPOLYLINE
  5
3D8
330
1F
100
AcDbEntity
  8
0
  6
Continuous
 62
     7
370
    15
100
AcDbPolyline
 90
       18
 70
   128
 43
0.0
 10
2420.7572071557
 20
1380.3573897528
 10
2432.1142305773
 20
1371.4080265669
 10
2443.765889036
 20
1362.5857893327
 10
2455.7079137076
 20
1353.8939102579
 10
2467.9359293861
 20
1345.3355737909
 10
2480.4454560867
 20
1336.9139154541
 10
2493.2319106876
 20
1328.632020695
 10
2506.2906086084
 20
1320.4929237557
 10
2519.616765527
 20
1312.4996065615
 10
2533.2054991323
 20
1304.6549976284
 10
2547.0518309124
 20
1296.9619709899
 10
2561.1506879796
 20
1289.4233451444
 10
2575.4969049279
 20
1282.0418820222
 10
2590.0852257262
 20
1274.8202859739
 10
2604.9103056435
 20
1267.7612027796
 10
2619.9667132074
 20
1260.8672186792
 10
2635.2489321938
 20
1254.1408594256
 10
2650.7513636479
 20
1247.5845893584
  0
LINE
  5
3D9
330
1F
100
AcDbEntity
  8
0
  6
Continuous
 62
     7
370
    15
100
AcDbLine
 10
2683.2542226207
 20
1258.0001719255
 30
0.0
 11
2682.6690001944
 21
1258.338013641
 31
0.0
  0
LINE
  5
3DA
330
1F
100
AcDbEntity
  8
0
  6
Continuous
 62
     7
370
    15
100
AcDbLine
 10
2684.7704726895
 20
1259.5162577054
 30
0.0
 11
2683.2542226207
 21
1258.0001719255
 31
0.0
  0
ARC
  5
3DB
330
1F
100
AcDbEntity
  8
0
  6
Continuous
 62
     7
370
    15
100
AcDbCircle
 10
2428.3737586203
 20
1388.0003453586
 30
0.0
 40
7.662605088006697
100
AcDbArc
 50
183.0229419448
 51
235.253077625
  0
LWPOLYLINE
  5
3DC
330
1F
100
AcDbEntity
  8
0
  6
Continuous
 62
     7
370
    15
100
AcDbPolyline
 90
       18
 70
   128
 43
0.0
 10
2424.0064367187
 20
1381.7041547529
 10
2435.3182130351
 20
1372.7904464005
 10
2446.9234505438
 20
1364.0033575217
 10
2458.8178974278
 20
1355.3461074472
 10
2470.9971959123
 20
1346.8218679383
 10
2483.4568838612
 20
1338.4337620252
 10
2496.1923964118
 20
1330.1848628626
 10
2509.1990676477
 20
1322.0781926044
 10
2522.4721323077
 20
1314.1167212954
 10
2536.006727532
 20
1306.3033657844
 10
2549.7978946438
 20
1298.6409886544
 10
2563.8405809656
 20
1291.1323971748
 10
2578.1296416711
 20
1283.7803422722
 10
2592.6598416694
 20
1276.587517523
 10
2607.4258575233
 20
1269.556558166
 10
2622.4222793997
 20
1262.6900401378
 10
2637.6436130515
 20
1255.9904791282
 10
2653.0842818305
 20
1249.4603296589
  0
LWPOLYLINE
  5
3DD
330
1F
100
AcDbEntity
  8
0
  6
Continuous
 62
     7
370
    15
100
AcDbPolyline
 90
       12
 70
   128
 43
0.0
 10
2653.0842818305
 20
1249.4603296589
 10
2655.3514050636
 20
1248.6636694859
 10
2657.8011476466
 20
1248.0740939373
 10
2660.3771613986
 20
1247.7051642379
 10
2663.0201936907
 20
1247.5653663884
 10
2665.6694503552
 20
1247.6579159734
 10
2668.2639940534
 20
1247.9806841975
 10
2670.7441459365
 20
1248.5262468512
 10
2673.052858359
 20
1249.28205508
 10
2675.1370270699
 20
1250.2307240294
 10
2676.9487126996
 20
1251.3504327252
 10
2678.4462434455
 20
1252.6154259928
  0
LINE
  5
3DE
330
1F
100
AcDbEntity
  8
0
  6
Continuous
 62
     7
370
    15
100
AcDbLine
 10
2678.4462434455
 20
1252.6154259928
 30
0.0
 11
2683.1026099343
 21
1257.2712879546
 31
0.0
  0
LINE
  5
3DF
330
1F
100
AcDbEntity
  8
0
  6
Continuous
 62
     7
370
    15
100
AcDbLine
 10
2683.1026099343
 20
1257.2712879546
 30
0.0
 11
2682.6690001944
 21
1257.5216055292
 31
0.0
  0
LWPOLYLINE
  5
3E0
330
1F
100
AcDbEntity
  8
0
  6
Continuous
 62
     7
370
    15
100
AcDbPolyline
 90
       14
 70
   128
 43
0.0
 10
2684.508421272
 20
1248.1452965649
 10
2682.764380678
 20
1246.6344972886
 10
2680.6994613592
 20
1245.2651185968
 10
2678.3476883186
 20
1244.0597246224
 10
2675.7478132323
 20
1243.0381774167
 10
2672.9426759132
 20
1242.2173096698
 10
2669.9784984121
 20
1241.610647347
 10
2666.904123387
 20
1241.2281868134
 10
2663.7702092913
 20
1241.0762301172
 10
2660.6283956422
 20
1241.1572811464
 10
2657.5304521225
 20
1241.4700043712
 10
2654.5274255391
 20
1242.00924685
 10
2651.6687986912
 20
1242.7661231377
 10
2649.0016750109
 20
1243.7281616974
  0
ARC
  5
3E1
330
1F
100
AcDbEntity
  8
0
  6
Continuous
 62
     7
370
    15
100
AcDbCircle
 10
2654.4413654856
 20
1243.5852723851
 30
0.0
 40
5.441566852975252
100
AcDbArc
 50
132.6964277135
 51
178.4953055064
  0
ARC
  5
3E2
330
1F
100
AcDbEntity
  8
0
  6
Continuous
 62
     7
370
    15
100
AcDbCircle
 10
2680.7093316091
 20
1247.8440270633
 30
0.0
 40
3.811016344650504
100
AcDbArc
 50
4.5340924027
 51
71.6305797062
  0
LWPOLYLINE
  5
3E3
330
1F
100
AcDbEntity
  8
0
  6
Continuous
 62
     7
370
    15
100
AcDbPolyline
 90
       14
 70
   128
 43
0.0
 10
2649.0016750109
 20
1240.0537280439
 10
2651.6687986912
 20
1239.0916894842
 10
2654.5274255391
 20
1238.3348131965
 10
2657.5304521225
 20
1237.7955707177
 10
2660.6283956422
 20
1237.482847493
 10
2663.7702092913
 20
1237.4017964637
 10
2666.904123387
 20
1237.55375316
 10
2669.9784984121
 20
1237.9362136935
 10
2672.9426759132
 20
1238.5428760163
 10
2675.7478132323
 20
1239.3637437633
 10
2678.3476883186
 20
1240.3852909689
 10
2680.6994613592
 20
1241.5906849433
 10
2682.764380678
 20
1242.9600636351
 10
2684.508421272
 20
1244.4708629114
  0
LINE
  5
3E4
330
1F
100
AcDbEntity
  8
0
  6
Continuous
 62
     7
370
    15
100
AcDbLine
 10
2649.0016750109
 20
1240.0537280439
 30
0.0
 11
2649.0016750109
 21
1243.7281616974
 31
0.0
  0
LINE
  5
3E5
330
1F
100
AcDbEntity
  8
0
  6
Continuous
 62
     7
370
    15
100
AcDbLine
 10
2684.508421272
 20
1244.4708629114
 30
0.0
 11
2684.508421272
 21
1248.1452965649
 31
0.0
  0
LWPOLYLINE
  5
3E6
330
1F
100
AcDbEntity
  8
0
  6
Continuous
 62
     7
370
    15
100
AcDbPolyline
 90
       18
 70
   128
 43
0.0
 10
2649.0016750109
 20
1243.7281616974
 10
2633.4529215505
 20
1250.304022213
 10
2618.1250385631
 20
1257.0504801496
 10
2603.0236417336
 20
1263.9650638041
 10
2588.1542637687
 20
1271.0452398765
 10
2573.5223523705
 20
1278.288414399
 10
2559.13326824
 20
1285.6919336859
 10
2544.9922831139
 20
1293.2530853059
 10
2531.1045778324
 20
1300.9690990758
 10
2517.4752404415
 20
1308.8371480754
 10
2504.1092643289
 20
1316.8543496835
 10
2491.0115463944
 20
1325.0177666336
 10
2478.1868852559
 20
1333.3244080902
 10
2465.6399794914
 20
1341.7712307448
 10
2453.3754259175
 20
1350.3551399302
 10
2441.3977179052
 20
1359.0729907553
 10
2429.711243734
 20
1367.9215892561
 10
2418.3202849834
 20
1376.8976935671
  0
ARC
  5
3E7
330
1F
100
AcDbEntity
  8
0
  6
Continuous
 62
     7
370
    15
100
AcDbCircle
 10
2422.378975645
 20
1376.6269560435
 30
0.0
 40
4.067710497649502
100
AcDbArc
 50
113.4965090906
 51
176.1837025296
  0
LWPOLYLINE
  5
3E8
330
1F
100
AcDbEntity
  8
0
  6
Continuous
 62
     7
370
    15
100
AcDbPolyline
 90
       18
 70
   128
 43
0.0
 10
2418.3202849834
 20
1373.2232599136
 10
2429.711243734
 20
1364.2471556027
 10
2441.3977179052
 20
1355.3985571018
 10
2453.3754259175
 20
1346.6807062768
 10
2465.6399794914
 20
1338.0967970913
 10
2478.1868852559
 20
1329.6499744367
 10
2491.0115463944
 20
1321.3433329801
 10
2504.1092643289
 20
1313.17991603
 10
2517.4752404415
 20
1305.1627144219
 10
2531.1045778324
 20
1297.2946654223
 10
2544.9922831139
 20
1289.5786516524
 10
2559.13326824
 20
1282.0175000325
 10
2573.5223523705
 20
1274.6139807455
 10
2588.1542637687
 20
1267.370806223
 10
2603.0236417336
 20
1260.2906301506
 10
2618.1250385631
 20
1253.3760464962
 10
2633.4529215505
 20
1246.6295885595
 10
2649.0016750109
 20
1240.0537280439
  0
LINE
  5
3E9
330
1F
100
AcDbEntity
  8
0
  6
Continuous
 62
     7
370
    15
100
AcDbLine
 10
2418.3202849834
 20
1373.2232599136
 30
0.0
 11
2418.3202849834
 21
1376.8976935671
 31
0.0
  0
LINE
  5
3EA
330
1F
100
AcDbEntity
  8
0
  6
Continuous
 62
     7
370
    15
100
AcDbLine
 10
2758.1102909117
 20
1321.7391912887
 30
0.0
 11
2684.508421272
 21
1248.1452965649
 31
0.0
  0
LINE
  5
3EB
330
1F
100
AcDbEntity
  8
0
  6
Continuous
 62
     7
370
    15
100
AcDbLine
 10
2684.508421272
 20
1244.4708629114
 30
0.0
 11
2758.1102909117
 21
1318.0647576352
 31
0.0
  0
LINE
  5
3EC
330
1F
100
AcDbEntity
  8
0
  6
Continuous
 62
     7
370
    15
100
AcDbLine
 10
2758.1102909117
 20
1318.0647576352
 30
0.0
 11
2758.1102909117
 21
1321.7391912887
 31
0.0
  0
ARC
  5
3ED
330
1F
100
AcDbEntity
  8
0
  6
Continuous
 62
     7
370
    15
100
AcDbCircle
 10
2755.8886188864
 20
1324.1736982773
 30
0.0
 40
3.29585358686173
100
AcDbArc
 50
312.3828191457
 51
357.8202579654
  0
ARC
  5
3EE
330
1F
100
AcDbEntity
  8
0
  6
Continuous
 62
     7
370
    15
100
AcDbCircle
 10
2755.8886188864
 20
1320.4992646238
 30
0.0
 40
3.295853586861563
100
AcDbArc
 50
312.3828191457
 51
357.8202579654
  0
LINE
  5
3EF
330
1F
100
AcDbEntity
  8
0
  6
Continuous
 62
     7
370
    15
100
AcDbLine
 10
2759.1820876814
 20
1320.3739084835
 30
0.0
 11
2759.1820876814
 21
1324.048342137
 31
0.0
  0
LINE
  5
3F0
330
1F
100
AcDbEntity
  8
0
  6
Continuous
 62
     7
370
    15
100
AcDbLine
 10
2759.1820876814
 20
1328.1310461964
 30
0.0
 11
2759.1820876814
 21
1324.048342137
 31
0.0
  0
ARC
  5
3F1
330
1F
100
AcDbEntity
  8
0
  6
Continuous
 62
     8
370
    15
100
AcDbCircle
 10
2757.643087566
 20
1782.0738465447
 30
0.0
 40
1.539943376160968
100
AcDbArc
 50
2.0055028966
 51
52.994867026
  0
LINE
  5
3F2
330
1F
100
AcDbEntity
  8
0
  6
Continuous
 62
     8
370
    15
100
AcDbLine
 10
2684.1370061847
 20
1261.573255881
 30
0.0
 11
2684.1370061847
 21
1708.604940213
 31
0.0
  0
ARC
  5
3F3
330
1F
100
AcDbEntity
  8
0
  6
Continuous
 62
     8
370
    15
100
AcDbCircle
 10
2688.1346068404
 20
1712.9766840095
 30
0.0
 40
3.07682190784464
100
AcDbArc
 50
2.6758151233
 51
39.997684486
  0
ELLIPSE
  5
3F4
330
1F
100
AcDbEntity
  8
0
  6
Continuous
 62
     8
370
    15
100
AcDbEllipse
 10
2687.6725400907
 20
1712.7117226977
 30
0.0
 11
4.986160681450657
 21
1.813173165272929
 31
0.0
210
0.0
220
0.0
230
1.0
 40
0.2050299685
 41
4.465431977818761
 42
5.423367502584177
  0
ARC
  5
3F5
330
1F
100
AcDbEntity
  8
0
  6
Continuous
 62
     8
370
    15
100
AcDbCircle
 10
2689.5871080314
 20
1713.5663824432
 30
0.0
 40
2.420320582647987
100
AcDbArc
 50
3.5945497994
 51
53.1176701385
  0
ARC
  5
3F6
330
1F
100
AcDbEntity
  8
0
  6
Continuous
 62
     8
370
    15
100
AcDbCircle
 10
2755.6947318335
 20
1779.6668433466
 30
0.0
 40
2.420320582639915
100
AcDbArc
 50
3.5945497993
 51
53.1176701386
  0
ARC
  5
3F7
330
1F
100
AcDbEntity
  8
0
  6
Continuous
 62
     8
370
    15
100
AcDbCircle
 10
2690.2325837489
 20
1259.0145578192
 30
0.0
 40
0.9815695164102259
100
AcDbArc
 50
304.1192506855
 51
6.380095384
  0
ELLIPSE
  5
3F8
330
1F
100
AcDbEntity
  8
0
  6
Continuous
 62
     8
370
    15
100
AcDbEllipse
 10
2687.6725400907
 20
1263.6142761606
 30
0.0
 11
-1.387035206245855
 21
5.604458293426205
 31
0.0
210
0.0
220
0.0
230
1.0
 40
0.6928055263
 41
1.768118560185103
 42
2.552006482232014
  0
ARC
  5
3F9
330
1F
100
AcDbEntity
  8
0
  6
Continuous
 62
     8
370
    15
100
AcDbCircle
 10
2690.8632286154
 20
1259.6753619367
 30
0.0
 40
1.140369570803384
100
AcDbArc
 50
316.0521636948
 51
2.3154589439
  0
ARC
  5
3FA
330
1F
100
AcDbEntity
  8
0
  6
Continuous
 62
     8
370
    15
100
AcDbCircle
 10
2756.9707471976
 20
1325.7758447906
 30
0.0
 40
1.140473818236796
100
AcDbArc
 50
316.0898698178
 51
2.3141435188
  0
LINE
  5
3FB
330
1F
100
AcDbEntity
  8
0
  6
Continuous
 62
     8
370
    15
100
AcDbLine
 10
2653.0842818305
 20
1702.9092703053
 30
0.0
 11
2653.0842818305
 21
1249.4603296589
 31
0.0
  0
LINE
  5
3FC
330
1F
100
AcDbEntity
  8
0
  6
Continuous
 62
     8
370
    15
100
AcDbLine
 10
2678.4462434455
 20
1704.7557988322
 30
0.0
 11
2678.4462434455
 21
1252.6154259928
 31
0.0
  0
LINE
  5
3FD
330
1F
100
AcDbEntity
  8
0
  6
Continuous
 62
     8
370
    15
100
AcDbLine
 10
2424.0064367187
 20
1833.1265431118
 30
0.0
 11
2424.0064367187
 21
1381.704154753
 31
0.0
  0
LINE
  5
3FE
330
1F
100
AcDbEntity
  8
0
  6
Continuous
 62
     8
370
    15
100
AcDbLine
 10
2682.4363399106
 20
1707.1659511461
 30
0.0
 11
2682.4363399106
 21
1256.6050901226
 31
0.0
  0
LINE
  5
3FF
330
1F
100
AcDbEntity
  8
0
  6
Continuous
 62
     8
370
    15
100
AcDbLine
 10
2761.5071669582
 20
1421.2870117927
 30
0.0
 11
2761.5071669582
 21
1437.3258315937
 31
0.0
  0
LINE
  5
400
330
1F
100
AcDbEntity
  8
0
  6
Continuous
 62
     8
370
    15
100
AcDbLine
 10
2761.5071669582
 20
1347.9882067754
 30
0.0
 11
2761.5071669582
 21
1364.0270265764
 31
0.0
  0
LINE
  5
401
330
1F
100
AcDbEntity
  8
0
  6
Continuous
 62
     8
370
    15
100
AcDbLine
 10
2761.5071669583
 20
1769.3232657084
 30
0.0
 11
2761.5071669583
 21
1785.3620855094
 31
0.0
  0
LINE
  5
402
330
1F
100
AcDbEntity
  8
0
  6
Continuous
 62
     8
370
    15
100
AcDbLine
 10
2761.5071669582
 20
1842.6220707258
 30
0.0
 11
2761.5071669582
 21
1858.6608905267
 31
0.0
  0
ARC
  5
403
330
1F
100
AcDbEntity
  8
0
  6
Continuous
 62
     8
370
    15
100
AcDbCircle
 10
2649.9021490913
 20
1704.9271374086
 30
0.0
 40
0.9123267761585884
100
AcDbArc
 50
170.7542467447
 51
236.7471857978
  0
ARC
  5
404
330
1F
100
AcDbEntity
  8
0
  6
Continuous
 62
     8
370
    15
100
AcDbCircle
 10
2683.3689541763
 20
1709.4447887388
 30
0.0
 40
1.140397908002407
100
AcDbArc
 50
316.0624176353
 51
2.3151013648
  0
ARC
  5
405
330
1F
100
AcDbEntity
  8
0
  6
Continuous
 62
     8
370
    15
100
AcDbCircle
 10
2419.4062595254
 20
1838.1783288272
 30
0.0
 40
1.087913489588162
100
AcDbArc
 50
176.5787247729
 51
228.9784881092
  0
ARC
  5
406
330
1F
100
AcDbEntity
  8
0
  6
Continuous
 62
     8
370
    15
100
AcDbCircle
 10
2756.9707471976
 20
1783.0386994466
 30
0.0
 40
1.140473818240194
100
AcDbArc
 50
316.0898698179
 51
2.3141435188
  0
ARC
  5
407
330
1F
100
AcDbEntity
  8
0
  6
Continuous
 62
     8
370
    15
100
AcDbCircle
 10
2427.8181496013
 20
1864.0085338953
 30
0.0
 40
2.512690259538826
100
AcDbArc
 50
35.1828111597
 51
99.4527483583
  0
ARC
  5
408
330
1F
100
AcDbEntity
  8
0
  6
Continuous
 62
     8
370
    15
100
AcDbCircle
 10
2661.1557072603
 20
1941.7792922449
 30
0.0
 40
2.512690259540735
100
AcDbArc
 50
35.1828111597
 51
99.4527483582
  0
ARC
  5
409
330
1F
100
AcDbEntity
  8
0
  6
Continuous
 62
     8
370
    15
100
AcDbCircle
 10
2424.4513509741
 20
1851.3142660425
 30
0.0
 40
10.74572577031446
100
AcDbArc
 50
183.1467756606
 51
235.2108138721
  0
ARC
  5
40A
330
1F
100
AcDbEntity
  8
0
  6
Continuous
 62
     8
370
    15
100
AcDbCircle
 10
2424.6396300729
 20
1847.1722514993
 30
0.0
 40
10.93897387205865
100
AcDbArc
 50
183.5643120991
 51
234.7117074707
  0
ARC
  5
40B
330
1F
100
AcDbEntity
  8
0
  6
Continuous
 62
     8
370
    15
100
AcDbCircle
 10
2753.5869781242
 20
1889.5050082262
 30
0.0
 40
3.738868700168732
100
AcDbArc
 50
64.0094121185
 51
127.2568219473
  0
ARC
  5
40C
330
1F
100
AcDbEntity
  8
0
  6
Continuous
 62
     8
370
    15
100
AcDbCircle
 10
2665.7355715001
 20
1940.0194493517
 30
0.0
 40
3.923222440032603
100
AcDbArc
 50
65.6928809539
 51
125.6175774752
  0
LINE
  5
40D
330
1F
100
AcDbEntity
  8
0
  6
Continuous
 62
     8
370
    15
100
AcDbLine
 10
2681.9103450607
 20
1251.4608505686
 30
0.0
 11
2688.2845857321
 21
1257.8344005778
 31
0.0
  0
LWPOLYLINE
  5
40E
330
1F
100
AcDbEntity
  8
0
  6
Continuous
 62
     8
370
    15
100
AcDbPolyline
 90
       11
 70
   128
 43
0.0
 10
2420.721816057
 20
1394.8065728414
 10
2419.7083429639
 20
1393.9069678847
 10
2418.4605191944
 20
1392.4858869435
 10
2417.5383150157
 20
1390.9842363383
 10
2416.9569261788
 20
1389.4267597312
 10
2416.7259326014
 20
1387.8391206655
 10
2416.849140513
 20
1386.2474796905
 10
2417.3245197377
 20
1384.6780632978
 10
2418.1442371465
 20
1383.1567317699
 10
2419.2947857287
 20
1381.7085530645
 10
2420.7572071557
 20
1380.3573897528
  0
ARC
  5
40F
330
1F
100
AcDbEntity
  8
0
  6
Continuous
 62
     8
370
    15
100
AcDbCircle
 10
2652.3784384636
 20
1239.5040393205
 30
0.0
 40
3.421211643253257
100
AcDbArc
 50
170.7541675125
 51
236.7477056175
  0
ARC
  5
410
330
1F
100
AcDbEntity
  8
0
  6
Continuous
 62
     8
370
    15
100
AcDbCircle
 10
2680.2355098983
 20
1244.2980945569
 30
0.0
 40
4.276402753710018
100
AcDbArc
 50
316.0537911236
 51
2.3154021989
  0
ARC
  5
411
330
1F
100
AcDbEntity
  8
0
  6
Continuous
 62
     8
370
    15
100
AcDbCircle
 10
2422.3927301156
 20
1372.9798051145
 30
0.0
 40
4.07971562661594
100
AcDbArc
 50
176.578873175
 51
228.9755640523
  0
ARC
  5
412
330
1F
100
AcDbEntity
  8
0
  6
Continuous
 62
     8
370
    15
100
AcDbCircle
 10
2754.5809492671
 20
1321.5420656084
 30
0.0
 40
3.534842426248713
100
AcDbArc
 50
3.1968417449
 51
47.654141901
  0
ARC
  5
413
330
1F
100
AcDbEntity
  8
0
  6
Continuous
 62
     8
370
    15
100
AcDbCircle
 10
2753.837001984
 20
1317.8920680444
 30
0.0
 40
4.276776818408528
100
AcDbArc
 50
316.0898698179
 51
2.3141435187
  0
ARC
  5
414
330
1F
100
AcDbEntity
  8
0
  6
Continuous
 62
     8
370
    15
100
AcDbCircle
 10
2756.9488147906
 20
1323.9998369828
 30
0.0
 40
2.233799578036805
100
AcDbArc
 50
1.2442293794
 51
49.6442633029
  0
ARC
  5
415
330
1F
100
AcDbEntity
  8
0
  6
Continuous
 62
     8
370
    15
100
AcDbCircle
 10
2424.4273826702
 20
1385.7018824322
 30
0.0
 40
10.71496074318673
100
AcDbArc
 50
182.4674731922
 51
235.252572231
  0
ARC
  5
416
330
1F
100
AcDbEntity
  8
0
  6
Continuous
 62
     8
370
    15
100
AcDbCircle
 10
2424.6396300729
 20
1382.1522591304
 30
0.0
 40
10.93897387205817
100
AcDbArc
 50
183.5643120991
 51
234.7117074707
  0
ENDSEC
  0
SECTION
  2
OBJECTS
  0
DICTIONARY
  5
C
330
0
100
AcDbDictionary
281
     1
  3
ACAD_GROUP
350
D
  3
ACAD_LAYOUT
350
1A
  3
ACAD_MATERIAL
350
3B
  3
ACAD_MLEADERSTYLE
350
418
  3
ACAD_MLINESTYLE
350
17
  3
ACAD_PLOTSETTINGS
350
19
  3
ACAD_PLOTSTYLENAME
350
E
  3
ACAD_TABLESTYLE
350
417
  0
DICTIONARY
  5
D
102
{ACAD_REACTORS
330
C
102
}
330
C
100
AcDbDictionary
281
     1
  0
DICTIONARY
  5
1A
102
{ACAD_REACTORS
330
C
102
}
330
C
100
AcDbDictionary
281
     1
  3
Layout1
350
1E
  3
Layout2
350
26
  3
Model
350
22
  0
DICTIONARY
  5
3B
102
{ACAD_REACTORS
330
C
102
}
330
C
100
AcDbDictionary
281
     1
  3
ByBlock
350
3D
  3
ByLayer
350
3C
  3
Global
350
3E
  0
DICTIONARY
  5
418
102
{ACAD_REACTORS
330
C
102
}
330
C
100
AcDbDictionary
281
     1
  0
DICTIONARY
  5
17
102
{ACAD_REACTORS
330
C
102
}
330
C
100
AcDbDictionary
281
     1
  3
Standard
350
18
  0
DICTIONARY
  5
19
102
{ACAD_REACTORS
330
C
102
}
330
C
100
AcDbDictionary
281
     1
  0
ACDBDICTIONARYWDFLT
  5
E
102
{ACAD_REACTORS
330
C
102
}
330
C
100
AcDbDictionary
281
     1
  3
Normal
350
F
100
AcDbDictionaryWithDefault
340
F
  0
DICTIONARY
  5
417
102
{ACAD_REACTORS
330
C
102
}
330
C
100
AcDbDictionary
281
     1
  0
LAYOUT
  5
1E
102
{ACAD_REACTORS
330
1A
102
}
330
1A
100
AcDbPlotSettings
  1

  2
none_device
  4

  6

 40
0.0
 41
0.0
 42
0.0
 43
0.0
 44
0.0
 45
0.0
 46
0.0
 47
0.0
 48
0.0
 49
0.0
140
0.0
141
0.0
142
1.0
143
1.0
 70
   688
 72
     0
 73
     0
 74
     5
  7

 75
    16
 76
     0
 77
     2
 78
   300
147
1.0
148
0.0
149
0.0
100
AcDbLayout
  1
Layout1
 70
     1
 71
     1
 10
0.0
 20
0.0
 11
420.0
 21
297.0
 12
0.0
 22
0.0
 32
0.0
 14
1.0000000000E+20
 24
1.0000000000E+20
 34
1.0000000000E+20
 15
-1.0000000000E+20
 25
-1.0000000000E+20
 35
-1.0000000000E+20
146
0.0
 13
0.0
 23
0.0
 33
0.0
 16
1.0
 26
0.0
 36
0.0
 17
0.0
 27
1.0
 37
0.0
 76
     0
330
1B
  0
LAYOUT
  5
26
102
{ACAD_REACTORS
330
1A
102
}
330
1A
100
AcDbPlotSettings
  1

  2
none_device
  4

  6

 40
0.0
 41
0.0
 42
0.0
 43
0.0
 44
0.0
 45
0.0
 46
0.0
 47
0.0
 48
0.0
 49
0.0
140
0.0
141
0.0
142
1.0
143
1.0
 70
   688
 72
     0
 73
     0
 74
     5
  7

 75
    16
 76
     0
 77
     2
 78
   300
147
1.0
148
0.0
149
0.0
100
AcDbLayout
  1
Layout2
 70
     1
 71
     2
 10
0.0
 20
0.0
 11
0.0
 21
0.0
 12
0.0
 22
0.0
 32
0.0
 14
0.0
 24
0.0
 34
0.0
 15
0.0
 25
0.0
 35
0.0
146
0.0
 13
0.0
 23
0.0
 33
0.0
 16
1.0
 26
0.0
 36
0.0
 17
0.0
 27
1.0
 37
0.0
 76
     0
330
23
  0
LAYOUT
  5
22
102
{ACAD_REACTORS
330
1A
102
}
330
1A
100
AcDbPlotSettings
  1

  2
none_device
  4

  6

 40
0.0
 41
0.0
 42
0.0
 43
0.0
 44
0.0
 45
0.0
 46
0.0
 47
0.0
 48
0.0
 49
0.0
140
0.0
141
0.0
142
1.0
143
1.0
 70
  1712
 72
     0
 73
     0
 74
     0
  7

 75
     0
 76
     0
 77
     2
 78
   300
147
1.0
148
0.0
149
0.0
100
AcDbLayout
  1
Model
 70
     1
 71
     0
 10
0.0
 20
0.0
 11
2970.0
 21
2100.0
 12
0.0
 22
0.0
 32
0.0
 14
0.0
 24
0.0
 34
0.0
 15
2970.0
 25
2100.0
 35
0.0
146
0.0
 13
0.0
 23
0.0
 33
0.0
 16
1.0
 26
0.0
 36
0.0
 17
0.0
 27
1.0
 37
0.0
 76
     0
330
1F
331
29
  0
MATERIAL
  5
3D
102
{ACAD_REACTORS
330
3B
102
}
330
3B
100
AcDbMaterial
  1
ByBlock
  0
MATERIAL
  5
3C
102
{ACAD_REACTORS
330
3B
102
}
330
3B
100
AcDbMaterial
  1
ByLayer
  0
MATERIAL
  5
3E
102
{ACAD_REACTORS
330
3B
102
}
330
3B
100
AcDbMaterial
  1
Global
  0
MLINESTYLE
  5
18
102
{ACAD_REACTORS
330
17
102
}
330
17
100
AcDbMlineStyle
  2
Standard
 70
     0
  3

 62
   256
 51
90.0
 52
90.0
 71
     2
 49
0.5
 62
   256
  6
BYLAYER
 49
-0.5
 62
   256
  6
BYLAYER
  0
ACDBPLACEHOLDER
  5
F
102
{ACAD_REACTORS
330
E
102
}
330
E
  0
ENDSEC
  0
EOF
