  0
SECTION
  2
HEADER
  9
$ACADVER
  1
AC1018
  9
$ACADMAINTVER
 70
     0
  9
$DWGCODEPAGE
  3
ANSI_1252
  9
$INSBASE
 10
0.0
 20
0.0
 30
0.0
  9
$EXTMIN
 10
0.0
 20
0.0
 30
0.0
  9
$EXTMAX
 10
2376.0
 20
1680.0
 30
0.0
  9
$LIMMIN
 10
0.0
 20
0.0
  9
$LIMMAX
 10
2376.0
 20
1680.0
  9
$ORTHOMODE
 70
     0
  9
$REGENMODE
 70
     1
  9
$FILLMODE
 70
     1
  9
$QTEXTMODE
 70
     0
  9
$MIRRTEXT
 70
     1
  9
$LTSCALE
 40
8.0
  9
$ATTMODE
 70
     1
  9
$TEXTSIZE
 40
28.0
  9
$TRACEWID
 40
1.0
  9
$TEXTSTYLE
  7
Standard
  9
$CLAYER
  8
0
  9
$CELTYPE
  6
ByLayer
  9
$CECOLOR
 62
   256
  9
$CELTSCALE
 40
1.0
  9
$DISPSILH
 70
     0
  9
$DIMSCALE
 40
1.0
  9
$DIMASZ
 40
26.416
  9
$DIMEXO
 40
8.0
  9
$DIMDLI
 40
3.75
  9
$DIMRND
 40
0.0
  9
$DIMDLE
 40
0.0
  9
$DIMEXE
 40
8.0
  9
$DIMTP
 40
0.0
  9
$DIMTM
 40
0.0
  9
$DIMTXT
 40
28.0
  9
$DIMCEN
 40
2.5
  9
$DIMTSZ
 40
0.0
  9
$DIMTOL
 70
     0
  9
$DIMLIM
 70
     0
  9
$DIMTIH
 70
     1
  9
$DIMTOH
 70
     1
  9
$DIMSE1
 70
     0
  9
$DIMSE2
 70
     0
  9
$DIMTAD
 70
     1
  9
$DIMZIN
 70
     0
  9
$DIMBLK
  1

  9
$DIMASO
 70
     1
  9
$DIMSHO
 70
     1
  9
$DIMPOST
  1

  9
$DIMAPOST
  1

  9
$DIMALT
 70
     0
  9
$DIMALTD
 70
     3
  9
$DIMALTF
 40
0.0393700787
  9
$DIMLFAC
 40
1.0
  9
$DIMTOFL
 70
     1
  9
$DIMTVP
 40
0.0
  9
$DIMTIX
 70
     0
  9
$DIMSOXD
 70
     0
  9
$DIMSAH
 70
     0
  9
$DIMBLK1
  1

  9
$DIMBLK2
  1

  9
$DIMSTYLE
  2
ISO-25
  9
$DIMCLRD
 70
     0
  9
$DIMCLRE
 70
     0
  9
$DIMCLRT
 70
     0
  9
$DIMTFAC
 40
1.0
  9
$DIMGAP
 40
12.192
  9
$DIMJUST
 70
     0
  9
$DIMSD1
 70
     0
  9
$DIMSD2
 70
     0
  9
$DIMTOLJ
 70
     0
  9
$DIMTZIN
 70
     0
  9
$DIMALTZ
 70
     0
  9
$DIMALTTZ
 70
     0
  9
$DIMUPT
 70
     0
  9
$DIMDEC
 70
     2
  9
$DIMTDEC
 70
     2
  9
$DIMALTU
 70
     2
  9
$DIMALTTD
 70
     3
  9
$DIMTXSTY
  7
Standard
  9
$DIMAUNIT
 70
     0
  9
$DIMADEC
 70
     2
  9
$DIMALTRND
 40
0.0
  9
$DIMAZIN
 70
     0
  9
$DIMDSEP
 70
    44
  9
$DIMATFIT
 70
     3
  9
$DIMFRAC
 70
     0
  9
$DIMLDRBLK
  1

  9
$DIMLUNIT
 70
     2
  9
$DIMLWD
 70
    -2
  9
$DIMLWE
 70
    -2
  9
$DIMTMOVE
 70
     0
  9
$LUNITS
 70
     2
  9
$LUPREC
 70
     2
  9
$SKETCHINC
 40
1.0
  9
$FILLETRAD
 40
10.0
  9
$AUNITS
 70
     0
  9
$AUPREC
 70
     2
  9
$MENU
  1
.
  9
$ELEVATION
 40
0.0
  9
$PELEVATION
 40
0.0
  9
$THICKNESS
 40
0.0
  9
$LIMCHECK
 70
     0
  9
$CHAMFERA
 40
10.0
  9
$CHAMFERB
 40
10.0
  9
$CHAMFERC
 40
20.0
  9
$CHAMFERD
 40
0.0
  9
$SKPOLY
 70
     0
  9
$TDCREATE
 40
2456941.48451368
  9
$TDUCREATE
 40
2456941.442847014
  9
$TDUPDATE
 40
2456941.484514224
  9
$TDUUPDATE
 40
2456941.442847558
  9
$TDINDWG
 40
0.0000000116
  9
$TDUSRTIMER
 40
0.0000000116
  9
$USRTIMER
 70
     1
  9
$ANGBASE
 50
0.0
  9
$ANGDIR
 70
     0
  9
$PDMODE
 70
     0
  9
$PDSIZE
 40
-1.0
  9
$PLINEWID
 40
0.0
  9
$SPLFRAME
 70
     0
  9
$SPLINETYPE
 70
     6
  9
$SPLINESEGS
 70
     8
  9
$HANDSEED
  5
409
  9
$SURFTAB1
 70
     6
  9
$SURFTAB2
 70
     6
  9
$SURFTYPE
 70
     6
  9
$SURFU
 70
     6
  9
$SURFV
 70
     6
  9
$UCSBASE
  2

  9
$UCSNAME
  2

  9
$UCSORG
 10
0.0
 20
0.0
 30
0.0
  9
$UCSXDIR
 10
1.0
 20
0.0
 30
0.0
  9
$UCSYDIR
 10
0.0
 20
1.0
 30
0.0
  9
$UCSORTHOREF
  2

  9
$UCSORTHOVIEW
 70
     0
  9
$UCSORGTOP
 10
0.0
 20
0.0
 30
0.0
  9
$UCSORGBOTTOM
 10
0.0
 20
0.0
 30
0.0
  9
$UCSORGLEFT
 10
0.0
 20
0.0
 30
0.0
  9
$UCSORGRIGHT
 10
0.0
 20
0.0
 30
0.0
  9
$UCSORGFRONT
 10
0.0
 20
0.0
 30
0.0
  9
$UCSORGBACK
 10
0.0
 20
0.0
 30
0.0
  9
$PUCSBASE
  2

  9
$PUCSNAME
  2

  9
$PUCSORG
 10
0.0
 20
0.0
 30
0.0
  9
$PUCSXDIR
 10
1.0
 20
0.0
 30
0.0
  9
$PUCSYDIR
 10
0.0
 20
1.0
 30
0.0
  9
$PUCSORTHOREF
  2

  9
$PUCSORTHOVIEW
 70
     0
  9
$PUCSORGTOP
 10
0.0
 20
0.0
 30
0.0
  9
$PUCSORGBOTTOM
 10
0.0
 20
0.0
 30
0.0
  9
$PUCSORGLEFT
 10
0.0
 20
0.0
 30
0.0
  9
$PUCSORGRIGHT
 10
0.0
 20
0.0
 30
0.0
  9
$PUCSORGFRONT
 10
0.0
 20
0.0
 30
0.0
  9
$PUCSORGBACK
 10
0.0
 20
0.0
 30
0.0
  9
$USERI1
 70
     0
  9
$USERI2
 70
     0
  9
$USERI3
 70
     0
  9
$USERI4
 70
     0
  9
$USERI5
 70
     0
  9
$USERR1
 40
0.0
  9
$USERR2
 40
0.0
  9
$USERR3
 40
0.0
  9
$USERR4
 40
0.0
  9
$USERR5
 40
0.0
  9
$WORLDVIEW
 70
     1
  9
$SHADEDGE
 70
     3
  9
$SHADEDIF
 70
    70
  9
$TILEMODE
 70
     1
  9
$MAXACTVP
 70
    64
  9
$PINSBASE
 10
0.0
 20
0.0
 30
0.0
  9
$PLIMCHECK
 70
     0
  9
$PEXTMIN
 10
1.0000000000E+20
 20
1.0000000000E+20
 30
1.0000000000E+20
  9
$PEXTMAX
 10
-1.0000000000E+20
 20
-1.0000000000E+20
 30
-1.0000000000E+20
  9
$PLIMMIN
 10
0.0
 20
0.0
  9
$PLIMMAX
 10
420.0
 20
297.0
  9
$UNITMODE
 70
     0
  9
$VISRETAIN
 70
     1
  9
$PLINEGEN
 70
     0
  9
$PSLTSCALE
 70
     1
  9
$TREEDEPTH
 70
  3020
  9
$CMLSTYLE
  2
Standard
  9
$CMLJUST
 70
     0
  9
$CMLSCALE
 40
20.0
  9
$PROXYGRAPHICS
 70
     1
  9
$MEASUREMENT
 70
     1
  9
$CELWEIGHT
370
    -1
  9
$ENDCAPS
280
     0
  9
$JOINSTYLE
280
     0
  9
$LWDISPLAY
290
     1
  9
$INSUNITS
 70
     4
  9
$HYPERLINKBASE
  1

  9
$STYLESHEET
  1

  9
$XEDIT
290
     1
  9
$CEPSNTYPE
380
     0
  9
$PSTYLEMODE
290
     1
  9
$FINGERPRINTGUID
  2
{2CB1BB0D-370A-489D-909F-E0A114F91B6F}
  9
$VERSIONGUID
  2
{FAEB1C32-E019-11D5-929B-00C0DF256EC4}
  9
$EXTNAMES
290
     1
  9
$PSVPSCALE
 40
0.0
  9
$OLESTARTUP
290
     0
  9
$SORTENTS
280
   127
  9
$INDEXCTL
280
     0
  9
$HIDETEXT
280
     1
  9
$XCLIPFRAME
290
     0
  9
$HALOGAP
280
     0
  9
$OBSCOLOR
 70
   257
  9
$OBSLTYPE
280
     0
  9
$INTERSECTIONDISPLAY
280
     0
  9
$INTERSECTIONCOLOR
 70
   257
  9
$DIMASSOC
280
     2
  9
$PROJECTNAME
  1

  0
ENDSEC
  0
SECTION
  2
CLASSES
  0
CLASS
  1
ACDBDICTIONARYWDFLT
  2
AcDbDictionaryWithDefault
  3
ObjectDBX Classes
 90
        0
 91
        4
280
     0
281
     0
  0
CLASS
  1
VISUALSTYLE
  2
AcDbVisualStyle
  3
ObjectDBX Classes
 90
     4095
 91
        4
280
     0
281
     0
  0
CLASS
  1
MATERIAL
  2
AcDbMaterial
  3
ObjectDBX Classes
 90
     1153
 91
        4
280
     0
281
     0
  0
ENDSEC
  0
SECTION
  2
TABLES
  0
TABLE
  2
VPORT
  5
8
330
0
100
AcDbSymbolTable
 70
     1
  0
VPORT
  5
29
330
8
100
AcDbSymbolTableRecord
100
AcDbViewportTableRecord
  2
*Active
 70
     0
 10
0.0
 20
0.0
 11
1.0
 21
1.0
 12
1188.0
 22
840.0
 13
0.0
 23
0.0
 14
10.0
 24
10.0
 15
10.0
 25
10.0
 16
0.0
 26
0.0
 36
1.0
 17
0.0
 27
0.0
 37
0.0
 40
1680.0
 41
1.4142857143
 42
50.0
 43
0.0
 44
0.0
 50
0.0
 51
0.0
 71
     0
 72
  2000
 73
     1
 74
     3
 75
     0
 76
     0
 77
     0
 78
     0
281
     0
 65
     1
110
0.0
120
0.0
130
0.0
111
1.0
121
0.0
131
0.0
112
0.0
122
1.0
132
0.0
 79
     0
146
0.0
  0
ENDTAB
  0
TABLE
  2
LTYPE
  5
5
330
0
100
AcDbSymbolTable
 70
     6
  0
LTYPE
  5
14
330
5
100
AcDbSymbolTableRecord
100
AcDbLinetypeTableRecord
  2
ByBlock
 70
     0
  3

 72
    65
 73
     0
 40
0.0
  0
LTYPE
  5
15
330
5
100
AcDbSymbolTableRecord
100
AcDbLinetypeTableRecord
  2
ByLayer
 70
     0
  3

 72
    65
 73
     0
 40
0.0
  0
LTYPE
  5
16
330
5
100
AcDbSymbolTableRecord
100
AcDbLinetypeTableRecord
  2
Continuous
 70
     0
  3
Solid line
 72
    65
 73
     0
 40
0.0
  0
LTYPE
  5
3F
330
5
100
AcDbSymbolTableRecord
100
AcDbLinetypeTableRecord
  2
HIDDEN
 70
     0
  3
Hidden __ __ __ __ __ __ __ __ __ __ __ __ __ __
 72
    65
 73
     2
 40
1.905
 49
1.27
 74
     0
 49
-0.635
 74
     0
  0
LTYPE
  5
40
330
5
100
AcDbSymbolTableRecord
100
AcDbLinetypeTableRecord
  2
PHANTOM
 70
     0
  3
Phantom ______  __  __  ______  __  __  ______
 72
    65
 73
     6
 40
12.7
 49
6.35
 74
     0
 49
-1.27
 74
     0
 49
1.27
 74
     0
 49
-1.27
 74
     0
 49
1.27
 74
     0
 49
-1.27
 74
     0
  0
LTYPE
  5
41
330
5
100
AcDbSymbolTableRecord
100
AcDbLinetypeTableRecord
  2
CENTER
 70
     0
  3
Center ____ _ ____ _ ____ _ ____ _ ____ _ ____
 72
    65
 73
     4
 40
10.16
 49
6.35
 74
     0
 49
-1.27
 74
     0
 49
1.27
 74
     0
 49
-1.27
 74
     0
  0
LTYPE
  5
42
330
5
100
AcDbSymbolTableRecord
100
AcDbLinetypeTableRecord
  2
CENTERX2
 70
     0
  3
Center (2x) ________  __  ________  __  _____
 72
    65
 73
     4
 40
20.32
 49
12.7
 74
     0
 49
-2.54
 74
     0
 49
2.54
 74
     0
 49
-2.54
 74
     0
  0
LTYPE
  5
43
330
5
100
AcDbSymbolTableRecord
100
AcDbLinetypeTableRecord
  2
DOT2
 70
     0
  3
Dot (.5x) ........................................
 72
    65
 73
     2
 40
0.635
 49
0.0
 74
     0
 49
-0.635
 74
     0
  0
ENDTAB
  0
TABLE
  2
LAYER
  5
2
330
0
100
AcDbSymbolTable
 70
     3
  0
LAYER
  5
10
330
2
100
AcDbSymbolTableRecord
100
AcDbLayerTableRecord
  2
0
 70
     0
 62
     7
  6
Continuous
370
    -3
390
F
  0
LAYER
  5
44
330
2
100
AcDbSymbolTableRecord
100
AcDbLayerTableRecord
  2
MEDIÇÕES
 70
     0
 62
     7
  6
Continuous
370
    -3
390
F
  0
LAYER
  5
45
330
2
100
AcDbSymbolTableRecord
100
AcDbLayerTableRecord
  2
ACABAMENTO
 70
     0
 62
     7
  6
Continuous
370
    80
390
F
  0
ENDTAB
  0
TABLE
  2
STYLE
  5
3
330
0
100
AcDbSymbolTable
 70
     4
  0
STYLE
  5
11
330
3
100
AcDbSymbolTableRecord
100
AcDbTextStyleTableRecord
  2
Standard
 70
     0
 40
0.0
 41
1.0
 50
0.0
 71
     0
 42
28.0
  3
txt
  4

  0
STYLE
  5
111
330
3
100
AcDbSymbolTableRecord
100
AcDbTextStyleTableRecord
  2
SLDTEXTSTYLE0
 70
     0
 40
0.0
 41
0.6875
 50
0.0
 71
     0
 42
0.2
  3
TXT
  4

  0
STYLE
  5
113
330
3
100
AcDbSymbolTableRecord
100
AcDbTextStyleTableRecord
  2
SLDTEXTSTYLE1
 70
     0
 40
0.0
 41
0.75
 50
0.0
 71
     0
 42
0.2
  3
TXT
  4

  0
STYLE
  5
115
330
3
100
AcDbSymbolTableRecord
100
AcDbTextStyleTableRecord
  2
SLDTEXTSTYLE2
 70
     0
 40
0.0
 41
0.605
 50
0.0
 71
     0
 42
0.2
  3
TXT
  4

  0
ENDTAB
  0
TABLE
  2
VIEW
  5
6
330
0
100
AcDbSymbolTable
 70
     0
  0
ENDTAB
  0
TABLE
  2
UCS
  5
7
330
0
100
AcDbSymbolTable
 70
     0
  0
ENDTAB
  0
TABLE
  2
APPID
  5
9
330
0
100
AcDbSymbolTable
 70
     1
  0
APPID
  5
12
330
9
100
AcDbSymbolTableRecord
100
AcDbRegAppTableRecord
  2
ACAD
 70
     0
  0
ENDTAB
  0
TABLE
  2
DIMSTYLE
  5
A
330
0
100
AcDbSymbolTable
 70
     3
100
AcDbDimStyleTable
  0
DIMSTYLE
105
27
330
A
100
AcDbSymbolTableRecord
100
AcDbDimStyleTableRecord
  2
ISO-25
 70
     0
 41
2.5
 42
0.625
 43
3.75
 44
1.25
 73
     0
 74
     0
 77
     1
 78
     8
140
2.5
141
2.5
143
0.0393700787
147
0.625
171
     3
172
     1
178
     0
271
     2
272
     2
274
     3
278
    44
283
     0
284
     8
340
11
  0
DIMSTYLE
105
172
102
{ACAD_REACTORS
330
171
330
280
102
}
330
A
100
AcDbSymbolTableRecord
100
AcDbDimStyleTableRecord
  2
SLDDIMSTYLE0
 70
     0
 41
26.416
 44
0.0
 45
0.000000001
 73
     0
 74
     0
 77
     1
 78
    12
 79
     3
140
28.0
147
7.0
173
     1
178
     0
271
     0
272
     0
276
     2
284
    12
340
113
  0
DIMSTYLE
105
2E9
102
{ACAD_REACTORS
330
2E8
102
}
330
A
100
AcDbSymbolTableRecord
100
AcDbDimStyleTableRecord
  2
SLDDIMSTYLE1
 70
     0
 41
26.416
 44
0.0
 45
0.000000001
 73
     0
 74
     0
 77
     1
 78
    12
 79
     3
140
28.0
147
7.0
173
     1
178
     0
271
     2
272
     2
276
     2
284
    12
340
113
  0
ENDTAB
  0
TABLE
  2
BLOCK_RECORD
  5
1
330
0
100
AcDbSymbolTable
 70
     5
  0
BLOCK_RECORD
  5
1F
330
1
100
AcDbSymbolTableRecord
100
AcDbBlockTableRecord
  2
*Model_Space
340
22
  0
BLOCK_RECORD
  5
1B
330
1
100
AcDbSymbolTableRecord
100
AcDbBlockTableRecord
  2
*Paper_Space
340
1E
  0
BLOCK_RECORD
  5
23
330
1
100
AcDbSymbolTableRecord
100
AcDbBlockTableRecord
  2
*Paper_Space0
340
26
  0
BLOCK_RECORD
  5
46
330
1
100
AcDbSymbolTableRecord
100
AcDbBlockTableRecord
  2
Logo_Next.V3
340
0
102
{BLKREFS
331
110
102
}
  0
BLOCK_RECORD
  5
173
330
1
100
AcDbSymbolTableRecord
100
AcDbBlockTableRecord
  2
_D
340
0
  0
BLOCK_RECORD
  5
281
330
1
100
AcDbSymbolTableRecord
100
AcDbBlockTableRecord
  2
_D_1
340
0
  0
BLOCK_RECORD
  5
2EA
330
1
100
AcDbSymbolTableRecord
100
AcDbBlockTableRecord
  2
_D_2
340
0
  0
ENDTAB
  0
ENDSEC
  0
SECTION
  2
BLOCKS
  0
BLOCK
  5
20
330
1F
100
AcDbEntity
  8
0
100
AcDbBlockBegin
  2
*Model_Space
 70
     0
 10
0.0
 20
0.0
 30
0.0
  3
*Model_Space
  1

  0
ENDBLK
  5
21
330
1F
100
AcDbEntity
  8
0
100
AcDbBlockEnd
  0
BLOCK
  5
1C
330
1B
100
AcDbEntity
 67
     1
  8
0
100
AcDbBlockBegin
  2
*Paper_Space
 70
     0
 10
0.0
 20
0.0
 30
0.0
  3
*Paper_Space
  1

  0
ENDBLK
  5
1D
330
1B
100
AcDbEntity
 67
     1
  8
0
100
AcDbBlockEnd
  0
BLOCK
  5
24
330
23
100
AcDbEntity
  8
0
100
AcDbBlockBegin
  2
*Paper_Space0
 70
     0
 10
0.0
 20
0.0
 30
0.0
  3
*Paper_Space0
  1

  0
ENDBLK
  5
25
330
23
100
AcDbEntity
  8
0
100
AcDbBlockEnd
  0
BLOCK
  5
47
330
46
100
AcDbEntity
  8
0
100
AcDbBlockBegin
  2
Logo_Next.V3
 70
     0
 10
0.0
 20
0.0
 30
0.0
  3
Logo_Next.V3
  1

  0
ARC
  5
49
330
46
100
AcDbEntity
  8
0
  6
Continuous
 62
     7
370
     0
100
AcDbCircle
 10
-1269.7440578244
 20
338.1367710985
 30
0.0
 40
28.50209094679906
100
AcDbArc
 50
33.8993301947
 51
90.0
  0
ARC
  5
4A
330
46
100
AcDbEntity
  8
0
  6
Continuous
 62
     7
370
     0
100
AcDbCircle
 10
-905.3481369306
 20
338.1367710985
 30
0.0
 40
28.50209094679872
100
AcDbArc
 50
90.0
 51
180.0
  0
ARC
  5
4B
330
46
100
AcDbEntity
  8
0
  6
Continuous
 62
     7
370
     0
100
AcDbCircle
 10
-706.9336080674
 20
338.1367710985
 30
0.0
 40
28.50209094679883
100
AcDbArc
 50
0.0
 51
90.0
  0
ARC
  5
4C
330
46
100
AcDbEntity
  8
0
  6
Continuous
 62
     7
370
     0
100
AcDbCircle
 10
-706.9336080674
 20
-338.1367710973
 30
0.0
 40
28.50209094679872
100
AcDbArc
 50
270.0
 51
0.0
  0
ARC
  5
4D
330
46
100
AcDbEntity
  8
0
  6
Continuous
 62
     7
370
     0
100
AcDbCircle
 10
-970.9029139167
 20
-338.1367710973
 30
0.0
 40
28.50209094679872
100
AcDbArc
 50
215.8239333713
 51
270.0
  0
ARC
  5
4E
330
46
100
AcDbEntity
  8
0
  6
Continuous
 62
     7
370
     0
100
AcDbCircle
 10
-1360.6359221837
 20
-338.1367710973
 30
0.0
 40
28.50209094679894
100
AcDbArc
 50
270.0
 51
0.0
  0
ARC
  5
4F
330
46
100
AcDbEntity
  8
0
  6
Continuous
 62
     7
370
     0
100
AcDbCircle
 10
-1420.1950211649
 20
-350.2632187442
 30
0.0
 40
16.37564329990209
100
AcDbArc
 50
180.0
 51
270.0
  0
ARC
  5
50
330
46
100
AcDbEntity
  8
0
  6
Continuous
 62
     7
370
     0
100
AcDbCircle
 10
-1420.1950211649
 20
350.2632187454
 30
0.0
 40
16.37564329990226
100
AcDbArc
 50
90.0
 51
180.0
  0
ARC
  5
51
330
46
100
AcDbEntity
  8
0
  6
Continuous
 62
     7
370
     0
100
AcDbCircle
 10
219.0003732359
 20
479.0891849831
 30
0.0
 40
28.50209094679879
100
AcDbArc
 50
38.8556584896
 51
105.8183764148
  0
ARC
  5
52
330
46
100
AcDbEntity
  8
0
  6
Continuous
 62
     7
370
     0
100
AcDbCircle
 10
483.4240883674
 20
555.0911299301
 30
0.0
 40
28.50209094679852
100
AcDbArc
 50
106.1668587455
 51
171.8012460536
  0
ARC
  5
53
330
46
100
AcDbEntity
  8
0
  6
Continuous
 62
     7
370
     0
100
AcDbCircle
 10
724.5967235975
 20
625.0070083107
 30
0.0
 40
28.50209094679889
100
AcDbArc
 50
347.4974268902
 51
106.1668587455
  0
ARC
  5
54
330
46
100
AcDbEntity
  8
0
  6
Continuous
 62
     7
370
     0
100
AcDbCircle
 10
783.1387770088
 20
233.291332702
 30
0.0
 40
28.50209094680577
100
AcDbArc
 50
180.0
 51
270.0
  0
ARC
  5
55
330
46
100
AcDbEntity
  8
0
  6
Continuous
 62
     7
370
     0
100
AcDbCircle
 10
783.1387770088
 20
338.0034546405
 30
0.0
 40
28.50209094682339
100
AcDbArc
 50
90.0
 51
180.0
  0
ARC
  5
56
330
46
100
AcDbEntity
  8
0
  6
Continuous
 62
     7
370
     0
100
AcDbCircle
 10
1419.8987208585
 20
350.1299022874
 30
0.0
 40
16.37564329990215
100
AcDbArc
 50
0.0
 51
90.0
  0
ARC
  5
57
330
46
100
AcDbEntity
  8
0
  6
Continuous
 62
     7
370
     0
100
AcDbCircle
 10
1419.8987208585
 20
221.4772705084
 30
0.0
 40
16.37564329990207
100
AcDbArc
 50
270.0
 51
0.0
  0
ARC
  5
58
330
46
100
AcDbEntity
  8
0
  6
Continuous
 62
     7
370
     0
100
AcDbCircle
 10
1268.9024917469
 20
-338.8684220149
 30
0.0
 40
28.50209094679877
100
AcDbArc
 50
270.0
 51
0.0
  0
ARC
  5
59
330
46
100
AcDbEntity
  8
0
  6
Continuous
 62
     7
370
     0
100
AcDbCircle
 10
798.266628699
 20
-464.2882363535
 30
0.0
 40
28.50209094682453
100
AcDbArc
 50
219.5992848036
 51
286.1919412867
  0
ARC
  5
5A
330
46
100
AcDbEntity
  8
0
  6
Continuous
 62
     7
370
     0
100
AcDbCircle
 10
478.633187277
 20
-555.0135096288
 30
0.0
 40
28.50209094679826
100
AcDbArc
 50
286.0985506514
 51
351.7882282766
  0
ARC
  5
5B
330
46
100
AcDbEntity
  8
0
  6
Continuous
 62
     7
370
     0
100
AcDbCircle
 10
222.5064310254
 20
-628.933680473
 30
0.0
 40
28.50209094682354
100
AcDbArc
 50
166.6872067774
 51
286.0985506513
  0
ARC
  5
5C
330
46
100
AcDbEntity
  8
0
  6
Continuous
 62
     7
370
     0
100
AcDbCircle
 10
50.873025227
 20
58.8703922357
 30
0.0
 40
28.50209094680373
100
AcDbArc
 50
0.0
 51
90.0
  0
ARC
  5
5D
330
46
100
AcDbEntity
  8
0
  6
Continuous
 62
     7
370
     0
100
AcDbCircle
 10
50.873025227
 20
-41.2558520443
 30
0.0
 40
28.50209094680559
100
AcDbArc
 50
270.0
 51
0.0
  0
ARC
  5
5E
330
46
100
AcDbEntity
  8
0
  6
Continuous
 62
     7
370
     0
100
AcDbCircle
 10
175.3047338627
 20
-230.0788696096
 30
0.0
 40
28.5020909467988
100
AcDbArc
 50
0.0
 51
90.0
  0
ARC
  5
5F
330
46
100
AcDbEntity
  8
0
  6
Continuous
 62
     7
370
     0
100
AcDbCircle
 10
175.3047338627
 20
-338.9611464202
 30
0.0
 40
28.50209094678911
100
AcDbArc
 50
270.0
 51
0.0
  0
ARC
  5
60
330
46
100
AcDbEntity
  8
0
  6
Continuous
 62
     7
370
     0
100
AcDbCircle
 10
-573.4144022261
 20
-338.9611464202
 30
0.0
 40
28.50209094679906
100
AcDbArc
 50
180.0
 51
270.0
  0
ARC
  5
61
330
46
100
AcDbEntity
  8
0
  6
Continuous
 62
     7
370
     0
100
AcDbCircle
 10
-573.4144022261
 20
338.5440264035
 30
0.0
 40
28.50209094681338
100
AcDbArc
 50
90.0
 51
180.0
  0
ARC
  5
62
330
46
100
AcDbEntity
  8
0
  6
Continuous
 62
     7
370
     0
100
AcDbCircle
 10
600.9354962069
 20
67.3257827449
 30
0.0
 40
60.50209094711666
100
AcDbArc
 50
167.4974268903
 51
224.796493861
  0
ARC
  5
63
330
46
100
AcDbEntity
  8
0
  6
Continuous
 62
     7
370
     0
100
AcDbCircle
 10
537.2582151411
 20
-148.7752438968
 30
0.0
 40
60.50209094711669
100
AcDbArc
 50
39.5992848035
 51
171.7882282765
  0
ARC
  5
64
330
46
100
AcDbEntity
  8
0
  6
Continuous
 62
     7
370
     0
100
AcDbCircle
 10
371.542787717
 20
0.9062783119
 30
0.0
 40
60.50209094713527
100
AcDbArc
 50
346.6872067774
 51
44.28188045
  0
ARC
  5
65
330
46
100
AcDbEntity
  8
0
  6
Continuous
 62
     7
370
     0
100
AcDbCircle
 10
434.0190668676
 20
212.1912077327
 30
0.0
 40
60.5020909471167
100
AcDbArc
 50
218.8556584896
 51
351.8012460535
  0
ARC
  5
66
330
46
100
AcDbEntity
  8
0
  6
Continuous
 62
     7
370
     0
100
AcDbCircle
 10
-706.9336080674
 20
-338.1367710973
 30
0.0
 40
44.50209094693457
100
AcDbArc
 50
270.0
 51
0.0
  0
ARC
  5
67
330
46
100
AcDbEntity
  8
0
  6
Continuous
 62
     7
370
     0
100
AcDbCircle
 10
-970.9029139167
 20
-338.1367710973
 30
0.0
 40
44.50209094693466
100
AcDbArc
 50
215.8239333713
 51
270.0
  0
ARC
  5
68
330
46
100
AcDbEntity
  8
0
  6
Continuous
 62
     7
370
     0
100
AcDbCircle
 10
-1360.6359221837
 20
-338.1367710973
 30
0.0
 40
44.50209094693457
100
AcDbArc
 50
270.0
 51
0.0
  0
ARC
  5
69
330
46
100
AcDbEntity
  8
0
  6
Continuous
 62
     7
370
     0
100
AcDbCircle
 10
-1420.1950211649
 20
-350.2632187442
 30
0.0
 40
32.37564330003829
100
AcDbArc
 50
180.0
 51
270.0
  0
ARC
  5
6A
330
46
100
AcDbEntity
  8
0
  6
Continuous
 62
     7
370
     0
100
AcDbCircle
 10
-1420.1950211649
 20
350.2632187454
 30
0.0
 40
32.37564330003812
100
AcDbArc
 50
90.0
 51
180.0
  0
ARC
  5
6B
330
46
100
AcDbEntity
  8
0
  6
Continuous
 62
     7
370
     0
100
AcDbCircle
 10
-1269.7440578244
 20
338.1367710985
 30
0.0
 40
44.50209094693486
100
AcDbArc
 50
33.8993301947
 51
90.0
  0
ARC
  5
6C
330
46
100
AcDbEntity
  8
0
  6
Continuous
 62
     7
370
     0
100
AcDbCircle
 10
-905.3481369306
 20
338.1367710985
 30
0.0
 40
44.50209094693463
100
AcDbArc
 50
90.0
 51
180.0
  0
ARC
  5
6D
330
46
100
AcDbEntity
  8
0
  6
Continuous
 62
     7
370
     0
100
AcDbCircle
 10
-706.9336080674
 20
338.1367710985
 30
0.0
 40
44.50209094693457
100
AcDbArc
 50
0.0
 51
90.0
  0
ARC
  5
6E
330
46
100
AcDbEntity
  8
0
  6
Continuous
 62
     7
370
     0
100
AcDbCircle
 10
600.9354962069
 20
67.3257827449
 30
0.0
 40
44.50209094693484
100
AcDbArc
 50
167.4974268903
 51
224.796493861
  0
ARC
  5
6F
330
46
100
AcDbEntity
  8
0
  6
Continuous
 62
     7
370
     0
100
AcDbCircle
 10
434.0190668676
 20
212.1912077327
 30
0.0
 40
44.50209094693493
100
AcDbArc
 50
218.8556584895
 51
351.8012460535
  0
ARC
  5
70
330
46
100
AcDbEntity
  8
0
  6
Continuous
 62
     7
370
     0
100
AcDbCircle
 10
371.542787717
 20
0.9062783119
 30
0.0
 40
44.502090946947
100
AcDbArc
 50
346.6872067774
 51
44.2818804499
  0
ARC
  5
71
330
46
100
AcDbEntity
  8
0
  6
Continuous
 62
     7
370
     0
100
AcDbCircle
 10
537.2582151411
 20
-148.7752438968
 30
0.0
 40
44.50209094693459
100
AcDbArc
 50
39.5992848036
 51
171.7882282766
  0
ARC
  5
72
330
46
100
AcDbEntity
  8
0
  6
Continuous
 62
     7
370
     0
100
AcDbCircle
 10
175.3047338627
 20
-230.0788696096
 30
0.0
 40
44.50209094693457
100
AcDbArc
 50
0.0
 51
90.0
  0
ARC
  5
73
330
46
100
AcDbEntity
  8
0
  6
Continuous
 62
     7
370
     0
100
AcDbCircle
 10
50.873025227
 20
-41.2558520443
 30
0.0
 40
44.50209094696117
100
AcDbArc
 50
270.0
 51
0.0
  0
ARC
  5
74
330
46
100
AcDbEntity
  8
0
  6
Continuous
 62
     7
370
     0
100
AcDbCircle
 10
50.873025227
 20
58.8703922357
 30
0.0
 40
44.50209094696117
100
AcDbArc
 50
0.0
 51
90.0
  0
ARC
  5
75
330
46
100
AcDbEntity
  8
0
  6
Continuous
 62
     7
370
     0
100
AcDbCircle
 10
222.5064310254
 20
-628.933680473
 30
0.0
 40
44.50209094695929
100
AcDbArc
 50
166.6872067774
 51
286.0985506513
  0
ARC
  5
76
330
46
100
AcDbEntity
  8
0
  6
Continuous
 62
     7
370
     0
100
AcDbCircle
 10
478.633187277
 20
-555.0135096288
 30
0.0
 40
44.50209094693454
100
AcDbArc
 50
286.0985506514
 51
351.7882282766
  0
ARC
  5
77
330
46
100
AcDbEntity
  8
0
  6
Continuous
 62
     7
370
     0
100
AcDbCircle
 10
798.266628699
 20
-464.2882363535
 30
0.0
 40
44.50209094696201
100
AcDbArc
 50
219.5992848036
 51
286.1919412867
  0
ARC
  5
78
330
46
100
AcDbEntity
  8
0
  6
Continuous
 62
     7
370
     0
100
AcDbCircle
 10
1268.9024917469
 20
-338.8684220149
 30
0.0
 40
44.50209094693491
100
AcDbArc
 50
270.0
 51
0.0
  0
ARC
  5
79
330
46
100
AcDbEntity
  8
0
  6
Continuous
 62
     7
370
     0
100
AcDbCircle
 10
1419.8987208585
 20
221.4772705084
 30
0.0
 40
32.37564330003829
100
AcDbArc
 50
270.0
 51
0.0
  0
ARC
  5
7A
330
46
100
AcDbEntity
  8
0
  6
Continuous
 62
     7
370
     0
100
AcDbCircle
 10
1419.8987208585
 20
350.1299022874
 30
0.0
 40
32.37564330003829
100
AcDbArc
 50
0.0
 51
90.0
  0
ARC
  5
7B
330
46
100
AcDbEntity
  8
0
  6
Continuous
 62
     7
370
     0
100
AcDbCircle
 10
783.1387770088
 20
338.0034546405
 30
0.0
 40
44.50209094695947
100
AcDbArc
 50
90.0
 51
180.0
  0
ARC
  5
7C
330
46
100
AcDbEntity
  8
0
  6
Continuous
 62
     7
370
     0
100
AcDbCircle
 10
783.1387770088
 20
233.291332702
 30
0.0
 40
44.50209094695936
100
AcDbArc
 50
180.0
 51
270.0
  0
ARC
  5
7D
330
46
100
AcDbEntity
  8
0
  6
Continuous
 62
     7
370
     0
100
AcDbCircle
 10
724.5967235975
 20
625.0070083107
 30
0.0
 40
44.50209094693464
100
AcDbArc
 50
347.4974268903
 51
106.1668587455
  0
ARC
  5
7E
330
46
100
AcDbEntity
  8
0
  6
Continuous
 62
     7
370
     0
100
AcDbCircle
 10
483.4240883674
 20
555.0911299301
 30
0.0
 40
44.50209094693464
100
AcDbArc
 50
106.1668587455
 51
171.8012460535
  0
ARC
  5
7F
330
46
100
AcDbEntity
  8
0
  6
Continuous
 62
     7
370
     0
100
AcDbCircle
 10
219.0003732359
 20
479.0891849831
 30
0.0
 40
44.50209094693437
100
AcDbArc
 50
38.8556584895
 51
105.8183764146
  0
ARC
  5
80
330
46
100
AcDbEntity
  8
0
  6
Continuous
 62
     7
370
     0
100
AcDbCircle
 10
-573.4144022261
 20
338.5440264035
 30
0.0
 40
44.50209094695947
100
AcDbArc
 50
90.0
 51
180.0
  0
ARC
  5
81
330
46
100
AcDbEntity
  8
0
  6
Continuous
 62
     7
370
     0
100
AcDbCircle
 10
-573.4144022261
 20
-338.9611464202
 30
0.0
 40
44.5020909469348
100
AcDbArc
 50
180.0
 51
270.0
  0
ARC
  5
82
330
46
100
AcDbEntity
  8
0
  6
Continuous
 62
     7
370
     0
100
AcDbCircle
 10
175.3047338627
 20
-338.9611464202
 30
0.0
 40
44.50209094695958
100
AcDbArc
 50
270.0
 51
0.0
  0
LINE
  5
83
330
46
100
AcDbEntity
  8
0
  6
Continuous
 62
     7
370
     0
100
AcDbLine
 10
-1420.1950211649
 20
366.6388620453
 30
0.0
 11
-1269.7440578244
 21
366.6388620453
 31
0.0
  0
LINE
  5
84
330
46
100
AcDbEntity
  8
0
  6
Continuous
 62
     7
370
     0
100
AcDbLine
 10
-1246.0867863496
 20
354.0333963601
 30
0.0
 11
-933.8502278774
 21
-110.635356069
 31
0.0
  0
LINE
  5
85
330
46
100
AcDbEntity
  8
0
  6
Continuous
 62
     7
370
     0
100
AcDbLine
 10
-933.8502278774
 20
338.1367710985
 30
0.0
 11
-933.8502278774
 21
-110.635356069
 31
0.0
  0
LINE
  5
86
330
46
100
AcDbEntity
  8
0
  6
Continuous
 62
     7
370
     0
100
AcDbLine
 10
-905.3481369306
 20
366.6388620453
 30
0.0
 11
-706.9336080674
 21
366.6388620453
 31
0.0
  0
LINE
  5
87
330
46
100
AcDbEntity
  8
0
  6
Continuous
 62
     7
370
     0
100
AcDbLine
 10
-678.4315171206
 20
338.1367710985
 30
0.0
 11
-678.4315171206
 21
-338.1367710973
 31
0.0
  0
LINE
  5
88
330
46
100
AcDbEntity
  8
0
  6
Continuous
 62
     7
370
     0
100
AcDbLine
 10
-706.9336080674
 20
-366.6388620441
 30
0.0
 11
-970.9029139167
 21
-366.6388620441
 31
0.0
  0
LINE
  5
89
330
46
100
AcDbEntity
  8
0
  6
Continuous
 62
     7
370
     0
100
AcDbLine
 10
-1332.1338312369
 20
113.584676544
 30
0.0
 11
-994.0129622533
 21
-354.8189428449
 31
0.0
  0
LINE
  5
8A
330
46
100
AcDbEntity
  8
0
  6
Continuous
 62
     7
370
     0
100
AcDbLine
 10
-1332.1338312369
 20
-338.1367710973
 30
0.0
 11
-1332.1338312369
 21
113.584676544
 31
0.0
  0
LINE
  5
8B
330
46
100
AcDbEntity
  8
0
  6
Continuous
 62
     7
370
     0
100
AcDbLine
 10
-1420.1950211649
 20
-366.6388620441
 30
0.0
 11
-1360.6359221837
 21
-366.6388620441
 31
0.0
  0
LINE
  5
8C
330
46
100
AcDbEntity
  8
0
  6
Continuous
 62
     7
370
     0
100
AcDbLine
 10
-1436.5706644648
 20
-350.2632187442
 30
0.0
 11
-1436.5706644648
 21
350.2632187454
 31
0.0
  0
LINE
  5
8D
330
46
100
AcDbEntity
  8
0
  6
Continuous
 62
     7
370
     0
100
AcDbLine
 10
-573.4144022261
 20
367.0461173503
 30
0.0
 11
-22.0234260579
 21
367.0461173503
 31
0.0
  0
LINE
  5
8E
330
46
100
AcDbEntity
  8
0
  6
Continuous
 62
     7
370
     0
100
AcDbLine
 10
-22.0234260579
 20
367.0461173503
 30
0.0
 11
-79.2382142116
 21
424.2167798991
 31
0.0
  0
LINE
  5
8F
330
46
100
AcDbEntity
  8
0
  6
Continuous
 62
     7
370
     0
100
AcDbLine
 10
-79.2382142116
 20
424.2167798991
 30
0.0
 11
211.2310212077
 21
506.5119192998
 31
0.0
  0
LINE
  5
90
330
46
100
AcDbEntity
  8
0
  6
Continuous
 62
     7
370
     0
100
AcDbLine
 10
241.1957751493
 20
496.9702733796
 30
0.0
 11
415.1441225095
 21
281.0520140314
 31
0.0
  0
LINE
  5
91
330
46
100
AcDbEntity
  8
0
  6
Continuous
 62
     7
370
     0
100
AcDbLine
 10
415.1441225095
 20
281.0520140314
 30
0.0
 11
455.2133078144
 21
559.1557392506
 31
0.0
  0
LINE
  5
92
330
46
100
AcDbEntity
  8
0
  6
Continuous
 62
     7
370
     0
100
AcDbLine
 10
475.4880915028
 20
582.4661028453
 30
0.0
 11
716.660726733
 21
652.3819812259
 31
0.0
  0
LINE
  5
93
330
46
100
AcDbEntity
  8
0
  6
Continuous
 62
     7
370
     0
100
AcDbLine
 10
752.4229241111
 20
618.8367770901
 30
0.0
 11
632.1327392465
 21
76.3581107036
 31
0.0
  0
LINE
  5
94
330
46
100
AcDbEntity
  8
0
  6
Continuous
 62
     7
370
     0
100
AcDbLine
 10
632.1327392465
 20
76.3581107036
 30
0.0
 11
1032.3434311279
 21
-326.7057054417
 31
0.0
  0
LINE
  5
95
330
46
100
AcDbEntity
  8
0
  6
Continuous
 62
     7
370
     0
100
AcDbLine
 10
1032.3434311279
 20
-326.7057054417
 30
0.0
 11
1032.3434311279
 21
204.7892417552
 31
0.0
  0
LINE
  5
96
330
46
100
AcDbEntity
  8
0
  6
Continuous
 62
     7
370
     0
100
AcDbLine
 10
1032.3434311279
 20
204.7892417552
 30
0.0
 11
783.1387770088
 21
204.7892417552
 31
0.0
  0
LINE
  5
97
330
46
100
AcDbEntity
  8
0
  6
Continuous
 62
     7
370
     0
100
AcDbLine
 10
754.636686062
 20
233.291332702
 30
0.0
 11
754.636686062
 21
338.0034546405
 31
0.0
  0
LINE
  5
98
330
46
100
AcDbEntity
  8
0
  6
Continuous
 62
     7
370
     0
100
AcDbLine
 10
783.1387770088
 20
366.5055455874
 30
0.0
 11
1419.8987208585
 21
366.5055455873
 31
0.0
  0
LINE
  5
99
330
46
100
AcDbEntity
  8
0
  6
Continuous
 62
     7
370
     0
100
AcDbLine
 10
1436.2743641584
 20
350.1299022874
 30
0.0
 11
1436.2743641584
 21
221.4772705084
 31
0.0
  0
LINE
  5
9A
330
46
100
AcDbEntity
  8
0
  6
Continuous
 62
     7
370
     0
100
AcDbLine
 10
1419.8987208585
 20
205.1016272085
 30
0.0
 11
1297.4045826937
 21
205.1016272085
 31
0.0
  0
LINE
  5
9B
330
46
100
AcDbEntity
  8
0
  6
Continuous
 62
     7
370
     0
100
AcDbLine
 10
1297.4045826937
 20
205.1016272085
 30
0.0
 11
1297.4045826937
 21
-338.8684220149
 31
0.0
  0
LINE
  5
9C
330
46
100
AcDbEntity
  8
0
  6
Continuous
 62
     7
370
     0
100
AcDbLine
 10
1268.9024917469
 20
-367.3705129617
 30
0.0
 11
1071.7356161465
 21
-367.3705129617
 31
0.0
  0
LINE
  5
9D
330
46
100
AcDbEntity
  8
0
  6
Continuous
 62
     7
370
     0
100
AcDbLine
 10
1071.7356161465
 20
-367.3705129617
 30
0.0
 11
1108.3272843859
 21
-403.9339636769
 31
0.0
  0
LINE
  5
9E
330
46
100
AcDbEntity
  8
0
  6
Continuous
 62
     7
370
     0
100
AcDbLine
 10
1108.3272843859
 20
-403.9339636769
 30
0.0
 11
806.2146088248
 21
-491.659732481
 31
0.0
  0
LINE
  5
9F
330
46
100
AcDbEntity
  8
0
  6
Continuous
 62
     7
370
     0
100
AcDbLine
 10
776.3051633977
 20
-482.4558787477
 30
0.0
 11
556.2836879605
 21
-216.4888427672
 31
0.0
  0
LINE
  5
A0
330
46
100
AcDbEntity
  8
0
  6
Continuous
 62
     7
370
     0
100
AcDbLine
 10
556.2836879605
 20
-216.4888427672
 30
0.0
 11
506.8430436102
 21
-559.0845284202
 31
0.0
  0
LINE
  5
A1
330
46
100
AcDbEntity
  8
0
  6
Continuous
 62
     7
370
     0
100
AcDbLine
 10
486.5365420353
 20
-582.3979243917
 30
0.0
 11
230.4097857837
 21
-656.3180952359
 31
0.0
  0
LINE
  5
A2
330
46
100
AcDbEntity
  8
0
  6
Continuous
 62
     7
370
     0
100
AcDbLine
 10
194.770263027
 20
-622.3705887393
 30
0.0
 11
340.1989267522
 21
-7.777038547
 31
0.0
  0
LINE
  5
A3
330
46
100
AcDbEntity
  8
0
  6
Continuous
 62
     7
370
     0
100
AcDbLine
 10
340.1989267522
 20
-7.777038547
 30
0.0
 11
127.4116994873
 21
210.4121361347
 31
0.0
  0
LINE
  5
A4
330
46
100
AcDbEntity
  8
0
  6
Continuous
 62
     7
370
     0
100
AcDbLine
 10
-335.9814184191
 20
210.4121361347
 30
0.0
 11
127.4116994873
 21
210.4121361347
 31
0.0
  0
LINE
  5
A5
330
46
100
AcDbEntity
  8
0
  6
Continuous
 62
     7
370
     0
100
AcDbLine
 10
-335.9814184191
 20
87.3724831825
 30
0.0
 11
-335.9814184191
 21
210.4121361347
 31
0.0
  0
LINE
  5
A6
330
46
100
AcDbEntity
  8
0
  6
Continuous
 62
     7
370
     0
100
AcDbLine
 10
50.873025227
 20
87.3724831825
 30
0.0
 11
-335.9814184191
 21
87.3724831825
 31
0.0
  0
LINE
  5
A7
330
46
100
AcDbEntity
  8
0
  6
Continuous
 62
     7
370
     0
100
AcDbLine
 10
79.3751161738
 20
-41.2558520443
 30
0.0
 11
79.3751161738
 21
58.8703922357
 31
0.0
  0
LINE
  5
A8
330
46
100
AcDbEntity
  8
0
  6
Continuous
 62
     7
370
     0
100
AcDbLine
 10
-335.9814184191
 20
-69.7579429911
 30
0.0
 11
50.873025227
 21
-69.7579429911
 31
0.0
  0
LINE
  5
A9
330
46
100
AcDbEntity
  8
0
  6
Continuous
 62
     7
370
     0
100
AcDbLine
 10
-335.9814184191
 20
-201.5767786628
 30
0.0
 11
-335.9814184191
 21
-69.7579429911
 31
0.0
  0
LINE
  5
AA
330
46
100
AcDbEntity
  8
0
  6
Continuous
 62
     7
370
     0
100
AcDbLine
 10
175.3047338627
 20
-201.5767786628
 30
0.0
 11
-335.9814184191
 21
-201.5767786628
 31
0.0
  0
LINE
  5
AB
330
46
100
AcDbEntity
  8
0
  6
Continuous
 62
     7
370
     0
100
AcDbLine
 10
203.8068248095
 20
-338.9611464202
 30
0.0
 11
203.8068248095
 21
-230.0788696096
 31
0.0
  0
LINE
  5
AC
330
46
100
AcDbEntity
  8
0
  6
Continuous
 62
     7
370
     0
100
AcDbLine
 10
-573.4144022261
 20
-367.463237367
 30
0.0
 11
175.3047338627
 21
-367.463237367
 31
0.0
  0
LINE
  5
AD
330
46
100
AcDbEntity
  8
0
  6
Continuous
 62
     7
370
     0
100
AcDbLine
 10
-601.9164931729
 20
338.5440264035
 30
0.0
 11
-601.9164931729
 21
-338.9611464202
 31
0.0
  0
LINE
  5
AE
330
46
100
AcDbEntity
  8
0
  6
Continuous
 62
     7
370
     0
100
AcDbLine
 10
643.4398403071
 20
538.4864891005
 30
0.0
 11
541.8681345411
 21
80.4234846353
 31
0.0
  0
LINE
  5
AF
330
46
100
AcDbEntity
  8
0
  6
Continuous
 62
     7
370
     0
100
AcDbLine
 10
558.002374253
 20
24.6965668447
 30
0.0
 11
940.0824642201
 21
-360.1073933575
 31
0.0
  0
LINE
  5
B0
330
46
100
AcDbEntity
  8
0
  6
Continuous
 62
     7
370
     0
100
AcDbLine
 10
940.0824642201
 20
-360.1073933575
 30
0.0
 11
819.5559041187
 21
-395.105213705
 31
0.0
  0
LINE
  5
B1
330
46
100
AcDbEntity
  8
0
  6
Continuous
 62
     7
370
     0
100
AcDbLine
 10
819.5559041187
 20
-395.105213705
 30
0.0
 11
583.8763588228
 21
-110.2103416066
 31
0.0
  0
LINE
  5
B2
330
46
100
AcDbEntity
  8
0
  6
Continuous
 62
     7
370
     0
100
AcDbLine
 10
477.376457811
 20
-140.1335919693
 30
0.0
 11
424.3301709981
 21
-507.7143393608
 31
0.0
  0
LINE
  5
B3
330
46
100
AcDbEntity
  8
0
  6
Continuous
 62
     7
370
     0
100
AcDbLine
 10
424.3301709981
 20
-507.7143393608
 30
0.0
 11
305.2292360602
 21
-542.0877940798
 31
0.0
  0
LINE
  5
B4
330
46
100
AcDbEntity
  8
0
  6
Continuous
 62
     7
370
     0
100
AcDbLine
 10
305.2292360602
 20
-542.0877940798
 30
0.0
 11
430.4190351438
 21
-13.0253582726
 31
0.0
  0
LINE
  5
B5
330
46
100
AcDbEntity
  8
0
  6
Continuous
 62
     7
370
     0
100
AcDbLine
 10
414.8570555678
 20
43.1481675869
 30
0.0
 11
87.3979037844
 21
378.920398753
 31
0.0
  0
LINE
  5
B6
330
46
100
AcDbEntity
  8
0
  6
Continuous
 62
     7
370
     0
100
AcDbLine
 10
87.3979037844
 20
378.920398753
 30
0.0
 11
196.9908346265
 21
409.9700398897
 31
0.0
  0
LINE
  5
B7
330
46
100
AcDbEntity
  8
0
  6
Continuous
 62
     7
370
     0
100
AcDbLine
 10
196.9908346265
 20
409.9700398897
 30
0.0
 11
386.9043401735
 21
174.2345806761
 31
0.0
  0
LINE
  5
B8
330
46
100
AcDbEntity
  8
0
  6
Continuous
 62
     7
370
     0
100
AcDbLine
 10
493.9027860619
 20
203.5631613472
 30
0.0
 11
537.7437459019
 21
507.8452213852
 31
0.0
  0
LINE
  5
B9
330
46
100
AcDbEntity
  8
0
  6
Continuous
 62
     7
370
     0
100
AcDbLine
 10
537.7437459019
 20
507.8452213852
 30
0.0
 11
643.4398403071
 21
538.4864891005
 31
0.0
  0
LINE
  5
BA
330
46
100
AcDbEntity
  8
0
  6
Continuous
 62
     7
370
     0
100
AcDbLine
 10
1564.1861711638
 20
382.5055455875
 30
0.0
 11
1589.0074976929
 21
382.5055455875
 31
0.0
  0
LINE
  5
BB
330
46
100
AcDbEntity
  8
0
  6
Continuous
 62
     7
370
     0
100
AcDbLine
 10
1589.0074976929
 20
382.5055455875
 30
0.0
 11
1589.0074976929
 21
189.1016272084
 31
0.0
  0
LINE
  5
BC
330
46
100
AcDbEntity
  8
0
  6
Continuous
 62
     7
370
     0
100
AcDbLine
 10
1564.1861711638
 20
189.1016272084
 30
0.0
 11
1589.0074976929
 21
189.1016272084
 31
0.0
  0
LINE
  5
BD
330
46
100
AcDbEntity
  8
0
  6
Continuous
 62
     7
370
     0
100
AcDbLine
 10
1564.1861711638
 20
382.5055455875
 30
0.0
 11
1564.1861711638
 21
189.1016272084
 31
0.0
  0
LINE
  5
BE
330
46
100
AcDbEntity
  8
0
  6
Continuous
 62
     7
370
     0
100
AcDbLine
 10
-1589.007497693
 20
382.6388620454
 30
0.0
 11
-1589.007497693
 21
-382.6388620442
 31
0.0
  0
LINE
  5
BF
330
46
100
AcDbEntity
  8
0
  6
Continuous
 62
     7
370
     0
100
AcDbLine
 10
-1564.1861711639
 20
-382.6388620442
 30
0.0
 11
-1589.007497693
 21
-382.6388620442
 31
0.0
  0
LINE
  5
C0
330
46
100
AcDbEntity
  8
0
  6
Continuous
 62
     7
370
     0
100
AcDbLine
 10
-1564.1861711639
 20
382.6388620454
 30
0.0
 11
-1564.1861711639
 21
-382.6388620442
 31
0.0
  0
LINE
  5
C1
330
46
100
AcDbEntity
  8
0
  6
Continuous
 62
     7
370
     0
100
AcDbLine
 10
-1564.1861711639
 20
382.6388620454
 30
0.0
 11
-1589.007497693
 21
382.6388620454
 31
0.0
  0
LINE
  5
C2
330
46
100
AcDbEntity
  8
0
  6
Continuous
 62
     7
370
     0
100
AcDbLine
 10
1500.5140726723
 20
382.5055455875
 30
0.0
 11
1500.5140726723
 21
189.1016272084
 31
0.0
  0
LINE
  5
C3
330
46
100
AcDbEntity
  8
0
  6
Continuous
 62
     7
370
     0
100
AcDbLine
 10
1475.3689897093
 20
189.1016272084
 30
0.0
 11
1500.5140726723
 21
189.1016272084
 31
0.0
  0
LINE
  5
C4
330
46
100
AcDbEntity
  8
0
  6
Continuous
 62
     7
370
     0
100
AcDbLine
 10
1475.3689897093
 20
382.5055455875
 30
0.0
 11
1475.3689897093
 21
189.1016272084
 31
0.0
  0
LINE
  5
C5
330
46
100
AcDbEntity
  8
0
  6
Continuous
 62
     7
370
     0
100
AcDbLine
 10
1475.3689897093
 20
382.5055455875
 30
0.0
 11
1500.5140726723
 21
382.5055455875
 31
0.0
  0
LINE
  5
C6
330
46
100
AcDbEntity
  8
0
  6
Continuous
 62
     7
370
     0
100
AcDbLine
 10
1519.9394586523
 20
382.5055455875
 30
0.0
 11
1544.7607851814
 21
382.5055455875
 31
0.0
  0
LINE
  5
C7
330
46
100
AcDbEntity
  8
0
  6
Continuous
 62
     7
370
     0
100
AcDbLine
 10
1544.7607851814
 20
382.5055455875
 30
0.0
 11
1544.7607851814
 21
189.1016272084
 31
0.0
  0
LINE
  5
C8
330
46
100
AcDbEntity
  8
0
  6
Continuous
 62
     7
370
     0
100
AcDbLine
 10
1519.9394586523
 20
189.1016272084
 30
0.0
 11
1544.7607851814
 21
189.1016272084
 31
0.0
  0
LINE
  5
C9
330
46
100
AcDbEntity
  8
0
  6
Continuous
 62
     7
370
     0
100
AcDbLine
 10
1519.9394586523
 20
382.5055455875
 30
0.0
 11
1519.9394586523
 21
189.1016272084
 31
0.0
  0
LINE
  5
CA
330
46
100
AcDbEntity
  8
0
  6
Continuous
 62
     7
370
     0
100
AcDbLine
 10
-662.4315171205
 20
338.1367710985
 30
0.0
 11
-662.4315171205
 21
-338.1367710973
 31
0.0
  0
LINE
  5
CB
330
46
100
AcDbEntity
  8
0
  6
Continuous
 62
     7
370
     0
100
AcDbLine
 10
-706.9336080674
 20
-382.6388620442
 30
0.0
 11
-970.9029139167
 21
-382.6388620442
 31
0.0
  0
LINE
  5
CC
330
46
100
AcDbEntity
  8
0
  6
Continuous
 62
     7
370
     0
100
AcDbLine
 10
-1316.1338312368
 20
64.0830744123
 30
0.0
 11
-1006.9860726851
 21
-364.1836855391
 31
0.0
  0
LINE
  5
CD
330
46
100
AcDbEntity
  8
0
  6
Continuous
 62
     7
370
     0
100
AcDbLine
 10
-1316.1338312368
 20
-338.1367710973
 30
0.0
 11
-1316.1338312368
 21
64.0830744123
 31
0.0
  0
LINE
  5
CE
330
46
100
AcDbEntity
  8
0
  6
Continuous
 62
     7
370
     0
100
AcDbLine
 10
-1420.1950211649
 20
-382.6388620442
 30
0.0
 11
-1360.6359221837
 21
-382.6388620442
 31
0.0
  0
LINE
  5
CF
330
46
100
AcDbEntity
  8
0
  6
Continuous
 62
     7
370
     0
100
AcDbLine
 10
-1452.570664465
 20
-350.2632187442
 30
0.0
 11
-1452.570664465
 21
350.2632187454
 31
0.0
  0
LINE
  5
D0
330
46
100
AcDbEntity
  8
0
  6
Continuous
 62
     7
370
     0
100
AcDbLine
 10
-1420.1950211649
 20
382.6388620454
 30
0.0
 11
-1269.7440578244
 21
382.6388620454
 31
0.0
  0
LINE
  5
D1
330
46
100
AcDbEntity
  8
0
  6
Continuous
 62
     7
370
     0
100
AcDbLine
 10
-1232.8064854655
 20
362.9571628536
 30
0.0
 11
-949.8502278775
 21
-58.1368046455
 31
0.0
  0
LINE
  5
D2
330
46
100
AcDbEntity
  8
0
  6
Continuous
 62
     7
370
     0
100
AcDbLine
 10
-949.8502278775
 20
338.1367710985
 30
0.0
 11
-949.8502278775
 21
-58.1368046455
 31
0.0
  0
LINE
  5
D3
330
46
100
AcDbEntity
  8
0
  6
Continuous
 62
     7
370
     0
100
AcDbLine
 10
-905.3481369306
 20
382.6388620454
 30
0.0
 11
-706.9336080674
 21
382.6388620454
 31
0.0
  0
LINE
  5
D4
330
46
100
AcDbEntity
  8
0
  6
Continuous
 62
     7
370
     0
100
AcDbLine
 10
813.9258771
 20
-413.4009179536
 30
0.0
 11
571.5480196325
 21
-120.4089715546
 31
0.0
  0
LINE
  5
D5
330
46
100
AcDbEntity
  8
0
  6
Continuous
 62
     7
370
     0
100
AcDbLine
 10
970.424662393
 20
-367.9576864555
 30
0.0
 11
813.9258771
 21
-413.4009179536
 31
0.0
  0
LINE
  5
D6
330
46
100
AcDbEntity
  8
0
  6
Continuous
 62
     7
370
     0
100
AcDbLine
 10
569.3561959229
 20
35.9700194433
 30
0.0
 11
970.424662393
 21
-367.9576864555
 31
0.0
  0
LINE
  5
D7
330
46
100
AcDbEntity
  8
0
  6
Continuous
 62
     7
370
     0
100
AcDbLine
 10
664.9020759478
 20
561.3671579455
 30
0.0
 11
557.4887151172
 21
76.9597493004
 31
0.0
  0
LINE
  5
D8
330
46
100
AcDbEntity
  8
0
  6
Continuous
 62
     7
370
     0
100
AcDbLine
 10
523.3787131079
 20
520.3395752975
 30
0.0
 11
664.9020759478
 21
561.3671579455
 31
0.0
  0
LINE
  5
D9
330
46
100
AcDbEntity
  8
0
  6
Continuous
 62
     7
370
     0
100
AcDbLine
 10
478.0663167413
 20
205.8448798797
 30
0.0
 11
523.3787131079
 21
520.3395752975
 31
0.0
  0
LINE
  5
DA
330
46
100
AcDbEntity
  8
0
  6
Continuous
 62
     7
370
     0
100
AcDbLine
 10
202.8113378896
 20
428.2488514848
 30
0.0
 11
399.3640025638
 21
184.2723500063
 31
0.0
  0
LINE
  5
DB
330
46
100
AcDbEntity
  8
0
  6
Continuous
 62
     7
370
     0
100
AcDbLine
 10
57.1800880804
 20
386.9889088033
 30
0.0
 11
202.8113378896
 21
428.2488514848
 31
0.0
  0
LINE
  5
DC
330
46
100
AcDbEntity
  8
0
  6
Continuous
 62
     7
370
     0
100
AcDbLine
 10
403.4024384667
 20
31.9771449357
 30
0.0
 11
57.1800880804
 21
386.9889088033
 31
0.0
  0
LINE
  5
DD
330
46
100
AcDbEntity
  8
0
  6
Continuous
 62
     7
370
     0
100
AcDbLine
 10
283.352886667
 20
-565.0545074705
 30
0.0
 11
414.8489954296
 21
-9.3410858472
 31
0.0
  0
LINE
  5
DE
330
46
100
AcDbEntity
  8
0
  6
Continuous
 62
     7
370
     0
100
AcDbLine
 10
438.6908029515
 20
-520.2227785313
 30
0.0
 11
283.352886667
 21
-565.0545074705
 31
0.0
  0
LINE
  5
DF
330
46
100
AcDbEntity
  8
0
  6
Continuous
 62
     7
370
     0
100
AcDbLine
 10
493.2124083095
 20
-142.4189085374
 30
0.0
 11
438.6908029515
 21
-520.2227785313
 31
0.0
  0
LINE
  5
E0
330
46
100
AcDbEntity
  8
0
  6
Continuous
 62
     7
370
     0
100
AcDbLine
 10
-1475.6927461448
 20
-382.6388620442
 30
0.0
 11
-1500.5140726739
 21
-382.6388620442
 31
0.0
  0
LINE
  5
E1
330
46
100
AcDbEntity
  8
0
  6
Continuous
 62
     7
370
     0
100
AcDbLine
 10
-1500.5140726739
 20
382.6388620454
 30
0.0
 11
-1500.5140726739
 21
-382.6388620442
 31
0.0
  0
LINE
  5
E2
330
46
100
AcDbEntity
  8
0
  6
Continuous
 62
     7
370
     0
100
AcDbLine
 10
-1475.6927461448
 20
382.6388620454
 30
0.0
 11
-1500.5140726739
 21
382.6388620454
 31
0.0
  0
LINE
  5
E3
330
46
100
AcDbEntity
  8
0
  6
Continuous
 62
     7
370
     0
100
AcDbLine
 10
-1475.6927461448
 20
382.6388620454
 30
0.0
 11
-1475.6927461448
 21
-382.6388620442
 31
0.0
  0
LINE
  5
E4
330
46
100
AcDbEntity
  8
0
  6
Continuous
 62
     7
370
     0
100
AcDbLine
 10
-1544.7607851839
 20
382.6388620454
 30
0.0
 11
-1544.7607851839
 21
-382.6388620442
 31
0.0
  0
LINE
  5
E5
330
46
100
AcDbEntity
  8
0
  6
Continuous
 62
     7
370
     0
100
AcDbLine
 10
-1519.9394586548
 20
-382.6388620442
 30
0.0
 11
-1544.7607851839
 21
-382.6388620442
 31
0.0
  0
LINE
  5
E6
330
46
100
AcDbEntity
  8
0
  6
Continuous
 62
     7
370
     0
100
AcDbLine
 10
-1519.9394586548
 20
382.6388620454
 30
0.0
 11
-1519.9394586548
 21
-382.6388620442
 31
0.0
  0
LINE
  5
E7
330
46
100
AcDbEntity
  8
0
  6
Continuous
 62
     7
370
     0
100
AcDbLine
 10
-1519.9394586548
 20
382.6388620454
 30
0.0
 11
-1544.7607851839
 21
382.6388620454
 31
0.0
  0
LINE
  5
E8
330
46
100
AcDbEntity
  8
0
  6
Continuous
 62
     7
370
     0
100
AcDbLine
 10
219.8068248097
 20
-338.9611464202
 30
0.0
 11
219.8068248097
 21
-230.0788696096
 31
0.0
  0
LINE
  5
E9
330
46
100
AcDbEntity
  8
0
  6
Continuous
 62
     7
370
     0
100
AcDbLine
 10
175.3047338627
 20
-185.5767786627
 30
0.0
 11
-319.9814184189
 21
-185.5767786627
 31
0.0
  0
LINE
  5
EA
330
46
100
AcDbEntity
  8
0
  6
Continuous
 62
     7
370
     0
100
AcDbLine
 10
-319.9814184189
 20
-185.5767786627
 30
0.0
 11
-319.9814184189
 21
-85.7579429912
 31
0.0
  0
LINE
  5
EB
330
46
100
AcDbEntity
  8
0
  6
Continuous
 62
     7
370
     0
100
AcDbLine
 10
-319.9814184189
 20
-85.7579429912
 30
0.0
 11
50.873025227
 21
-85.7579429912
 31
0.0
  0
LINE
  5
EC
330
46
100
AcDbEntity
  8
0
  6
Continuous
 62
     7
370
     0
100
AcDbLine
 10
95.3751161739
 20
-41.2558520443
 30
0.0
 11
95.3751161739
 21
58.8703922357
 31
0.0
  0
LINE
  5
ED
330
46
100
AcDbEntity
  8
0
  6
Continuous
 62
     7
370
     0
100
AcDbLine
 10
50.873025227
 20
103.3724831826
 30
0.0
 11
-319.9814184189
 21
103.3724831826
 31
0.0
  0
LINE
  5
EE
330
46
100
AcDbEntity
  8
0
  6
Continuous
 62
     7
370
     0
100
AcDbLine
 10
-319.9814184189
 20
103.3724831826
 30
0.0
 11
-319.9814184189
 21
194.4121361345
 31
0.0
  0
LINE
  5
EF
330
46
100
AcDbEntity
  8
0
  6
Continuous
 62
     7
370
     0
100
AcDbLine
 10
-319.9814184189
 20
194.4121361345
 30
0.0
 11
120.6665034752
 21
194.4121361345
 31
0.0
  0
LINE
  5
F0
330
46
100
AcDbEntity
  8
0
  6
Continuous
 62
     7
370
     0
100
AcDbLine
 10
322.6036641318
 20
-12.6515254751
 30
0.0
 11
120.6665034752
 21
194.4121361345
 31
0.0
  0
LINE
  5
F1
330
46
100
AcDbEntity
  8
0
  6
Continuous
 62
     7
370
     0
100
AcDbLine
 10
179.2002233129
 20
-618.6863163139
 30
0.0
 11
322.6036641318
 21
-12.6515254751
 31
0.0
  0
LINE
  5
F2
330
46
100
AcDbEntity
  8
0
  6
Continuous
 62
     7
370
     0
100
AcDbLine
 10
490.9731876263
 20
-597.7705030922
 30
0.0
 11
234.8464313747
 21
-671.6906739364
 31
0.0
  0
LINE
  5
F3
330
46
100
AcDbEntity
  8
0
  6
Continuous
 62
     7
370
     0
100
AcDbLine
 10
566.9638715891
 20
-254.5007059655
 30
0.0
 11
522.6789941086
 21
-561.3698449882
 31
0.0
  0
LINE
  5
F4
330
46
100
AcDbEntity
  8
0
  6
Continuous
 62
     7
370
     0
100
AcDbLine
 10
763.9768242075
 20
-492.6545086956
 30
0.0
 11
566.9638715891
 21
-254.5007059655
 31
0.0
  0
LINE
  5
F5
330
46
100
AcDbEntity
  8
0
  6
Continuous
 62
     7
370
     0
100
AcDbLine
 10
1138.7859426855
 20
-411.7504397413
 30
0.0
 11
810.6763054158
 21
-507.0250591464
 31
0.0
  0
LINE
  5
F6
330
46
100
AcDbEntity
  8
0
  6
Continuous
 62
     7
370
     0
100
AcDbLine
 10
1110.3841139451
 20
-383.3705129619
 30
0.0
 11
1138.7859426855
 21
-411.7504397413
 31
0.0
  0
LINE
  5
F7
330
46
100
AcDbEntity
  8
0
  6
Continuous
 62
     7
370
     0
100
AcDbLine
 10
1268.9024917469
 20
-383.3705129619
 30
0.0
 11
1110.3841139451
 21
-383.3705129619
 31
0.0
  0
LINE
  5
F8
330
46
100
AcDbEntity
  8
0
  6
Continuous
 62
     7
370
     0
100
AcDbLine
 10
1313.4045826938
 20
189.1016272084
 30
0.0
 11
1313.4045826938
 21
-338.8684220149
 31
0.0
  0
LINE
  5
F9
330
46
100
AcDbEntity
  8
0
  6
Continuous
 62
     7
370
     0
100
AcDbLine
 10
1419.8987208585
 20
189.1016272084
 30
0.0
 11
1313.4045826938
 21
189.1016272084
 31
0.0
  0
LINE
  5
FA
330
46
100
AcDbEntity
  8
0
  6
Continuous
 62
     7
370
     0
100
AcDbLine
 10
1452.2743641586
 20
350.1299022874
 30
0.0
 11
1452.2743641586
 21
221.4772705084
 31
0.0
  0
LINE
  5
FB
330
46
100
AcDbEntity
  8
0
  6
Continuous
 62
     7
370
     0
100
AcDbLine
 10
783.1387770088
 20
382.5055455874
 30
0.0
 11
1419.8987208585
 21
382.5055455875
 31
0.0
  0
LINE
  5
FC
330
46
100
AcDbEntity
  8
0
  6
Continuous
 62
     7
370
     0
100
AcDbLine
 10
738.6366860618
 20
233.291332702
 30
0.0
 11
738.6366860618
 21
338.0034546405
 31
0.0
  0
LINE
  5
FD
330
46
100
AcDbEntity
  8
0
  6
Continuous
 62
     7
370
     0
100
AcDbLine
 10
1016.3434311282
 20
188.7892417551
 30
0.0
 11
783.1387770088
 21
188.789241755
 31
0.0
  0
LINE
  5
FE
330
46
100
AcDbEntity
  8
0
  6
Continuous
 62
     7
370
     0
100
AcDbLine
 10
1016.3434311282
 20
-287.8834242582
 30
0.0
 11
1016.3434311282
 21
188.7892417551
 31
0.0
  0
LINE
  5
FF
330
46
100
AcDbEntity
  8
0
  6
Continuous
 62
     7
370
     0
100
AcDbLine
 10
649.6456960885
 20
81.4285193135
 30
0.0
 11
1016.3434311282
 21
-287.8834242582
 31
0.0
  0
LINE
  5
100
330
46
100
AcDbEntity
  8
0
  6
Continuous
 62
     7
370
     0
100
AcDbLine
 10
768.0435046872
 20
615.3730417552
 30
0.0
 11
649.6456960885
 21
81.4285193135
 31
0.0
  0
LINE
  5
101
330
46
100
AcDbEntity
  8
0
  6
Continuous
 62
     7
370
     0
100
AcDbLine
 10
471.0331218632
 20
597.8333812482
 30
0.0
 11
712.2057570933
 21
667.7492596288
 31
0.0
  0
LINE
  5
102
330
46
100
AcDbEntity
  8
0
  6
Continuous
 62
     7
370
     0
100
AcDbLine
 10
404.5484398871
 20
319.7078762563
 30
0.0
 11
439.3768384937
 21
561.4374577831
 31
0.0
  0
LINE
  5
103
330
46
100
AcDbEntity
  8
0
  6
Continuous
 62
     7
370
     0
100
AcDbLine
 10
253.6554375397
 20
507.0080427096
 30
0.0
 11
404.5484398871
 21
319.7078762563
 31
0.0
  0
LINE
  5
104
330
46
100
AcDbEntity
  8
0
  6
Continuous
 62
     7
370
     0
100
AcDbLine
 10
-109.8401815364
 20
432.1764529118
 30
0.0
 11
206.8695997007
 21
521.9060091541
 31
0.0
  0
LINE
  5
105
330
46
100
AcDbEntity
  8
0
  6
Continuous
 62
     7
370
     0
100
AcDbLine
 10
-60.6719260765
 20
383.0461173505
 30
0.0
 11
-109.8401815364
 21
432.1764529118
 31
0.0
  0
LINE
  5
106
330
46
100
AcDbEntity
  8
0
  6
Continuous
 62
     7
370
     0
100
AcDbLine
 10
-573.4144022261
 20
383.0461173505
 30
0.0
 11
-60.6719260765
 21
383.0461173505
 31
0.0
  0
LINE
  5
107
330
46
100
AcDbEntity
  8
0
  6
Continuous
 62
     7
370
     0
100
AcDbLine
 10
-617.916493173
 20
338.5440264035
 30
0.0
 11
-617.916493173
 21
-338.9611464202
 31
0.0
  0
LINE
  5
108
330
46
100
AcDbEntity
  8
0
  6
Continuous
 62
     7
370
     0
100
AcDbLine
 10
-573.4144022261
 20
-383.4632373672
 30
0.0
 11
175.3047338627
 21
-383.4632373672
 31
0.0
  0
ENDBLK
  5
48
330
46
100
AcDbEntity
  8
0
100
AcDbBlockEnd
  0
BLOCK
  5
174
330
173
100
AcDbEntity
  8
0
100
AcDbBlockBegin
  2
_D
 70
     0
 10
0.0
 20
0.0
 30
0.0
  3
_D
  1

  0
SOLID
  5
176
330
173
100
AcDbEntity
  8
MEDIÇÕES
100
AcDbTrace
 10
479.6231812863
 20
286.6384644817
 30
0.0
 11
506.0391812863
 21
282.5744644817
 31
0.0
 12
506.0391812863
 22
290.7024644817
 32
0.0
 13
506.0391812863
 23
290.7024644817
 33
0.0
  0
SOLID
  5
177
330
173
100
AcDbEntity
  8
MEDIÇÕES
100
AcDbTrace
 10
734.0414370063
 20
286.6384644817
 30
0.0
 11
707.6254370063
 21
290.7024644817
 31
0.0
 12
707.6254370063
 22
282.5744644817
 32
0.0
 13
707.6254370063
 23
282.5744644817
 33
0.0
  0
LINE
  5
178
330
173
100
AcDbEntity
  8
MEDIÇÕES
100
AcDbLine
 10
479.6231812863
 20
365.6384644818
 30
0.0
 11
479.6231812863
 21
278.6384644817
 31
0.0
  0
LINE
  5
179
330
173
100
AcDbEntity
  8
MEDIÇÕES
100
AcDbLine
 10
734.0414370063
 20
365.6384644818
 30
0.0
 11
734.0414370063
 21
278.6384644817
 31
0.0
  0
LINE
  5
17A
330
173
100
AcDbEntity
  8
MEDIÇÕES
100
AcDbLine
 10
479.6231812863
 20
286.6384644817
 30
0.0
 11
734.0414370063
 21
286.6384644817
 31
0.0
  0
MTEXT
  5
17B
330
173
100
AcDbEntity
  8
MEDIÇÕES
100
AcDbMText
 10
564.4239769177
 20
322.7323597983
 30
-18.9
 40
28.0
 41
0.0
 71
     1
 72
     1
  1
254
  7
SLDTEXTSTYLE1
 73
     1
 44
1.0
  0
ENDBLK
  5
175
330
173
100
AcDbEntity
  8
0
100
AcDbBlockEnd
  0
BLOCK
  5
282
330
281
100
AcDbEntity
  8
0
100
AcDbBlockBegin
  2
_D_1
 70
     0
 10
0.0
 20
0.0
 30
0.0
  3
_D_1
  1

  0
SOLID
  5
284
330
281
100
AcDbEntity
  8
MEDIÇÕES
100
AcDbTrace
 10
994.361899863
 20
366.7133852051
 30
0.0
 11
998.425899863
 21
393.1293852051
 31
0.0
 12
990.297899863
 22
393.1293852051
 32
0.0
 13
990.297899863
 23
393.1293852051
 33
0.0
  0
SOLID
  5
285
330
281
100
AcDbEntity
  8
MEDIÇÕES
100
AcDbTrace
 10
994.361899863
 20
817.6384644818
 30
0.0
 11
990.297899863
 21
791.2224644818
 31
0.0
 12
998.425899863
 22
791.2224644818
 32
0.0
 13
998.425899863
 23
791.2224644818
 33
0.0
  0
LINE
  5
286
330
281
100
AcDbEntity
  8
MEDIÇÕES
100
AcDbLine
 10
1084.2683580839
 20
366.7133852051
 30
0.0
 11
986.361899863
 21
366.7133852051
 31
0.0
  0
LINE
  5
287
330
281
100
AcDbEntity
  8
MEDIÇÕES
100
AcDbLine
 10
1076.954165045
 20
817.6384644818
 30
0.0
 11
986.361899863
 21
817.6384644818
 31
0.0
  0
LINE
  5
288
330
281
100
AcDbEntity
  8
MEDIÇÕES
100
AcDbLine
 10
994.361899863
 20
366.7133852051
 30
0.0
 11
994.361899863
 21
817.6384644818
 31
0.0
  0
MTEXT
  5
289
330
281
100
AcDbEntity
  8
MEDIÇÕES
100
AcDbMText
 10
958.2680045463
 20
549.7675926148
 30
0.1
 40
28.0
 41
0.0
 71
     1
 72
     1
  1
451
  7
SLDTEXTSTYLE1
 11
6.123233995736766E-17
 21
1.0
 31
0.0
 73
     1
 44
1.0
  0
ENDBLK
  5
283
330
281
100
AcDbEntity
  8
0
100
AcDbBlockEnd
  0
BLOCK
  5
2EB
330
2EA
100
AcDbEntity
  8
0
100
AcDbBlockBegin
  2
_D_2
 70
     0
 10
0.0
 20
0.0
 30
0.0
  3
_D_2
  1

  0
SOLID
  5
2ED
330
2EA
100
AcDbEntity
  8
MEDIÇÕES
100
AcDbTrace
 10
428.8154196187
 20
1342.3324428415
 30
0.0
 11
424.7514196187
 21
1315.9164428415
 31
0.0
 12
432.8794196187
 22
1315.9164428415
 32
0.0
 13
432.8794196187
 23
1315.9164428415
 33
0.0
  0
SOLID
  5
2EE
330
2EA
100
AcDbEntity
  8
MEDIÇÕES
100
AcDbTrace
 10
428.8154196187
 20
1104.3324428415
 30
0.0
 11
432.8794196187
 21
1130.7484428415
 31
0.0
 12
424.7514196187
 22
1130.7484428415
 32
0.0
 13
424.7514196187
 23
1130.7484428415
 33
0.0
  0
LINE
  5
2EF
330
2EA
100
AcDbEntity
  8
MEDIÇÕES
100
AcDbLine
 10
522.0031278675
 20
1342.3324428415
 30
0.0
 11
420.8154196187
 21
1342.3324428415
 31
0.0
  0
LINE
  5
2F0
330
2EA
100
AcDbEntity
  8
MEDIÇÕES
100
AcDbLine
 10
598.8323091463
 20
1104.3324428415
 30
0.0
 11
420.8154196187
 21
1104.3324428415
 31
0.0
  0
LINE
  5
2F1
330
2EA
100
AcDbEntity
  8
MEDIÇÕES
100
AcDbLine
 10
428.8154196187
 20
1342.3324428415
 30
0.0
 11
428.8154196187
 21
1104.3324428415
 31
0.0
  0
MTEXT
  5
2F2
330
2EA
100
AcDbEntity
  8
MEDIÇÕES
100
AcDbMText
 10
392.7215243021
 20
1182.6021370971
 30
1.1000000001
 40
28.0
 41
0.0
 71
     1
 72
     1
  1
238
  7
SLDTEXTSTYLE1
 11
-7.044195017643634E-15
 21
1.0
 31
0.0
 73
     1
 44
1.0
  0
ENDBLK
  5
2EC
330
2EA
100
AcDbEntity
  8
0
100
AcDbBlockEnd
  0
ENDSEC
  0
SECTION
  2
ENTITIES
  0
LINE
  5
109
330
1F
100
AcDbEntity
  8
0
  6
Continuous
 62
     7
370
     0
100
AcDbLine
 10
58.9188975161
 20
1612.2037169663
 30
0.0
 11
2326.6744340947
 21
1612.2037169663
 31
0.0
  0
LINE
  5
10A
330
1F
100
AcDbEntity
  8
0
  6
Continuous
 62
     7
370
     0
100
AcDbLine
 10
58.9188975161
 20
1612.2037169663
 30
0.0
 11
58.9188975161
 21
41.6049722556
 31
0.0
  0
LINE
  5
10B
330
1F
100
AcDbEntity
  8
0
  6
Continuous
 62
     7
370
     0
100
AcDbLine
 10
58.9188975161
 20
41.6049722556
 30
0.0
 11
2326.6744340947
 21
41.6049722556
 31
0.0
  0
LINE
  5
10C
330
1F
100
AcDbEntity
  8
0
  6
Continuous
 62
     8
420
  8421504
370
    40
100
AcDbLine
 10
1652.2429435064
 20
231.6885039857
 30
0.0
 11
2326.6744340947
 21
231.6885039857
 31
0.0
  0
LINE
  5
10D
330
1F
100
AcDbEntity
  8
0
  6
Continuous
 62
     7
370
     0
100
AcDbLine
 10
2326.6744340947
 20
1612.2037169663
 30
0.0
 11
2326.6744340947
 21
41.6049722556
 31
0.0
  0
LINE
  5
10E
330
1F
100
AcDbEntity
  8
0
  6
Continuous
 62
     8
420
  8421504
370
    40
100
AcDbLine
 10
1652.2429435064
 20
195.2215996322
 30
0.0
 11
2326.6744340947
 21
195.2215996322
 31
0.0
  0
LINE
  5
10F
330
1F
100
AcDbEntity
  8
0
  6
Continuous
 62
     8
420
  8421504
370
    40
100
AcDbLine
 10
1652.2429435064
 20
83.5882189581
 30
0.0
 11
2326.6744340947
 21
83.5882189581
 31
0.0
  0
INSERT
  5
110
330
1F
100
AcDbEntity
  8
0
  6
Continuous
 62
     7
100
AcDbBlockReference
  2
Logo_Next.V3
 10
2026.6266746554
 20
308.1090035045
 30
0.0
 41
0.088
 42
0.088
 43
0.088
  0
MTEXT
  5
112
330
1F
100
AcDbEntity
  8
0
  6
Continuous
 62
     7
370
     0
100
AcDbMText
 10
2228.0
 20
67.4688119273
 30
0.0
 40
12.0
 41
0.0
 71
     1
 72
     1
  1
SHEET 1 OF 1
  7
SLDTEXTSTYLE0
 73
     1
 44
1.0
  0
MTEXT
  5
114
330
1F
100
AcDbEntity
  8
0
  6
Continuous
 62
     7
370
     0
100
AcDbMText
 10
1656.1070742716
 20
215.5315224058
 30
0.0
 40
10.5833333333
 41
0.0
 71
     1
 72
     1
  1
TITLE:
  7
SLDTEXTSTYLE1
 73
     1
 44
1.0
  0
MTEXT
  5
116
330
1F
100
AcDbEntity
  8
0
  6
Continuous
 62
     7
370
     0
100
AcDbMText
 10
1751.2153178861
 20
149.1225097159
 30
0.0
 40
21.1666666667
 41
0.0
 71
     1
 72
     1
  1
NC00751
  7
SLDTEXTSTYLE2
 73
     1
 44
1.0
  0
MTEXT
  5
117
330
1F
100
AcDbEntity
  8
0
  6
Continuous
 62
     7
370
     0
100
AcDbMText
 10
2208.0302863139
 20
106.0532956189
 30
0.0
 40
16.9333333333
 41
0.0
 71
     1
 72
     1
  1
10-10-2014
  7
SLDTEXTSTYLE2
 73
     1
 44
1.0
  0
MTEXT
  5
118
330
1F
100
AcDbEntity
  8
0
  6
Continuous
 62
     7
370
     0
100
AcDbMText
 10
1656.1070742716
 20
138.3608943487
 30
0.0
 40
10.5833333333
 41
0.0
 71
     1
 72
     1
  1
Reference :
  7
SLDTEXTSTYLE1
 73
     1
 44
1.0
  0
MTEXT
  5
119
330
1F
100
AcDbEntity
  8
0
  6
Continuous
 62
     7
370
     0
100
AcDbMText
 10
2180.0453231533
 20
99.5492889275
 30
0.0
 40
10.5833333333
 41
0.0
 71
     2
 72
     1
  1
Date:
  7
SLDTEXTSTYLE1
 73
     1
 44
1.0
  0
MTEXT
  5
11A
330
1F
100
AcDbEntity
  8
0
  6
Continuous
 62
     7
370
     0
100
AcDbMText
 10
1656.1070742716
 20
180.9345771797
 30
0.0
 40
10.5833333333
 41
0.0
 71
     1
 72
     1
  1
REVISION:
  7
SLDTEXTSTYLE1
 73
     1
 44
1.0
  0
MTEXT
  5
11B
330
1F
100
AcDbEntity
  8
0
  6
Continuous
 62
     7
370
     0
100
AcDbMText
 10
1751.2153178861
 20
187.2504362219
 30
0.0
 40
16.9333333333
 41
0.0
 71
     1
 72
     1
  1
V2.0
  7
SLDTEXTSTYLE1
 73
     1
 44
1.0
  0
MTEXT
  5
11C
330
1F
100
AcDbEntity
  8
0
  6
Continuous
 62
     7
370
     0
100
AcDbMText
 10
2024.9249114037
 20
222.6172870898
 30
0.0
 40
16.9333333333
 41
0.0
 71
     2
 72
     1
  1
NEXT X8 V2 - Passive 2-Way Speaker/Monitor (8"+1")
  7
SLDTEXTSTYLE1
 73
     1
 44
1.0
  0
MTEXT
  5
11D
330
1F
100
AcDbEntity
  8
MEDIÇÕES
100
AcDbMText
 10
1931.2717505533
 20
67.9650482203
 30
0.0
 40
12.7
 41
0.0
 71
     1
 72
     1
  1
All dimensions in mm
  7
SLDTEXTSTYLE1
 73
     1
 44
1.0
  0
MTEXT
  5
11E
330
1F
100
AcDbEntity
  8
0
  6
Continuous
 62
     7
370
     0
100
AcDbMText
 10
1884.9800462015
 20
273.0527410995
 30
0.0
 40
25.6
 41
0.0
 71
     1
 72
     1
  1
proaudio
  7
SLDTEXTSTYLE1
 73
     1
 44
1.0
  0
LINE
  5
11F
330
1F
100
AcDbEntity
  8
0
  6
Continuous
 62
     7
370
    15
100
AcDbLine
 10
485.6231812863
 20
805.6384644818
 30
0.0
 11
485.6231812863
 21
380.6384644818
 31
0.0
  0
LINE
  5
120
330
1F
100
AcDbEntity
  8
0
  6
Continuous
 62
     7
370
    15
100
AcDbLine
 10
728.0414370063
 20
380.6384644818
 30
0.0
 11
728.0414370063
 21
805.6384644818
 31
0.0
  0
LINE
  5
121
330
1F
100
AcDbEntity
  8
0
  6
Continuous
 62
     7
370
    15
100
AcDbLine
 10
481.7204046149
 20
804.2661859889
 30
0.0
 11
481.7204046149
 21
382.0107429747
 31
0.0
  0
LINE
  5
122
330
1F
100
AcDbEntity
  8
0
  6
Continuous
 62
     7
370
    15
100
AcDbLine
 10
731.9442136778
 20
382.0107429747
 30
0.0
 11
731.9442136778
 21
804.2661859889
 31
0.0
  0
LINE
  5
123
330
1F
100
AcDbEntity
  8
0
  6
Continuous
 62
     7
370
    15
100
AcDbLine
 10
490.3757741696
 20
368.6384644818
 30
0.0
 11
490.8745093075
 21
366.713385205
 31
0.0
  0
LINE
  5
124
330
1F
100
AcDbEntity
  8
0
  6
Continuous
 62
     7
370
    15
100
AcDbLine
 10
506.9133291084
 20
366.713385205
 30
0.0
 11
507.4120642463
 21
368.6384644818
 31
0.0
  0
ARC
  5
125
330
1F
100
AcDbEntity
  8
0
  6
Continuous
 62
     7
370
    15
100
AcDbCircle
 10
506.8165250286
 20
366.7384644818
 30
0.0
 40
0.1000000000000558
100
AcDbArc
 50
270.0
 51
345.475570922
  0
ARC
  5
126
330
1F
100
AcDbEntity
  8
0
  6
Continuous
 62
     7
370
    15
100
AcDbCircle
 10
490.9713133873
 20
366.7384644818
 30
0.0
 40
0.1000000000000227
100
AcDbArc
 50
194.524429078
 51
270.0
  0
LINE
  5
127
330
1F
100
AcDbEntity
  8
0
  6
Continuous
 62
     7
370
    15
100
AcDbLine
 10
706.2525540464
 20
368.6384644818
 30
0.0
 11
706.7512891842
 21
366.7133852051
 31
0.0
  0
LINE
  5
128
330
1F
100
AcDbEntity
  8
0
  6
Continuous
 62
     7
370
    15
100
AcDbLine
 10
722.7901089852
 20
366.7133852051
 30
0.0
 11
723.288844123
 21
368.6384644818
 31
0.0
  0
ARC
  5
129
330
1F
100
AcDbEntity
  8
0
  6
Continuous
 62
     7
370
    15
100
AcDbCircle
 10
722.6933049054
 20
366.7384644819
 30
0.0
 40
0.1000000000000227
100
AcDbArc
 50
270.0
 51
345.475570922
  0
ARC
  5
12A
330
1F
100
AcDbEntity
  8
0
  6
Continuous
 62
     7
370
    15
100
AcDbCircle
 10
706.8480932641
 20
366.7384644819
 30
0.0
 40
0.1000000000000227
100
AcDbArc
 50
194.524429078
 51
270.0
  0
LINE
  5
12B
330
1F
100
AcDbEntity
  8
0
  6
Continuous
 62
     7
370
    15
100
AcDbLine
 10
531.2023912275
 20
368.6384644818
 30
0.0
 11
531.7011263653
 21
366.713385205
 31
0.0
  0
LINE
  5
12C
330
1F
100
AcDbEntity
  8
0
  6
Continuous
 62
     7
370
    15
100
AcDbLine
 10
547.7399461663
 20
366.713385205
 30
0.0
 11
548.2386813042
 21
368.6384644818
 31
0.0
  0
ARC
  5
12D
330
1F
100
AcDbEntity
  8
0
  6
Continuous
 62
     7
370
    15
100
AcDbCircle
 10
547.6431420865
 20
366.7384644818
 30
0.0
 40
0.1000000000000007
100
AcDbArc
 50
270.0
 51
345.475570922
  0
ARC
  5
12E
330
1F
100
AcDbEntity
  8
0
  6
Continuous
 62
     7
370
    15
100
AcDbCircle
 10
531.7979304452
 20
366.7384644818
 30
0.0
 40
0.1000000000000007
100
AcDbArc
 50
194.524429078
 51
270.0
  0
LINE
  5
12F
330
1F
100
AcDbEntity
  8
0
  6
Continuous
 62
     7
370
    15
100
AcDbLine
 10
677.4104104629
 20
368.6384644818
 30
0.0
 11
677.9091456008
 21
366.7133852048
 31
0.0
  0
LINE
  5
130
330
1F
100
AcDbEntity
  8
0
  6
Continuous
 62
     7
370
    15
100
AcDbLine
 10
693.9479654018
 20
366.7133852048
 30
0.0
 11
694.4467005397
 21
368.6384644818
 31
0.0
  0
ARC
  5
131
330
1F
100
AcDbEntity
  8
0
  6
Continuous
 62
     7
370
    15
100
AcDbCircle
 10
693.8511613219
 20
366.7384644817
 30
0.0
 40
0.1000000000000007
100
AcDbArc
 50
270.0
 51
345.475570922
  0
ARC
  5
132
330
1F
100
AcDbEntity
  8
0
  6
Continuous
 62
     7
370
    15
100
AcDbCircle
 10
678.0059496806
 20
366.7384644817
 30
0.0
 40
0.1000000000000007
100
AcDbArc
 50
194.524429078
 51
270.0
  0
LINE
  5
133
330
1F
100
AcDbEntity
  8
0
  6
Continuous
 62
     7
370
    15
100
AcDbLine
 10
734.0414370063
 20
807.6384644818
 30
0.0
 11
734.0414370063
 21
812.6384644818
 31
0.0
  0
ARC
  5
134
330
1F
100
AcDbEntity
  8
0
  6
Continuous
 62
     7
370
    15
100
AcDbCircle
 10
729.0414370063
 20
812.6384644818
 30
0.0
 40
5.0
100
AcDbArc
 50
0.0
 51
90.0
  0
ARC
  5
135
330
1F
100
AcDbEntity
  8
0
  6
Continuous
 62
     7
370
    15
100
AcDbCircle
 10
732.0414370063
 20
807.6384644818
 30
0.0
 40
2.0
100
AcDbArc
 50
270.0
 51
0.0
  0
ARC
  5
136
330
1F
100
AcDbEntity
  8
0
  6
Continuous
 62
     7
370
    15
100
AcDbCircle
 10
481.6231812863
 20
807.6384644818
 30
0.0
 40
2.0
100
AcDbArc
 50
180.0
 51
270.0
  0
LINE
  5
137
330
1F
100
AcDbEntity
  8
0
  6
Continuous
 62
     7
370
    15
100
AcDbLine
 10
479.6231812863
 20
812.6384644818
 30
0.0
 11
479.6231812863
 21
807.6384644818
 31
0.0
  0
ARC
  5
138
330
1F
100
AcDbEntity
  8
0
  6
Continuous
 62
     7
370
    15
100
AcDbCircle
 10
484.6231812863
 20
812.6384644818
 30
0.0
 40
5.0
100
AcDbArc
 50
90.0
 51
180.0
  0
ARC
  5
139
330
1F
100
AcDbEntity
  8
0
  6
Continuous
 62
     7
370
    15
100
AcDbCircle
 10
729.0414370063
 20
373.6384644818
 30
0.0
 40
5.0
100
AcDbArc
 50
270.0
 51
0.0
  0
ARC
  5
13A
330
1F
100
AcDbEntity
  8
0
  6
Continuous
 62
     7
370
    15
100
AcDbCircle
 10
731.0414370063
 20
377.6384644818
 30
0.0
 40
3.0
100
AcDbArc
 50
0.0
 51
90.0
  0
ARC
  5
13B
330
1F
100
AcDbEntity
  8
0
  6
Continuous
 62
     7
370
    15
100
AcDbCircle
 10
482.6231812863
 20
377.6384644818
 30
0.0
 40
3.0
100
AcDbArc
 50
90.0
 51
180.0
  0
LINE
  5
13C
330
1F
100
AcDbEntity
  8
0
  6
Continuous
 62
     7
370
    15
100
AcDbLine
 10
734.0414370063
 20
373.6384644818
 30
0.0
 11
734.0414370063
 21
377.6384644818
 31
0.0
  0
ARC
  5
13D
330
1F
100
AcDbEntity
  8
0
  6
Continuous
 62
     7
370
    15
100
AcDbCircle
 10
484.6231812863
 20
373.6384644818
 30
0.0
 40
5.0
100
AcDbArc
 50
180.0
 51
270.0
  0
LINE
  5
13E
330
1F
100
AcDbEntity
  8
0
  6
Continuous
 62
     7
370
    15
100
AcDbLine
 10
479.6231812863
 20
377.6384644818
 30
0.0
 11
479.6231812863
 21
373.6384644818
 31
0.0
  0
SPLINE
  5
13F
330
1F
100
AcDbEntity
  8
0
  6
Continuous
 62
     7
370
    15
100
AcDbSpline
210
0.0
220
0.0
230
1.0
 70
     8
 71
     3
 72
    10
 73
     6
 74
     0
 42
0.00000001
 43
0.00000001
 12
1.0
 22
0.0
 32
0.0
 13
1.0
 23
0.0
 33
0.0
 40
0.0
 40
0.0
 40
0.0
 40
0.0
 40
0.2618894471257644
 40
0.6342778345966245
 40
0.9999999999999999
 40
0.9999999999999999
 40
0.9999999999999999
 40
0.9999999999999999
 10
482.9543150494386
 20
380.6384644818126
 30
0.0
 10
482.7488498550008
 20
380.6714950389225
 30
0.0
 10
482.2512275947559
 20
380.7514927267603
 30
0.0
 10
481.7877192012417
 20
381.2715876476792
 30
0.0
 10
481.7877158556391
 20
381.7658458247399
 30
0.0
 10
481.7877141979455
 20
382.0107429747387
 30
0.0
  0
SPLINE
  5
140
330
1F
100
AcDbEntity
  8
0
  6
Continuous
 62
     7
370
    15
100
AcDbSpline
210
0.0
220
0.0
230
1.0
 70
     8
 71
     3
 72
    10
 73
     6
 74
     0
 42
0.00000001
 43
0.00000001
 12
1.0
 22
0.0
 32
0.0
 13
1.0
 23
0.0
 33
0.0
 40
0.0
 40
0.0
 40
0.0
 40
0.0
 40
0.3657221654033718
 40
0.7381105528742353
 40
1.0
 40
1.0
 40
1.0
 40
1.0
 10
481.7877141979455
 20
804.2661859888865
 30
0.0
 10
481.7877158556391
 20
804.5110831388852
 30
0.0
 10
481.7877192012418
 20
805.0053413159459
 30
0.0
 10
482.2512275947559
 20
805.525436236865
 30
0.0
 10
482.7488498550008
 20
805.6054339247028
 30
0.0
 10
482.9543150494386
 20
805.6384644818125
 30
0.0
  0
SPLINE
  5
141
330
1F
100
AcDbEntity
  8
0
  6
Continuous
 62
     7
370
    15
100
AcDbSpline
210
0.0
220
0.0
230
1.0
 70
     8
 71
     3
 72
    10
 73
     6
 74
     0
 42
0.00000001
 43
0.00000001
 12
1.0
 22
0.0
 32
0.0
 13
1.0
 23
0.0
 33
0.0
 40
0.0
 40
0.0
 40
0.0
 40
0.0
 40
0.2618894471257606
 40
0.6342778345966203
 40
0.9999999999999999
 40
0.9999999999999999
 40
0.9999999999999999
 40
0.9999999999999999
 10
730.7103032432225
 20
805.6384644818125
 30
0.0
 10
730.9157684376603
 20
805.6054339247027
 30
0.0
 10
731.4133906979051
 20
805.5254362368648
 30
0.0
 10
731.8768990914194
 20
805.0053413159458
 30
0.0
 10
731.876902437022
 20
804.5110831388852
 30
0.0
 10
731.8769040947155
 20
804.2661859888865
 30
0.0
  0
SPLINE
  5
142
330
1F
100
AcDbEntity
  8
0
  6
Continuous
 62
     7
370
    15
100
AcDbSpline
210
0.0
220
0.0
230
1.0
 70
     8
 71
     3
 72
    10
 73
     6
 74
     0
 42
0.00000001
 43
0.00000001
 12
1.0
 22
0.0
 32
0.0
 13
1.0
 23
0.0
 33
0.0
 40
0.0
 40
0.0
 40
0.0
 40
0.0
 40
0.3657221654034049
 40
0.7381105528742461
 40
1.0
 40
1.0
 40
1.0
 40
1.0
 10
731.8769040947155
 20
382.0107429747389
 30
0.0
 10
731.8769024370221
 20
381.76584582474
 30
0.0
 10
731.8768990914193
 20
381.2715876476794
 30
0.0
 10
731.4133906979051
 20
380.7514927267602
 30
0.0
 10
730.9157684376603
 20
380.6714950389224
 30
0.0
 10
730.7103032432225
 20
380.6384644818126
 30
0.0
  0
LINE
  5
143
330
1F
100
AcDbEntity
  8
0
  6
Continuous
 62
     7
370
    15
100
AcDbLine
 10
506.8165250286
 20
366.6384644818
 30
0.0
 11
490.9713133873
 21
366.6384644818
 31
0.0
  0
LINE
  5
144
330
1F
100
AcDbEntity
  8
0
  6
Continuous
 62
     7
370
    15
100
AcDbLine
 10
722.6933049054
 20
366.6384644819
 30
0.0
 11
706.8480932641
 21
366.6384644819
 31
0.0
  0
LINE
  5
145
330
1F
100
AcDbEntity
  8
0
  6
Continuous
 62
     7
370
    15
100
AcDbLine
 10
547.6431420865
 20
366.6384644818
 30
0.0
 11
531.7979304452
 21
366.6384644818
 31
0.0
  0
LINE
  5
146
330
1F
100
AcDbEntity
  8
0
  6
Continuous
 62
     7
370
    15
100
AcDbLine
 10
693.8511613219
 20
366.6384644817
 30
0.0
 11
678.0059496806
 21
366.6384644817
 31
0.0
  0
LINE
  5
147
330
1F
100
AcDbEntity
  8
0
  6
Continuous
 62
     7
370
    15
100
AcDbLine
 10
713.0220115658
 20
812.6384644818
 30
0.0
 11
500.6426067268
 21
812.6384644818
 31
0.0
  0
ARC
  5
148
330
1F
100
AcDbEntity
  8
0
  6
Continuous
 62
     7
370
    15
100
AcDbCircle
 10
512.8804576322
 20
813.8745367993
 30
0.0
 40
12.30011664810422
100
AcDbArc
 50
162.1812135026
 51
185.767544834
  0
LINE
  5
149
330
1F
100
AcDbEntity
  8
0
  6
Continuous
 62
     7
370
    15
100
AcDbLine
 10
501.170388548
 20
817.6384644818
 30
0.0
 11
712.4942297446
 21
817.6384644818
 31
0.0
  0
ARC
  5
14A
330
1F
100
AcDbEntity
  8
0
  6
Continuous
 62
     7
370
    15
100
AcDbCircle
 10
700.7841606604
 20
813.8745367993
 30
0.0
 40
12.30011664809778
100
AcDbArc
 50
354.232455166
 51
17.8187864974
  0
LINE
  5
14B
330
1F
100
AcDbEntity
  8
0
  6
Continuous
 62
     7
370
    15
100
AcDbLine
 10
713.0220115658
 20
812.6384644818
 30
0.0
 11
713.0220115658
 21
807.6384644818
 31
0.0
  0
LINE
  5
14C
330
1F
100
AcDbEntity
  8
0
  6
Continuous
 62
     7
370
    15
100
AcDbLine
 10
500.6426067268
 20
807.6384644818
 30
0.0
 11
713.0220115658
 21
807.6384644818
 31
0.0
  0
LINE
  5
14D
330
1F
100
AcDbEntity
  8
0
  6
Continuous
 62
     7
370
    15
100
AcDbLine
 10
500.6426067268
 20
812.6384644818
 30
0.0
 11
500.6426067268
 21
807.6384644818
 31
0.0
  0
LINE
  5
14E
330
1F
100
AcDbEntity
  8
0
  6
Continuous
 62
     7
370
    15
100
AcDbLine
 10
712.8108988374
 20
805.6384644818
 30
0.0
 11
500.8537194553
 21
805.6384644818
 31
0.0
  0
ARC
  5
14F
330
1F
100
AcDbEntity
  8
0
  6
Continuous
 62
     7
370
    15
100
AcDbCircle
 10
505.537747089
 20
807.1440355548
 30
0.0
 40
4.920046659243524
100
AcDbArc
 50
174.232455166
 51
197.8187864974
  0
ARC
  5
150
330
1F
100
AcDbEntity
  8
0
  6
Continuous
 62
     7
370
    15
100
AcDbCircle
 10
708.1268712037
 20
807.1440355548
 30
0.0
 40
4.92004665923793
100
AcDbArc
 50
342.1812135026
 51
5.767544834
  0
LINE
  5
151
330
1F
100
AcDbEntity
  8
0
  6
Continuous
 62
     7
370
    15
100
AcDbLine
 10
712.4942297446
 20
817.6384644818
 30
0.0
 11
729.0414370063
 21
817.6384644818
 31
0.0
  0
LINE
  5
152
330
1F
100
AcDbEntity
  8
0
  6
Continuous
 62
     7
370
    15
100
AcDbLine
 10
732.0414370063
 20
805.6384644818
 30
0.0
 11
712.8108988374
 21
805.6384644818
 31
0.0
  0
LINE
  5
153
330
1F
100
AcDbEntity
  8
0
  6
Continuous
 62
     7
370
    15
100
AcDbLine
 10
500.8537194553
 20
805.6384644818
 30
0.0
 11
481.6231812863
 21
805.6384644818
 31
0.0
  0
LINE
  5
154
330
1F
100
AcDbEntity
  8
0
  6
Continuous
 62
     7
370
    15
100
AcDbLine
 10
484.6231812863
 20
817.6384644818
 30
0.0
 11
501.170388548
 21
817.6384644818
 31
0.0
  0
LINE
  5
155
330
1F
100
AcDbEntity
  8
0
  6
Continuous
 62
     7
370
    15
100
AcDbLine
 10
500.6426067268
 20
373.6384644818
 30
0.0
 11
713.0220115658
 21
373.6384644818
 31
0.0
  0
LINE
  5
156
330
1F
100
AcDbEntity
  8
0
  6
Continuous
 62
     7
370
    15
100
AcDbLine
 10
500.6426067268
 20
373.6384644818
 30
0.0
 11
500.6426067268
 21
377.6384644818
 31
0.0
  0
LINE
  5
157
330
1F
100
AcDbEntity
  8
0
  6
Continuous
 62
     7
370
    15
100
AcDbLine
 10
713.0220115658
 20
377.6384644818
 30
0.0
 11
500.6426067268
 21
377.6384644818
 31
0.0
  0
LINE
  5
158
330
1F
100
AcDbEntity
  8
0
  6
Continuous
 62
     7
370
    15
100
AcDbLine
 10
713.0220115658
 20
373.6384644818
 30
0.0
 11
713.0220115658
 21
377.6384644818
 31
0.0
  0
ARC
  5
159
330
1F
100
AcDbEntity
  8
0
  6
Continuous
 62
     7
370
    15
100
AcDbCircle
 10
507.9853172701
 20
378.3801078723
 30
0.0
 40
7.380069988870863
100
AcDbArc
 50
162.1812135026
 51
185.767544834
  0
LINE
  5
15A
330
1F
100
AcDbEntity
  8
0
  6
Continuous
 62
     7
370
    15
100
AcDbLine
 10
500.9592758195
 20
380.6384644818
 30
0.0
 11
712.7053424731
 21
380.6384644818
 31
0.0
  0
ARC
  5
15B
330
1F
100
AcDbEntity
  8
0
  6
Continuous
 62
     7
370
    15
100
AcDbCircle
 10
705.6793010226
 20
378.3801078723
 30
0.0
 40
7.380069988864658
100
AcDbArc
 50
354.232455166
 51
17.8187864974
  0
ARC
  5
15C
330
1F
100
AcDbEntity
  8
0
  6
Continuous
 62
     7
370
    15
100
AcDbCircle
 10
700.7841606604
 20
372.4023921643
 30
0.0
 40
12.30011664809948
100
AcDbArc
 50
342.1812135026
 51
5.767544834
  0
LINE
  5
15D
330
1F
100
AcDbEntity
  8
0
  6
Continuous
 62
     7
370
    15
100
AcDbLine
 10
712.4942297446
 20
368.6384644818
 30
0.0
 11
501.170388548
 21
368.6384644818
 31
0.0
  0
ARC
  5
15E
330
1F
100
AcDbEntity
  8
0
  6
Continuous
 62
     7
370
    15
100
AcDbCircle
 10
512.8804576322
 20
372.4023921644
 30
0.0
 40
12.30011664810355
100
AcDbArc
 50
174.232455166
 51
197.8187864974
  0
LINE
  5
15F
330
1F
100
AcDbEntity
  8
0
  6
Continuous
 62
     7
370
    15
100
AcDbLine
 10
729.0414370063
 20
368.6384644818
 30
0.0
 11
712.4942297446
 21
368.6384644818
 31
0.0
  0
LINE
  5
160
330
1F
100
AcDbEntity
  8
0
  6
Continuous
 62
     7
370
    15
100
AcDbLine
 10
712.7053424731
 20
380.6384644818
 30
0.0
 11
731.0414370063
 21
380.6384644818
 31
0.0
  0
LINE
  5
161
330
1F
100
AcDbEntity
  8
0
  6
Continuous
 62
     7
370
    15
100
AcDbLine
 10
482.6231812863
 20
380.6384644818
 30
0.0
 11
500.9592758195
 21
380.6384644818
 31
0.0
  0
LINE
  5
162
330
1F
100
AcDbEntity
  8
0
  6
Continuous
 62
     7
370
    15
100
AcDbLine
 10
501.170388548
 20
368.6384644818
 30
0.0
 11
484.6231812863
 21
368.6384644818
 31
0.0
  0
LINE
  5
163
330
1F
100
AcDbEntity
  8
0
  6
Continuous
 62
     8
370
    15
100
AcDbLine
 10
501.2759449122
 20
805.6384644818
 30
0.0
 11
501.2759449122
 21
380.6384644818
 31
0.0
  0
LINE
  5
164
330
1F
100
AcDbEntity
  8
0
  6
Continuous
 62
     8
370
    15
100
AcDbLine
 10
712.3886733804
 20
805.6384644818
 30
0.0
 11
712.3886733804
 21
380.6384644818
 31
0.0
  0
LINE
  5
165
330
1F
100
AcDbEntity
  8
0
  6
Continuous
 62
     8
370
    15
100
AcDbLine
 10
490.8745093075
 20
366.713385205
 30
0.0
 11
506.9133291084
 21
366.713385205
 31
0.0
  0
LINE
  5
166
330
1F
100
AcDbEntity
  8
0
  6
Continuous
 62
     8
370
    15
100
AcDbLine
 10
706.7512891842
 20
366.7133852051
 30
0.0
 11
722.7901089852
 21
366.7133852051
 31
0.0
  0
LINE
  5
167
330
1F
100
AcDbEntity
  8
0
  6
Continuous
 62
     8
370
    15
100
AcDbLine
 10
531.7011263653
 20
366.713385205
 30
0.0
 11
547.7399461663
 21
366.713385205
 31
0.0
  0
LINE
  5
168
330
1F
100
AcDbEntity
  8
0
  6
Continuous
 62
     8
370
    15
100
AcDbLine
 10
677.9091456008
 20
366.7133852048
 30
0.0
 11
693.9479654018
 21
366.7133852048
 31
0.0
  0
LINE
  5
169
330
1F
100
AcDbEntity
  8
0
  6
Continuous
 62
     8
370
    15
100
AcDbLine
 10
734.0414370063
 20
812.6384644818
 30
0.0
 11
713.0220115658
 21
812.6384644818
 31
0.0
  0
LINE
  5
16A
330
1F
100
AcDbEntity
  8
0
  6
Continuous
 62
     8
370
    15
100
AcDbLine
 10
713.0220115658
 20
807.6384644818
 30
0.0
 11
734.0414370063
 21
807.6384644818
 31
0.0
  0
LINE
  5
16B
330
1F
100
AcDbEntity
  8
0
  6
Continuous
 62
     8
370
    15
100
AcDbLine
 10
479.6231812863
 20
807.6384644818
 30
0.0
 11
500.6426067268
 21
807.6384644818
 31
0.0
  0
LINE
  5
16C
330
1F
100
AcDbEntity
  8
0
  6
Continuous
 62
     8
370
    15
100
AcDbLine
 10
500.6426067268
 20
812.6384644818
 30
0.0
 11
479.6231812863
 21
812.6384644818
 31
0.0
  0
LINE
  5
16D
330
1F
100
AcDbEntity
  8
0
  6
Continuous
 62
     8
370
    15
100
AcDbLine
 10
713.0220115658
 20
373.6384644818
 30
0.0
 11
734.0414370063
 21
373.6384644818
 31
0.0
  0
LINE
  5
16E
330
1F
100
AcDbEntity
  8
0
  6
Continuous
 62
     8
370
    15
100
AcDbLine
 10
734.0414370063
 20
377.6384644818
 30
0.0
 11
713.0220115658
 21
377.6384644818
 31
0.0
  0
LINE
  5
16F
330
1F
100
AcDbEntity
  8
0
  6
Continuous
 62
     8
370
    15
100
AcDbLine
 10
500.6426067268
 20
377.6384644818
 30
0.0
 11
479.6231812863
 21
377.6384644818
 31
0.0
  0
LINE
  5
170
330
1F
100
AcDbEntity
  8
0
  6
Continuous
 62
     8
370
    15
100
AcDbLine
 10
479.6231812863
 20
373.6384644818
 30
0.0
 11
500.6426067268
 21
373.6384644818
 31
0.0
  0
DIMENSION
  5
171
330
1F
100
AcDbEntity
  8
MEDIÇÕES
100
AcDbDimension
  2
_D
 10
734.0414370063
 20
286.6384644817
 30
0.0
 11
606.8323091463
 21
286.6384644817
 31
0.0
 70
   160
  1
<>
 71
     2
 42
-1.0
  3
SLDDIMSTYLE0
100
AcDbAlignedDimension
 13
479.6231812863
 23
373.6384644818
 33
0.0
 14
734.0414370063
 24
373.6384644818
 34
0.0
100
AcDbRotatedDimension
  0
LINE
  5
17C
330
1F
100
AcDbEntity
  8
0
  6
Continuous
 62
     7
370
    15
100
AcDbLine
 10
1080.361899863
 20
805.6384644818
 30
0.0
 11
1080.361899863
 21
380.6384644818
 31
0.0
  0
LINE
  5
17D
330
1F
100
AcDbEntity
  8
0
  6
Continuous
 62
     7
370
    15
100
AcDbLine
 10
1091.7696229461
 20
368.6384644818
 30
0.0
 11
1092.2683580839
 21
366.7133852051
 31
0.0
  0
LINE
  5
17E
330
1F
100
AcDbEntity
  8
0
  6
Continuous
 62
     7
370
    15
100
AcDbLine
 10
1108.3071778849
 20
366.7133852051
 30
0.0
 11
1108.8059130227
 21
368.6384644818
 31
0.0
  0
ARC
  5
17F
330
1F
100
AcDbEntity
  8
0
  6
Continuous
 62
     7
370
    15
100
AcDbCircle
 10
1108.2103738051
 20
366.7384644819
 30
0.0
 40
0.0999999999999659
100
AcDbArc
 50
270.0
 51
345.4755709219
  0
ARC
  5
180
330
1F
100
AcDbEntity
  8
0
  6
Continuous
 62
     7
370
    15
100
AcDbCircle
 10
1092.3651621638
 20
366.7384644819
 30
0.0
 40
0.0999999999999659
100
AcDbArc
 50
194.5244290781
 51
269.9999999999
  0
LINE
  5
181
330
1F
100
AcDbEntity
  8
0
  6
Continuous
 62
     7
370
    15
100
AcDbLine
 10
1240.0038003431
 20
392.2108065542
 30
0.0
 11
1241.8018084848
 21
392.8928542969
 31
0.0
  0
LINE
  5
182
330
1F
100
AcDbEntity
  8
0
  6
Continuous
 62
     7
370
    15
100
AcDbLine
 10
1241.8018084848
 20
408.3840746667
 30
0.0
 11
1240.0038003431
 21
409.0661224095
 31
0.0
  0
LINE
  5
183
330
1F
100
AcDbEntity
  8
0
  6
Continuous
 62
     7
370
    15
100
AcDbLine
 10
1237.5572670932
 20
391.1384644818
 30
0.0
 11
1237.9815311619
 21
391.1384644818
 31
0.0
  0
LINE
  5
184
330
1F
100
AcDbEntity
  8
0
  6
Continuous
 62
     7
370
    15
100
AcDbLine
 10
1237.9815311619
 20
410.1384644818
 30
0.0
 11
1237.5572670932
 21
410.1384644818
 31
0.0
  0
LINE
  5
185
330
1F
100
AcDbEntity
  8
0
  6
Continuous
 62
     7
370
    15
100
AcDbLine
 10
1240.0038003431
 20
777.2108065542
 30
0.0
 11
1241.8018084848
 21
777.8928542969
 31
0.0
  0
LINE
  5
186
330
1F
100
AcDbEntity
  8
0
  6
Continuous
 62
     7
370
    15
100
AcDbLine
 10
1241.8018084848
 20
793.3840746667
 30
0.0
 11
1240.0038003431
 21
794.0661224095
 31
0.0
  0
LINE
  5
187
330
1F
100
AcDbEntity
  8
0
  6
Continuous
 62
     7
370
    15
100
AcDbLine
 10
1237.5572670932
 20
776.1384644818
 30
0.0
 11
1237.9815311619
 21
776.1384644818
 31
0.0
  0
LINE
  5
188
330
1F
100
AcDbEntity
  8
0
  6
Continuous
 62
     7
370
    15
100
AcDbLine
 10
1237.9815311619
 20
795.1384644818
 30
0.0
 11
1237.5572670932
 21
795.1384644818
 31
0.0
  0
LINE
  5
189
330
1F
100
AcDbEntity
  8
0
  6
Continuous
 62
     7
370
    15
100
AcDbLine
 10
1299.2520839268
 20
777.2108065542
 30
0.0
 11
1301.0500920685
 21
777.8928542969
 31
0.0
  0
LINE
  5
18A
330
1F
100
AcDbEntity
  8
0
  6
Continuous
 62
     7
370
    15
100
AcDbLine
 10
1301.0500920685
 20
793.3840746667
 30
0.0
 11
1299.2520839268
 21
794.0661224095
 31
0.0
  0
LINE
  5
18B
330
1F
100
AcDbEntity
  8
0
  6
Continuous
 62
     7
370
    15
100
AcDbLine
 10
1296.8055506769
 20
776.1384644818
 30
0.0
 11
1297.2298147456
 21
776.1384644818
 31
0.0
  0
LINE
  5
18C
330
1F
100
AcDbEntity
  8
0
  6
Continuous
 62
     7
370
    15
100
AcDbLine
 10
1297.2298147456
 20
795.1384644818
 30
0.0
 11
1296.8055506769
 21
795.1384644818
 31
0.0
  0
LINE
  5
18D
330
1F
100
AcDbEntity
  8
0
  6
Continuous
 62
     7
370
    15
100
AcDbLine
 10
1299.2520839268
 20
392.2108065542
 30
0.0
 11
1301.0500920685
 21
392.8928542969
 31
0.0
  0
LINE
  5
18E
330
1F
100
AcDbEntity
  8
0
  6
Continuous
 62
     7
370
    15
100
AcDbLine
 10
1301.0500920685
 20
408.3840746667
 30
0.0
 11
1299.2520839268
 21
409.0661224095
 31
0.0
  0
LINE
  5
18F
330
1F
100
AcDbEntity
  8
0
  6
Continuous
 62
     7
370
    15
100
AcDbLine
 10
1296.8055506769
 20
391.1384644818
 30
0.0
 11
1297.2298147456
 21
391.1384644818
 31
0.0
  0
LINE
  5
190
330
1F
100
AcDbEntity
  8
0
  6
Continuous
 62
     7
370
    15
100
AcDbLine
 10
1297.2298147456
 20
410.1384644818
 30
0.0
 11
1296.8055506769
 21
410.1384644818
 31
0.0
  0
LINE
  5
191
330
1F
100
AcDbEntity
  8
0
  6
Continuous
 62
     7
370
    15
100
AcDbLine
 10
1283.8437548246
 20
368.6384644818
 30
0.0
 11
1284.3424899625
 21
366.713385205
 31
0.0
  0
LINE
  5
192
330
1F
100
AcDbEntity
  8
0
  6
Continuous
 62
     7
370
    15
100
AcDbLine
 10
1300.3813097635
 20
366.713385205
 30
0.0
 11
1300.8800449013
 21
368.6384644818
 31
0.0
  0
ARC
  5
193
330
1F
100
AcDbEntity
  8
0
  6
Continuous
 62
     7
370
    15
100
AcDbCircle
 10
1300.2845056836
 20
366.7384644818
 30
0.0
 40
0.0999999999999659
100
AcDbArc
 50
270.0
 51
345.4755709219
  0
ARC
  5
194
330
1F
100
AcDbEntity
  8
0
  6
Continuous
 62
     7
370
    15
100
AcDbCircle
 10
1284.4392940423
 20
366.7384644818
 30
0.0
 40
0.0999999999999659
100
AcDbArc
 50
194.5244290781
 51
269.9999999999
  0
LINE
  5
195
330
1F
100
AcDbEntity
  8
0
  6
Continuous
 62
     7
370
    15
100
AcDbLine
 10
1210.8437548246
 20
368.6384644818
 30
0.0
 11
1211.3424899625
 21
366.7133852048
 31
0.0
  0
LINE
  5
196
330
1F
100
AcDbEntity
  8
0
  6
Continuous
 62
     7
370
    15
100
AcDbLine
 10
1227.3813097635
 20
366.7133852048
 30
0.0
 11
1227.8800449014
 21
368.6384644818
 31
0.0
  0
ARC
  5
197
330
1F
100
AcDbEntity
  8
0
  6
Continuous
 62
     7
370
    15
100
AcDbCircle
 10
1227.2845056836
 20
366.7384644817
 30
0.0
 40
0.1000000000001108
100
AcDbArc
 50
270.0
 51
345.475570922
  0
ARC
  5
198
330
1F
100
AcDbEntity
  8
0
  6
Continuous
 62
     7
370
    15
100
AcDbCircle
 10
1211.4392940423
 20
366.7384644817
 30
0.0
 40
0.0999999999999659
100
AcDbArc
 50
194.5244290781
 51
270.0
  0
ARC
  5
199
330
1F
100
AcDbEntity
  8
0
  6
Continuous
 62
     7
370
    15
100
AcDbCircle
 10
1079.361899863
 20
812.6384644818
 30
0.0
 40
5.0
100
AcDbArc
 50
90.0
 51
180.0
  0
LINE
  5
19A
330
1F
100
AcDbEntity
  8
0
  6
Continuous
 62
     7
370
    15
100
AcDbLine
 10
1074.361899863
 20
812.6384644818
 30
0.0
 11
1074.361899863
 21
807.6384644818
 31
0.0
  0
ARC
  5
19B
330
1F
100
AcDbEntity
  8
0
  6
Continuous
 62
     7
370
    15
100
AcDbCircle
 10
1076.361899863
 20
807.6384644818
 30
0.0
 40
2.0
100
AcDbArc
 50
180.0
 51
270.0
  0
ARC
  5
19C
330
1F
100
AcDbEntity
  8
0
  6
Continuous
 62
     7
370
    15
100
AcDbCircle
 10
1079.361899863
 20
373.6384644818
 30
0.0
 40
5.0
100
AcDbArc
 50
180.0
 51
270.0
  0
ARC
  5
19D
330
1F
100
AcDbEntity
  8
0
  6
Continuous
 62
     7
370
    15
100
AcDbCircle
 10
1077.361899863
 20
377.6384644818
 30
0.0
 40
3.0
100
AcDbArc
 50
90.0
 51
180.0
  0
LINE
  5
19E
330
1F
100
AcDbEntity
  8
0
  6
Continuous
 62
     7
370
    15
100
AcDbLine
 10
1074.361899863
 20
377.6384644818
 30
0.0
 11
1074.361899863
 21
373.6384644818
 31
0.0
  0
LINE
  5
19F
330
1F
100
AcDbEntity
  8
0
  6
Continuous
 62
     7
370
    15
100
AcDbLine
 10
1109.161899863
 20
805.6384644818
 30
0.0
 11
1109.161899863
 21
380.6384644818
 31
0.0
  0
LINE
  5
1A0
330
1F
100
AcDbEntity
  8
0
  6
Continuous
 62
     7
370
    15
100
AcDbLine
 10
1311.7529361231
 20
382.6384644818
 30
0.0
 11
1312.361899863
 21
382.6384644818
 31
0.0
  0
ARC
  5
1A1
330
1F
100
AcDbEntity
  8
0
  6
Continuous
 62
     7
370
    15
100
AcDbCircle
 10
1310.361899863
 20
382.6384644818
 30
0.0
 40
2.0
100
AcDbArc
 50
270.0
 51
0.0
  0
LINE
  5
1A2
330
1F
100
AcDbEntity
  8
0
  6
Continuous
 62
     7
370
    15
100
AcDbLine
 10
1310.361899863
 20
380.6384644818
 30
0.0
 11
1309.905177058
 21
380.6384644818
 31
0.0
  0
ARC
  5
1A3
330
1F
100
AcDbEntity
  8
0
  6
Continuous
 62
     7
370
    15
100
AcDbCircle
 10
1309.8259207241
 20
382.5652411771
 30
0.0
 40
1.928406077567569
100
AcDbArc
 50
272.3554856445
 51
2.1760951537
  0
LINE
  5
1A4
330
1F
100
AcDbEntity
  8
0
  6
Continuous
 62
     7
370
    15
100
AcDbLine
 10
1312.361899863
 20
803.6384644818
 30
0.0
 11
1311.7529361231
 21
803.6384644818
 31
0.0
  0
ARC
  5
1A5
330
1F
100
AcDbEntity
  8
0
  6
Continuous
 62
     7
370
    15
100
AcDbCircle
 10
1309.8259207241
 20
803.7116877865
 30
0.0
 40
1.928406077567717
100
AcDbArc
 50
357.8239048463
 51
87.6445143555
  0
LINE
  5
1A6
330
1F
100
AcDbEntity
  8
0
  6
Continuous
 62
     7
370
    15
100
AcDbLine
 10
1309.905177058
 20
805.6384644818
 30
0.0
 11
1310.361899863
 21
805.6384644818
 31
0.0
  0
ARC
  5
1A7
330
1F
100
AcDbEntity
  8
0
  6
Continuous
 62
     7
370
    15
100
AcDbCircle
 10
1310.361899863
 20
803.6384644818
 30
0.0
 40
2.0
100
AcDbArc
 50
0.0
 51
90.0
  0
LINE
  5
1A8
330
1F
100
AcDbEntity
  8
0
  6
Continuous
 62
     7
370
    15
100
AcDbLine
 10
1311.7529361231
 20
382.6384644818
 30
0.0
 11
1311.7529361231
 21
803.6384644818
 31
0.0
  0
LINE
  5
1A9
330
1F
100
AcDbEntity
  8
0
  6
Continuous
 62
     7
370
    15
100
AcDbLine
 10
1312.361899863
 20
803.6384644818
 30
0.0
 11
1312.361899863
 21
382.6384644818
 31
0.0
  0
LINE
  5
1AA
330
1F
100
AcDbEntity
  8
0
  6
Continuous
 62
     7
370
    15
100
AcDbLine
 10
1226.5049815996
 20
803.6384644818
 30
0.0
 11
1224.6653974322
 21
803.6384644818
 31
0.0
  0
LWPOLYLINE
  5
1AB
330
1F
100
AcDbEntity
  8
0
  6
Continuous
 62
     7
370
    15
100
AcDbPolyline
 90
        9
 70
   128
 43
0.0
 10
1224.6653974322
 20
803.6384644818
 10
1224.6470604886
 20
804.0286451258
 10
1224.5927543364
 20
804.4038313465
 10
1224.5045659305
 20
804.7496049479
 10
1224.3858843018
 20
805.0526780442
 10
1224.2412703189
 20
805.3014037064
 10
1224.076281416
 20
805.4862235468
 10
1223.897258024
 20
805.6000350426
 10
1223.7110799117
 20
805.6384644818
  0
LINE
  5
1AC
330
1F
100
AcDbEntity
  8
0
  6
Continuous
 62
     7
370
    15
100
AcDbLine
 10
1223.7110799117
 20
805.6384644818
 30
0.0
 11
1225.0907680372
 21
805.6384644818
 31
0.0
  0
ARC
  5
1AD
330
1F
100
AcDbEntity
  8
0
  6
Continuous
 62
     7
370
    15
100
AcDbCircle
 10
1224.7372146466
 20
803.8884644818
 30
0.0
 40
1.785357107135799
100
AcDbArc
 50
351.9505330245
 51
78.578246341
  0
LINE
  5
1AE
330
1F
100
AcDbEntity
  8
0
  6
Continuous
 62
     7
370
    15
100
AcDbLine
 10
1224.6653974322
 20
382.6384644818
 30
0.0
 11
1226.5049815996
 21
382.6384644818
 31
0.0
  0
ARC
  5
1AF
330
1F
100
AcDbEntity
  8
0
  6
Continuous
 62
     7
370
    15
100
AcDbCircle
 10
1224.7372146466
 20
382.3884644818
 30
0.0
 40
1.785357107135679
100
AcDbArc
 50
281.421753659
 51
8.0494669755
  0
LINE
  5
1B0
330
1F
100
AcDbEntity
  8
0
  6
Continuous
 62
     7
370
    15
100
AcDbLine
 10
1225.0907680372
 20
380.6384644818
 30
0.0
 11
1223.7110799117
 21
380.6384644818
 31
0.0
  0
LWPOLYLINE
  5
1B1
330
1F
100
AcDbEntity
  8
0
  6
Continuous
 62
     7
370
    15
100
AcDbPolyline
 90
        9
 70
   128
 43
0.0
 10
1223.7110799117
 20
380.6384644818
 10
1223.897258024
 20
380.676893921
 10
1224.076281416
 20
380.7907054168
 10
1224.2412703189
 20
380.9755252572
 10
1224.3858843018
 20
381.2242509194
 10
1224.5045659305
 20
381.5273240158
 10
1224.5927543364
 20
381.8730976171
 10
1224.6470604886
 20
382.2482838378
 10
1224.6653974322
 20
382.6384644818
  0
LINE
  5
1B2
330
1F
100
AcDbEntity
  8
0
  6
Continuous
 62
     7
370
    15
100
AcDbLine
 10
1224.6653974322
 20
382.6384644818
 30
0.0
 11
1224.6653974322
 21
803.6384644818
 31
0.0
  0
LINE
  5
1B3
330
1F
100
AcDbEntity
  8
0
  6
Continuous
 62
     7
370
    15
100
AcDbLine
 10
1226.5049815996
 20
803.6384644818
 30
0.0
 11
1226.5049815996
 21
382.6384644818
 31
0.0
  0
LINE
  5
1B4
330
1F
100
AcDbEntity
  8
0
  6
Continuous
 62
     7
370
    15
100
AcDbLine
 10
1310.0187541125
 20
803.6384644818
 30
0.0
 11
1226.5049815996
 21
803.6384644818
 31
0.0
  0
LINE
  5
1B5
330
1F
100
AcDbEntity
  8
0
  6
Continuous
 62
     7
370
    15
100
AcDbLine
 10
1225.0907680372
 20
805.6384644818
 30
0.0
 11
1308.6045405501
 21
805.6384644818
 31
0.0
  0
ARC
  5
1B6
330
1F
100
AcDbEntity
  8
0
  6
Continuous
 62
     7
370
    15
100
AcDbCircle
 10
1308.2509871595
 20
803.8884644818
 30
0.0
 40
1.78535710713559
100
AcDbArc
 50
351.9505330245
 51
78.578246341
  0
LINE
  5
1B7
330
1F
100
AcDbEntity
  8
0
  6
Continuous
 62
     7
370
    15
100
AcDbLine
 10
1308.6045405501
 20
380.6384644818
 30
0.0
 11
1225.0907680372
 21
380.6384644818
 31
0.0
  0
LINE
  5
1B8
330
1F
100
AcDbEntity
  8
0
  6
Continuous
 62
     7
370
    15
100
AcDbLine
 10
1226.5049815996
 20
382.6384644818
 30
0.0
 11
1310.0187541125
 21
382.6384644818
 31
0.0
  0
ARC
  5
1B9
330
1F
100
AcDbEntity
  8
0
  6
Continuous
 62
     7
370
    15
100
AcDbCircle
 10
1308.2509871595
 20
382.3884644818
 30
0.0
 40
1.785357107135574
100
AcDbArc
 50
281.421753659
 51
8.0494669755
  0
LINE
  5
1BA
330
1F
100
AcDbEntity
  8
0
  6
Continuous
 62
     7
370
    15
100
AcDbLine
 10
1310.0187541125
 20
803.6384644818
 30
0.0
 11
1310.0187541125
 21
382.6384644818
 31
0.0
  0
LWPOLYLINE
  5
1BB
330
1F
100
AcDbEntity
  8
0
  6
Continuous
 62
     7
370
    15
100
AcDbPolyline
 90
       34
 70
   128
 43
0.0
 10
1305.2908320511
 20
400.6384644818
 10
1305.163048644
 20
402.5309769254
 10
1304.7843168479
 20
404.3550890384
 10
1304.1683250168
 20
406.0448726564
 10
1303.3373367004
 20
407.5392545966
 10
1302.3213859815
 20
408.7842240023
 10
1301.1571919662
 20
409.7347844354
 10
1299.8868316595
 20
410.356580165
 10
1298.5562191926
 20
410.6271378736
 10
1297.2134463672
 20
410.5366789006
 10
1295.9070444915
 20
410.088472669
 10
1294.6842303333
 20
409.2987185197
 10
1293.5891995822
 20
408.1959602254
 10
1292.6615295026
 20
406.820054344
 10
1291.9347485082
 20
405.2207296991
 10
1291.4351243578
 20
403.4557900502
 10
1291.1807147699
 20
401.5890249149
 10
1291.1807147699
 20
399.6879040488
 10
1291.4351243578
 20
397.8211389134
 10
1291.9347485082
 20
396.0561992645
 10
1292.6615295026
 20
394.4568746196
 10
1293.5891995822
 20
393.0809687383
 10
1294.6842303333
 20
391.978210444
 10
1295.9070444915
 20
391.1884562947
 10
1297.2134463672
 20
390.740250063
 10
1298.5562191926
 20
390.64979109
 10
1299.8868316595
 20
390.9203487986
 10
1301.1571919662
 20
391.5421445283
 10
1302.3213859815
 20
392.4927049613
 10
1303.3373367004
 20
393.737674367
 10
1304.1683250168
 20
395.2320563073
 10
1304.7843168479
 20
396.9218399252
 10
1305.163048644
 20
398.7459520382
 10
1305.2908320511
 20
400.6384644818
  0
LWPOLYLINE
  5
1BC
330
1F
100
AcDbEntity
  8
0
  6
Continuous
 62
     7
370
    15
100
AcDbPolyline
 90
       34
 70
   128
 43
0.0
 10
1305.2908320511
 20
785.6384644818
 10
1305.163048644
 20
787.5309769254
 10
1304.7843168479
 20
789.3550890384
 10
1304.1683250168
 20
791.0448726564
 10
1303.3373367004
 20
792.5392545966
 10
1302.3213859815
 20
793.7842240023
 10
1301.1571919662
 20
794.7347844354
 10
1299.8868316595
 20
795.356580165
 10
1298.5562191926
 20
795.6271378736
 10
1297.2134463672
 20
795.5366789006
 10
1295.9070444915
 20
795.088472669
 10
1294.6842303333
 20
794.2987185197
 10
1293.5891995822
 20
793.1959602254
 10
1292.6615295026
 20
791.820054344
 10
1291.9347485082
 20
790.2207296991
 10
1291.4351243578
 20
788.4557900502
 10
1291.1807147699
 20
786.5890249149
 10
1291.1807147699
 20
784.6879040488
 10
1291.4351243578
 20
782.8211389134
 10
1291.9347485082
 20
781.0561992645
 10
1292.6615295026
 20
779.4568746196
 10
1293.5891995822
 20
778.0809687383
 10
1294.6842303333
 20
776.978210444
 10
1295.9070444915
 20
776.1884562947
 10
1297.2134463672
 20
775.740250063
 10
1298.5562191926
 20
775.64979109
 10
1299.8868316595
 20
775.9203487986
 10
1301.1571919662
 20
776.5421445283
 10
1302.3213859815
 20
777.4927049613
 10
1303.3373367004
 20
778.737674367
 10
1304.1683250168
 20
780.2320563073
 10
1304.7843168479
 20
781.9218399252
 10
1305.163048644
 20
783.7459520382
 10
1305.2908320511
 20
785.6384644818
  0
LWPOLYLINE
  5
1BD
330
1F
100
AcDbEntity
  8
0
  6
Continuous
 62
     7
370
    15
100
AcDbPolyline
 90
       34
 70
   128
 43
0.0
 10
1246.0425484674
 20
400.6384644818
 10
1245.9147650603
 20
402.5309769254
 10
1245.5360332642
 20
404.3550890384
 10
1244.9200414331
 20
406.0448726564
 10
1244.0890531167
 20
407.5392545966
 10
1243.0731023978
 20
408.7842240023
 10
1241.9089083825
 20
409.7347844354
 10
1240.6385480758
 20
410.356580165
 10
1239.3079356089
 20
410.6271378736
 10
1237.9651627835
 20
410.5366789006
 10
1236.6587609078
 20
410.088472669
 10
1235.4359467496
 20
409.2987185197
 10
1234.3409159985
 20
408.1959602254
 10
1233.4132459189
 20
406.820054344
 10
1232.6864649245
 20
405.2207296991
 10
1232.1868407741
 20
403.4557900502
 10
1231.9324311862
 20
401.5890249149
 10
1231.9324311862
 20
399.6879040488
 10
1232.1868407741
 20
397.8211389134
 10
1232.6864649245
 20
396.0561992645
 10
1233.4132459189
 20
394.4568746196
 10
1234.3409159985
 20
393.0809687383
 10
1235.4359467496
 20
391.978210444
 10
1236.6587609078
 20
391.1884562947
 10
1237.9651627835
 20
390.740250063
 10
1239.3079356089
 20
390.64979109
 10
1240.6385480758
 20
390.9203487986
 10
1241.9089083825
 20
391.5421445283
 10
1243.0731023978
 20
392.4927049613
 10
1244.0890531167
 20
393.737674367
 10
1244.9200414331
 20
395.2320563073
 10
1245.5360332642
 20
396.9218399252
 10
1245.9147650603
 20
398.7459520382
 10
1246.0425484674
 20
400.6384644818
  0
LWPOLYLINE
  5
1BE
330
1F
100
AcDbEntity
  8
0
  6
Continuous
 62
     7
370
    15
100
AcDbPolyline
 90
       34
 70
   128
 43
0.0
 10
1246.0425484674
 20
785.6384644818
 10
1245.9147650603
 20
787.5309769254
 10
1245.5360332643
 20
789.3550890384
 10
1244.9200414332
 20
791.0448726564
 10
1244.0890531168
 20
792.5392545966
 10
1243.0731023979
 20
793.7842240023
 10
1241.9089083826
 20
794.7347844354
 10
1240.6385480758
 20
795.356580165
 10
1239.307935609
 20
795.6271378736
 10
1237.9651627835
 20
795.5366789006
 10
1236.6587609078
 20
795.088472669
 10
1235.4359467496
 20
794.2987185197
 10
1234.3409159985
 20
793.1959602254
 10
1233.4132459189
 20
791.820054344
 10
1232.6864649245
 20
790.2207296991
 10
1232.1868407741
 20
788.4557900502
 10
1231.9324311862
 20
786.5890249149
 10
1231.9324311862
 20
784.6879040488
 10
1232.1868407741
 20
782.8211389134
 10
1232.6864649245
 20
781.0561992645
 10
1233.4132459189
 20
779.4568746196
 10
1234.3409159985
 20
778.0809687383
 10
1235.4359467496
 20
776.978210444
 10
1236.6587609078
 20
776.1884562947
 10
1237.9651627835
 20
775.740250063
 10
1239.307935609
 20
775.64979109
 10
1240.6385480758
 20
775.9203487986
 10
1241.9089083826
 20
776.5421445283
 10
1243.0731023979
 20
777.4927049613
 10
1244.0890531168
 20
778.737674367
 10
1244.9200414332
 20
780.2320563073
 10
1245.5360332643
 20
781.9218399252
 10
1245.9147650603
 20
783.7459520382
 10
1246.0425484674
 20
785.6384644818
  0
ARC
  5
1BF
330
1F
100
AcDbEntity
  8
0
  6
Continuous
 62
     7
370
    15
100
AcDbCircle
 10
1237.1546248334
 20
789.3587545883
 30
0.0
 40
6.327658575177701
100
AcDbArc
 50
37.7224336382
 51
79.8991881236
  0
ARC
  5
1C0
330
1F
100
AcDbEntity
  8
0
  6
Continuous
 62
     7
370
    15
100
AcDbCircle
 10
1237.1396736057
 20
781.956624713
 30
0.0
 40
6.368140110686583
100
AcDbArc
 50
280.17257443
 51
323.5550474664
  0
ARC
  5
1C1
330
1F
100
AcDbEntity
  8
0
  6
Continuous
 62
     7
370
    15
100
AcDbCircle
 10
1237.1546248333
 20
404.3587545883
 30
0.0
 40
6.327658575154809
100
AcDbArc
 50
37.7224336397
 51
79.8991881227
  0
ARC
  5
1C2
330
1F
100
AcDbEntity
  8
0
  6
Continuous
 62
     7
370
    15
100
AcDbCircle
 10
1237.1396736057
 20
396.956624713
 30
0.0
 40
6.368140110708793
100
AcDbArc
 50
280.1725744309
 51
323.5550474663
  0
ARC
  5
1C3
330
1F
100
AcDbEntity
  8
0
  6
Continuous
 62
     7
370
    15
100
AcDbCircle
 10
1296.402908417
 20
404.3587545881
 30
0.0
 40
6.327658575355867
100
AcDbArc
 50
37.7224336324
 51
79.8991881233
  0
ARC
  5
1C4
330
1F
100
AcDbEntity
  8
0
  6
Continuous
 62
     7
370
    15
100
AcDbCircle
 10
1296.3879571895
 20
396.9566247128
 30
0.0
 40
6.368140110505562
100
AcDbArc
 50
280.1725744294
 51
323.555047461
  0
ARC
  5
1C5
330
1F
100
AcDbEntity
  8
0
  6
Continuous
 62
     7
370
    15
100
AcDbCircle
 10
1296.402908417
 20
789.3587545883
 30
0.0
 40
6.327658575175588
100
AcDbArc
 50
37.7224336385
 51
79.8991881234
  0
ARC
  5
1C6
330
1F
100
AcDbEntity
  8
0
  6
Continuous
 62
     7
370
    15
100
AcDbCircle
 10
1296.3879571893
 20
781.9566247131
 30
0.0
 40
6.368140110823503
100
AcDbArc
 50
280.1725744303
 51
323.5550474706
  0
LINE
  5
1C7
330
1F
100
AcDbEntity
  8
0
  6
Continuous
 62
     7
370
    15
100
AcDbLine
 10
1311.7529361231
 20
803.6384644818
 30
0.0
 11
1310.0187541125
 21
803.6384644818
 31
0.0
  0
LINE
  5
1C8
330
1F
100
AcDbEntity
  8
0
  6
Continuous
 62
     7
370
    15
100
AcDbLine
 10
1310.0187541125
 20
382.6384644818
 30
0.0
 11
1311.7529361231
 21
382.6384644818
 31
0.0
  0
LINE
  5
1C9
330
1F
100
AcDbEntity
  8
0
  6
Continuous
 62
     7
370
    15
100
AcDbLine
 10
1309.905177058
 20
380.6384644818
 30
0.0
 11
1308.6045405501
 21
380.6384644818
 31
0.0
  0
LINE
  5
1CA
330
1F
100
AcDbEntity
  8
0
  6
Continuous
 62
     7
370
    15
100
AcDbLine
 10
1308.6045405501
 20
805.6384644818
 30
0.0
 11
1309.905177058
 21
805.6384644818
 31
0.0
  0
LINE
  5
1CB
330
1F
100
AcDbEntity
  8
0
  6
Continuous
 62
     7
370
    15
100
AcDbLine
 10
1310.4479117408
 20
805.6384644818
 30
0.0
 11
1310.361899863
 21
805.6384644818
 31
0.0
  0
LINE
  5
1CC
330
1F
100
AcDbEntity
  8
0
  6
Continuous
 62
     7
370
    15
100
AcDbLine
 10
1310.4479117408
 20
380.6384644818
 30
0.0
 11
1310.4479117408
 21
380.6403148486
 31
0.0
  0
LINE
  5
1CD
330
1F
100
AcDbEntity
  8
0
  6
Continuous
 62
     7
370
    15
100
AcDbLine
 10
1310.4479117408
 20
805.6366141151
 30
0.0
 11
1310.4479117408
 21
805.6384644818
 31
0.0
  0
LINE
  5
1CE
330
1F
100
AcDbEntity
  8
0
  6
Continuous
 62
     7
370
    15
100
AcDbLine
 10
1310.361899863
 20
380.6384644818
 30
0.0
 11
1310.4479117408
 21
380.6384644818
 31
0.0
  0
ARC
  5
1CF
330
1F
100
AcDbEntity
  8
0
  6
Continuous
 62
     7
370
    15
100
AcDbCircle
 10
1219.794686168
 20
382.1600781174
 30
0.0
 40
2.758532397955247
100
AcDbArc
 50
326.5229725425
 51
9.986760318
  0
LINE
  5
1D0
330
1F
100
AcDbEntity
  8
0
  6
Continuous
 62
     7
370
    15
100
AcDbLine
 10
1222.095597495
 20
380.6384644818
 30
0.0
 11
1111.8730445325
 21
380.6384644818
 31
0.0
  0
SPLINE
  5
1D1
330
1F
100
AcDbEntity
  8
0
  6
Continuous
 62
     7
370
    15
100
AcDbSpline
210
0.0
220
0.0
230
1.0
 70
     8
 71
     3
 72
    12
 73
     8
 74
     0
 42
0.00000001
 43
0.00000001
 12
1.0
 22
0.0
 32
0.0
 13
1.0
 23
0.0
 33
0.0
 40
0.0
 40
0.0
 40
0.0
 40
0.0
 40
0.0027767895334008
 40
0.1156494554581929
 40
0.5173110774542954
 40
0.8007006895651355
 40
1.0
 40
1.0
 40
1.0
 40
1.0
 10
1116.201458317055
 20
382.6384644818126
 30
0.0
 10
1116.197560623134
 20
382.6359447353641
 30
0.0
 10
1116.035227045398
 20
382.5310007699877
 30
0.0
 10
1115.301396819247
 20
382.0612323809603
 30
0.0
 10
1114.121307584552
 20
381.3642271635989
 30
0.0
 10
1112.793823163718
 20
380.7503219668982
 30
0.0
 10
1112.142126222452
 20
380.6711529045249
 30
0.0
 10
1111.873044532485
 20
380.6384644818126
 30
0.0
  0
LINE
  5
1D2
330
1F
100
AcDbEntity
  8
0
  6
Continuous
 62
     7
370
    15
100
AcDbLine
 10
1116.2014583171
 20
382.6384644818
 30
0.0
 11
1222.5114208766
 21
382.6384644818
 31
0.0
  0
ARC
  5
1D3
330
1F
100
AcDbEntity
  8
0
  6
Continuous
 62
     7
370
    15
100
AcDbCircle
 10
1219.794686168
 20
804.1168508462
 30
0.0
 40
2.758532397955257
100
AcDbArc
 50
350.013239682
 51
33.4770274575
  0
LINE
  5
1D4
330
1F
100
AcDbEntity
  8
0
  6
Continuous
 62
     7
370
    15
100
AcDbLine
 10
1222.5114208766
 20
803.6384644818
 30
0.0
 11
1116.2014583171
 21
803.6384644818
 31
0.0
  0
SPLINE
  5
1D5
330
1F
100
AcDbEntity
  8
0
  6
Continuous
 62
     7
370
    15
100
AcDbSpline
210
0.0
220
0.0
230
1.0
 70
     8
 71
     3
 72
    12
 73
     8
 74
     0
 42
0.00000001
 43
0.00000001
 12
1.0
 22
0.0
 32
0.0
 13
1.0
 23
0.0
 33
0.0
 40
0.0
 40
0.0
 40
0.0
 40
0.0
 40
0.1992993104348618
 40
0.4826889225457052
 40
0.8843505445418405
 40
0.9972232104665861
 40
1.0
 40
1.0
 40
1.0
 40
1.0
 10
1111.873044532485
 20
805.6384644818127
 30
0.0
 10
1112.142126222451
 20
805.605776059099
 30
0.0
 10
1112.793823163715
 20
805.5266069967229
 30
0.0
 10
1114.12130758457
 20
804.9127018000556
 30
0.0
 10
1115.30139681918
 20
804.2156965825551
 30
0.0
 10
1116.035227045438
 20
803.7459281937017
 30
0.0
 10
1116.197560623135
 20
803.6409842282625
 30
0.0
 10
1116.201458317055
 20
803.6384644818127
 30
0.0
  0
LINE
  5
1D6
330
1F
100
AcDbEntity
  8
0
  6
Continuous
 62
     7
370
    15
100
AcDbLine
 10
1111.8730445325
 20
805.6384644818
 30
0.0
 11
1222.095597495
 21
805.6384644818
 31
0.0
  0
LINE
  5
1D7
330
1F
100
AcDbEntity
  8
0
  6
Continuous
 62
     7
370
    15
100
AcDbLine
 10
1116.2014583171
 20
803.6384644818
 30
0.0
 11
1116.2014583171
 21
382.6384644818
 31
0.0
  0
LINE
  5
1D8
330
1F
100
AcDbEntity
  8
0
  6
Continuous
 62
     7
370
    15
100
AcDbLine
 10
1111.8730445325
 20
380.6384644818
 30
0.0
 11
1111.0952878234
 21
380.6384644818
 31
0.0
  0
LINE
  5
1D9
330
1F
100
AcDbEntity
  8
0
  6
Continuous
 62
     7
370
    15
100
AcDbLine
 10
1110.161899863
 20
380.6384644818
 30
0.0
 11
1110.161899863
 21
805.6384644818
 31
0.0
  0
LINE
  5
1DA
330
1F
100
AcDbEntity
  8
0
  6
Continuous
 62
     7
370
    15
100
AcDbLine
 10
1222.5114208766
 20
803.6384644818
 30
0.0
 11
1222.5114208766
 21
382.6384644818
 31
0.0
  0
LWPOLYLINE
  5
1DB
330
1F
100
AcDbEntity
  8
0
  6
Continuous
 62
     7
370
    15
100
AcDbPolyline
 90
       27
 70
   128
 43
0.0
 10
1163.5962468089
 20
412.6384644818
 10
1163.7674965381
 20
414.0803413591
 10
1164.2712933139
 20
415.4384215934
 10
1165.0783582988
 20
416.6337784977
 10
1166.1417878096
 20
417.5969422738
 10
1167.3997791885
 20
418.271937344
 10
1168.7792225492
 20
418.6195354483
 10
1170.1999496575
 20
418.6195354483
 10
1171.5793930181
 20
418.271937344
 10
1172.837384397
 20
417.5969422738
 10
1173.9008139078
 20
416.6337784977
 10
1174.7078788928
 20
415.4384215934
 10
1175.2116756686
 20
414.0803413591
 10
1175.3829253978
 20
412.6384644818
 10
1175.2116756686
 20
411.1965876045
 10
1174.7078788928
 20
409.8385073702
 10
1173.9008139078
 20
408.6431504659
 10
1172.837384397
 20
407.6799866898
 10
1171.5793930181
 20
407.0049916196
 10
1170.1999496575
 20
406.6573935154
 10
1168.7792225492
 20
406.6573935154
 10
1167.3997791885
 20
407.0049916196
 10
1166.1417878096
 20
407.6799866898
 10
1165.0783582988
 20
408.6431504659
 10
1164.2712933139
 20
409.8385073702
 10
1163.7674965381
 20
411.1965876045
 10
1163.5962468089
 20
412.6384644818
  0
LWPOLYLINE
  5
1DC
330
1F
100
AcDbEntity
  8
0
  6
Continuous
 62
     7
370
    15
100
AcDbPolyline
 90
       27
 70
   128
 43
0.0
 10
1163.5962468089
 20
785.6384644818
 10
1163.7674965381
 20
787.0803413591
 10
1164.2712933139
 20
788.4384215934
 10
1165.0783582988
 20
789.6337784977
 10
1166.1417878096
 20
790.5969422738
 10
1167.3997791885
 20
791.271937344
 10
1168.7792225492
 20
791.6195354483
 10
1170.1999496575
 20
791.6195354483
 10
1171.5793930181
 20
791.271937344
 10
1172.837384397
 20
790.5969422738
 10
1173.9008139078
 20
789.6337784977
 10
1174.7078788928
 20
788.4384215934
 10
1175.2116756686
 20
787.0803413591
 10
1175.3829253978
 20
785.6384644818
 10
1175.2116756686
 20
784.1965876045
 10
1174.7078788928
 20
782.8385073702
 10
1173.9008139078
 20
781.6431504659
 10
1172.837384397
 20
780.6799866898
 10
1171.5793930181
 20
780.0049916196
 10
1170.1999496575
 20
779.6573935154
 10
1168.7792225492
 20
779.6573935154
 10
1167.3997791885
 20
780.0049916196
 10
1166.1417878096
 20
780.6799866898
 10
1165.0783582988
 20
781.6431504659
 10
1164.2712933139
 20
782.8385073702
 10
1163.7674965381
 20
784.1965876045
 10
1163.5962468089
 20
785.6384644818
  0
LINE
  5
1DD
330
1F
100
AcDbEntity
  8
0
  6
Continuous
 62
     7
370
    15
100
AcDbLine
 10
1224.6653974322
 20
803.6384644818
 30
0.0
 11
1222.5114208766
 21
803.6384644818
 31
0.0
  0
LWPOLYLINE
  5
1DE
330
1F
100
AcDbEntity
  8
0
  6
Continuous
 62
     7
370
    15
100
AcDbPolyline
 90
        9
 70
   128
 43
0.0
 10
1223.7110799117
 20
805.6384644818
 10
1223.897258024
 20
805.6000350426
 10
1224.076281416
 20
805.4862235468
 10
1224.2412703189
 20
805.3014037064
 10
1224.3858843018
 20
805.0526780442
 10
1224.5045659305
 20
804.7496049479
 10
1224.5927543364
 20
804.4038313465
 10
1224.6470604886
 20
804.0286451258
 10
1224.6653974322
 20
803.6384644818
  0
LINE
  5
1DF
330
1F
100
AcDbEntity
  8
0
  6
Continuous
 62
     7
370
    15
100
AcDbLine
 10
1222.095597495
 20
805.6384644818
 30
0.0
 11
1223.7110799117
 21
805.6384644818
 31
0.0
  0
LINE
  5
1E0
330
1F
100
AcDbEntity
  8
0
  6
Continuous
 62
     7
370
    15
100
AcDbLine
 10
1222.5114208766
 20
382.6384644818
 30
0.0
 11
1224.6653974322
 21
382.6384644818
 31
0.0
  0
LWPOLYLINE
  5
1E1
330
1F
100
AcDbEntity
  8
0
  6
Continuous
 62
     7
370
    15
100
AcDbPolyline
 90
        9
 70
   128
 43
0.0
 10
1224.6653974322
 20
382.6384644818
 10
1224.6470604886
 20
382.2482838378
 10
1224.5927543364
 20
381.8730976171
 10
1224.5045659305
 20
381.5273240158
 10
1224.3858843018
 20
381.2242509194
 10
1224.2412703189
 20
380.9755252572
 10
1224.076281416
 20
380.7907054168
 10
1223.897258024
 20
380.676893921
 10
1223.7110799117
 20
380.6384644818
  0
LINE
  5
1E2
330
1F
100
AcDbEntity
  8
0
  6
Continuous
 62
     7
370
    15
100
AcDbLine
 10
1223.7110799117
 20
380.6384644818
 30
0.0
 11
1222.095597495
 21
380.6384644818
 31
0.0
  0
LINE
  5
1E3
330
1F
100
AcDbEntity
  8
0
  6
Continuous
 62
     7
370
    15
100
AcDbLine
 10
1098.9580733647
 20
366.6384644819
 30
0.0
 11
1092.3651621638
 21
366.6384644819
 31
0.0
  0
LINE
  5
1E4
330
1F
100
AcDbEntity
  8
0
  6
Continuous
 62
     7
370
    15
100
AcDbLine
 10
1108.2103738051
 20
366.6384644819
 30
0.0
 11
1098.9580733647
 21
366.6384644819
 31
0.0
  0
LINE
  5
1E5
330
1F
100
AcDbEntity
  8
0
  6
Continuous
 62
     7
370
    15
100
AcDbLine
 10
1245.2093421833
 20
396.5460331758
 30
0.0
 11
1244.6145831667
 21
395.3808810086
 31
0.0
  0
LWPOLYLINE
  5
1E6
330
1F
100
AcDbEntity
  8
0
  6
Continuous
 62
     7
370
    15
100
AcDbPolyline
 90
       29
 70
   128
 43
0.0
 10
1241.8018084848
 20
392.8928542969
 10
1241.4453142156
 20
392.7749289405
 10
1240.2649375981
 20
392.6196274723
 10
1239.0875232774
 20
392.8147876601
 10
1237.9645299091
 20
393.3518800671
 10
1236.9450376921
 20
394.207431178
 10
1236.0736033284
 20
395.3440493038
 10
1235.3883126813
 20
396.7120587783
 10
1234.9191162405
 20
398.251671023
 10
1234.6865201419
 20
399.895597595
 10
1234.700689951
 20
401.5719910146
 10
1234.9610063793
 20
403.2075848451
 10
1235.4560923497
 20
404.7308957878
 10
1236.1643102296
 20
406.0753478447
 10
1237.0547074993
 20
407.1821820097
 10
1238.0883695254
 20
408.0030243184
 10
1239.2201203174
 20
408.5020000231
 10
1240.4004969349
 20
408.6573014913
 10
1241.5779112556
 20
408.4621413036
 10
1242.7009046239
 20
407.9250488965
 10
1243.7203968409
 20
407.0694977856
 10
1244.5918312046
 20
405.9328796598
 10
1245.2771218516
 20
404.5648701853
 10
1245.7463182925
 20
403.0252579406
 10
1245.9789143911
 20
401.3813313687
 10
1245.964744582
 20
399.7049379491
 10
1245.7044281537
 20
398.0693441185
 10
1245.2093421833
 20
396.5460331758
 10
1245.2093421833
 20
396.5460331758
  0
LWPOLYLINE
  5
1E7
330
1F
100
AcDbEntity
  8
0
  6
Continuous
 62
     7
370
    15
100
AcDbPolyline
 90
       30
 70
   128
 43
0.0
 10
1235.5679361247
 20
404.6814951396
 10
1235.0660034439
 20
403.1223048808
 10
1234.8128135913
 20
401.4469730055
 10
1234.820205443
 20
399.7338361702
 10
1235.0878333642
 20
398.0629987494
 10
1235.6031833708
 20
396.5125872438
 10
1236.3421582692
 20
395.1550971722
 10
1237.2702044145
 20
394.0540032617
 10
1238.3439274004
 20
393.2607914398
 10
1239.5131211334
 20
392.8125514096
 10
1240.723115414
 20
392.7302423768
 10
1241.9173322546
 20
393.0177130203
 10
1243.0399314028
 20
393.6615215322
 10
1244.0384213702
 20
394.6315641422
 10
1244.8661138758
 20
395.8824827358
 10
1245.4843069377
 20
397.35578575
 10
1245.8640945356
 20
398.9825831733
 10
1245.9877182234
 20
400.6868077661
 10
1245.8493974949
 20
402.3887718808
 10
1245.4556000737
 20
404.0088935667
 10
1244.8247394894
 20
405.4714177347
 10
1243.9863140819
 20
406.7079583799
 10
1242.9795276913
 20
407.6606962363
 10
1241.8514565304
 20
408.2850823404
 10
1240.6548479528
 20
408.5519210921
 10
1239.4456540457
 20
408.4487354079
 10
1238.2804153723
 20
407.9803501357
 10
1237.2136171979
 20
407.1686664502
 10
1236.2951418194
 20
406.0516377784
 10
1235.5679361247
 20
404.6814951396
  0
ARC
  5
1E8
330
1F
100
AcDbEntity
  8
0
  6
Continuous
 62
     7
370
    15
100
AcDbCircle
 10
1237.9664618814
 20
396.535380618
 30
0.0
 40
5.349343982212207
100
AcDbArc
 50
248.5959578311
 51
319.6199123867
  0
ARC
  5
1E9
330
1F
100
AcDbEntity
  8
0
  6
Continuous
 62
     7
370
    15
100
AcDbCircle
 10
1237.9867083808
 20
404.8566316898
 30
0.0
 40
5.249939378828074
100
AcDbArc
 50
41.55717582
 51
112.0681380679
  0
LWPOLYLINE
  5
1EA
330
1F
100
AcDbEntity
  8
0
  6
Continuous
 62
     7
370
    15
100
AcDbPolyline
 90
        3
 70
   128
 43
0.0
 10
1236.5408010952
 20
391.247852481
 10
1236.6009115297
 20
391.2352326931
 10
1237.5572670932
 20
391.1384644818
  0
LWPOLYLINE
  5
1EB
330
1F
100
AcDbEntity
  8
0
  6
Continuous
 62
     7
370
    15
100
AcDbPolyline
 90
        3
 70
   128
 43
0.0
 10
1237.5572670932
 20
410.1384644818
 10
1237.1980736457
 20
410.1248737147
 10
1236.5408010952
 20
410.0290764826
  0
LINE
  5
1EC
330
1F
100
AcDbEntity
  8
0
  6
Continuous
 62
     7
370
    15
100
AcDbLine
 10
1245.2093421833
 20
781.5460331758
 30
0.0
 11
1244.6145831667
 21
780.3808810086
 31
0.0
  0
LWPOLYLINE
  5
1ED
330
1F
100
AcDbEntity
  8
0
  6
Continuous
 62
     7
370
    15
100
AcDbPolyline
 90
       29
 70
   128
 43
0.0
 10
1241.8018084848
 20
777.8928542969
 10
1241.4453142156
 20
777.7749289405
 10
1240.2649375981
 20
777.6196274723
 10
1239.0875232774
 20
777.8147876601
 10
1237.9645299091
 20
778.3518800671
 10
1236.9450376921
 20
779.207431178
 10
1236.0736033285
 20
780.3440493038
 10
1235.3883126814
 20
781.7120587783
 10
1234.9191162405
 20
783.251671023
 10
1234.6865201419
 20
784.895597595
 10
1234.700689951
 20
786.5719910146
 10
1234.9610063793
 20
788.2075848451
 10
1235.4560923497
 20
789.7308957878
 10
1236.1643102297
 20
791.0753478447
 10
1237.0547074993
 20
792.1821820097
 10
1238.0883695254
 20
793.0030243184
 10
1239.2201203174
 20
793.5020000231
 10
1240.4004969349
 20
793.6573014913
 10
1241.5779112556
 20
793.4621413036
 10
1242.7009046239
 20
792.9250488965
 10
1243.7203968409
 20
792.0694977856
 10
1244.5918312046
 20
790.9328796598
 10
1245.2771218517
 20
789.5648701853
 10
1245.7463182925
 20
788.0252579406
 10
1245.9789143912
 20
786.3813313687
 10
1245.964744582
 20
784.7049379491
 10
1245.7044281537
 20
783.0693441185
 10
1245.2093421833
 20
781.5460331758
 10
1245.2093421833
 20
781.5460331758
  0
LWPOLYLINE
  5
1EE
330
1F
100
AcDbEntity
  8
0
  6
Continuous
 62
     7
370
    15
100
AcDbPolyline
 90
       30
 70
   128
 43
0.0
 10
1235.5679361247
 20
789.6814951396
 10
1235.0660034439
 20
788.1223048808
 10
1234.8128135913
 20
786.4469730055
 10
1234.820205443
 20
784.7338361702
 10
1235.0878333642
 20
783.0629987494
 10
1235.6031833708
 20
781.5125872438
 10
1236.3421582692
 20
780.1550971722
 10
1237.2702044145
 20
779.0540032617
 10
1238.3439274004
 20
778.2607914398
 10
1239.5131211334
 20
777.8125514096
 10
1240.7231154141
 20
777.7302423768
 10
1241.9173322546
 20
778.0177130203
 10
1243.0399314028
 20
778.6615215322
 10
1244.0384213703
 20
779.6315641422
 10
1244.8661138758
 20
780.8824827358
 10
1245.4843069377
 20
782.35578575
 10
1245.8640945356
 20
783.9825831733
 10
1245.9877182234
 20
785.6868077661
 10
1245.8493974949
 20
787.3887718808
 10
1245.4556000737
 20
789.0088935667
 10
1244.8247394894
 20
790.4714177347
 10
1243.9863140819
 20
791.7079583799
 10
1242.9795276914
 20
792.6606962363
 10
1241.8514565304
 20
793.2850823404
 10
1240.6548479529
 20
793.5519210921
 10
1239.4456540458
 20
793.4487354079
 10
1238.2804153723
 20
792.9803501357
 10
1237.2136171979
 20
792.1686664502
 10
1236.2951418194
 20
791.0516377784
 10
1235.5679361247
 20
789.6814951396
  0
ARC
  5
1EF
330
1F
100
AcDbEntity
  8
0
  6
Continuous
 62
     7
370
    15
100
AcDbCircle
 10
1237.9664618815
 20
781.535380618
 30
0.0
 40
5.349343982170225
100
AcDbArc
 50
248.5959578232
 51
319.619912386
  0
ARC
  5
1F0
330
1F
100
AcDbEntity
  8
0
  6
Continuous
 62
     7
370
    15
100
AcDbCircle
 10
1237.9867083809
 20
789.8566316898
 30
0.0
 40
5.24993937888956
100
AcDbArc
 50
41.5571758156
 51
112.0681380695
  0
LWPOLYLINE
  5
1F1
330
1F
100
AcDbEntity
  8
0
  6
Continuous
 62
     7
370
    15
100
AcDbPolyline
 90
        3
 70
   128
 43
0.0
 10
1236.5408010963
 20
776.2478524808
 10
1236.6009115297
 20
776.2352326931
 10
1237.5572670932
 20
776.1384644818
  0
LWPOLYLINE
  5
1F2
330
1F
100
AcDbEntity
  8
0
  6
Continuous
 62
     7
370
    15
100
AcDbPolyline
 90
        3
 70
   128
 43
0.0
 10
1237.5572670932
 20
795.1384644818
 10
1237.1980736458
 20
795.1248737147
 10
1236.5408010965
 20
795.0290764829
  0
LINE
  5
1F3
330
1F
100
AcDbEntity
  8
0
  6
Continuous
 62
     7
370
    15
100
AcDbLine
 10
1304.457625767
 20
781.5460331758
 30
0.0
 11
1303.8628667504
 21
780.3808810086
 31
0.0
  0
LWPOLYLINE
  5
1F4
330
1F
100
AcDbEntity
  8
0
  6
Continuous
 62
     7
370
    15
100
AcDbPolyline
 90
       29
 70
   128
 43
0.0
 10
1301.0500920685
 20
777.8928542969
 10
1300.6935977993
 20
777.7749289405
 10
1299.5132211818
 20
777.6196274723
 10
1298.3358068611
 20
777.8147876601
 10
1297.2128134928
 20
778.3518800671
 10
1296.1933212758
 20
779.207431178
 10
1295.3218869121
 20
780.3440493038
 10
1294.636596265
 20
781.7120587783
 10
1294.1673998242
 20
783.251671023
 10
1293.9348037256
 20
784.895597595
 10
1293.9489735347
 20
786.5719910146
 10
1294.209289963
 20
788.2075848451
 10
1294.7043759334
 20
789.7308957878
 10
1295.4125938133
 20
791.0753478447
 10
1296.302991083
 20
792.1821820097
 10
1297.3366531091
 20
793.0030243184
 10
1298.4684039011
 20
793.5020000231
 10
1299.6487805186
 20
793.6573014913
 10
1300.8261948393
 20
793.4621413036
 10
1301.9491882076
 20
792.9250488965
 10
1302.9686804246
 20
792.0694977856
 10
1303.8401147883
 20
790.9328796598
 10
1304.5254054353
 20
789.5648701853
 10
1304.9946018762
 20
788.0252579406
 10
1305.2271979748
 20
786.3813313687
 10
1305.2130281657
 20
784.7049379491
 10
1304.9527117374
 20
783.0693441185
 10
1304.457625767
 20
781.5460331758
 10
1304.457625767
 20
781.5460331758
  0
LWPOLYLINE
  5
1F5
330
1F
100
AcDbEntity
  8
0
  6
Continuous
 62
     7
370
    15
100
AcDbPolyline
 90
       30
 70
   128
 43
0.0
 10
1294.8162197084
 20
789.6814951396
 10
1294.3142870276
 20
788.1223048808
 10
1294.061097175
 20
786.4469730055
 10
1294.0684890267
 20
784.7338361702
 10
1294.3361169479
 20
783.0629987494
 10
1294.8514669545
 20
781.5125872438
 10
1295.5904418529
 20
780.1550971722
 10
1296.5184879982
 20
779.0540032617
 10
1297.5922109841
 20
778.2607914398
 10
1298.7614047171
 20
777.8125514096
 10
1299.9713989977
 20
777.7302423768
 10
1301.1656158383
 20
778.0177130203
 10
1302.2882149865
 20
778.6615215322
 10
1303.286704954
 20
779.6315641422
 10
1304.1143974595
 20
780.8824827358
 10
1304.7325905214
 20
782.35578575
 10
1305.1123781193
 20
783.9825831733
 10
1305.2360018071
 20
785.6868077661
 10
1305.0976810786
 20
787.3887718808
 10
1304.7038836574
 20
789.0088935667
 10
1304.0730230731
 20
790.4714177347
 10
1303.2345976656
 20
791.7079583799
 10
1302.227811275
 20
792.6606962363
 10
1301.0997401141
 20
793.2850823404
 10
1299.9031315365
 20
793.5519210921
 10
1298.6939376294
 20
793.4487354079
 10
1297.528698956
 20
792.9803501357
 10
1296.4619007816
 20
792.1686664502
 10
1295.5434254031
 20
791.0516377784
 10
1294.8162197084
 20
789.6814951396
  0
ARC
  5
1F6
330
1F
100
AcDbEntity
  8
0
  6
Continuous
 62
     7
370
    15
100
AcDbCircle
 10
1297.2147454648
 20
781.5353806184
 30
0.0
 40
5.349343982752827
100
AcDbArc
 50
248.5959579199
 51
319.6199123909
  0
ARC
  5
1F7
330
1F
100
AcDbEntity
  8
0
  6
Continuous
 62
     7
370
    15
100
AcDbCircle
 10
1297.2349919642
 20
789.8566316903
 30
0.0
 40
5.249939378553342
100
AcDbArc
 50
41.5571758614
 51
112.0681379558
  0
LWPOLYLINE
  5
1F8
330
1F
100
AcDbEntity
  8
0
  6
Continuous
 62
     7
370
    15
100
AcDbPolyline
 90
        3
 70
   128
 43
0.0
 10
1295.7890846815
 20
776.2478524804
 10
1295.8491951134
 20
776.2352326931
 10
1296.8055506769
 20
776.1384644818
  0
LWPOLYLINE
  5
1F9
330
1F
100
AcDbEntity
  8
0
  6
Continuous
 62
     7
370
    15
100
AcDbPolyline
 90
        3
 70
   128
 43
0.0
 10
1296.8055506769
 20
795.1384644818
 10
1296.4463572294
 20
795.1248737147
 10
1295.7890846821
 20
795.0290764833
  0
LINE
  5
1FA
330
1F
100
AcDbEntity
  8
0
  6
Continuous
 62
     7
370
    15
100
AcDbLine
 10
1304.457625767
 20
396.5460331758
 30
0.0
 11
1303.8628667504
 21
395.3808810086
 31
0.0
  0
LWPOLYLINE
  5
1FB
330
1F
100
AcDbEntity
  8
0
  6
Continuous
 62
     7
370
    15
100
AcDbPolyline
 90
       29
 70
   128
 43
0.0
 10
1301.0500920685
 20
392.8928542969
 10
1300.6935977993
 20
392.7749289405
 10
1299.5132211818
 20
392.6196274723
 10
1298.3358068611
 20
392.8147876601
 10
1297.2128134928
 20
393.3518800671
 10
1296.1933212758
 20
394.207431178
 10
1295.3218869121
 20
395.3440493038
 10
1294.636596265
 20
396.7120587783
 10
1294.1673998242
 20
398.251671023
 10
1293.9348037256
 20
399.895597595
 10
1293.9489735347
 20
401.5719910146
 10
1294.209289963
 20
403.2075848451
 10
1294.7043759334
 20
404.7308957878
 10
1295.4125938133
 20
406.0753478447
 10
1296.302991083
 20
407.1821820097
 10
1297.3366531091
 20
408.0030243184
 10
1298.4684039011
 20
408.5020000231
 10
1299.6487805186
 20
408.6573014913
 10
1300.8261948393
 20
408.4621413036
 10
1301.9491882076
 20
407.9250488965
 10
1302.9686804246
 20
407.0694977856
 10
1303.8401147883
 20
405.9328796598
 10
1304.5254054353
 20
404.5648701853
 10
1304.9946018762
 20
403.0252579406
 10
1305.2271979748
 20
401.3813313687
 10
1305.2130281657
 20
399.7049379491
 10
1304.9527117374
 20
398.0693441185
 10
1304.457625767
 20
396.5460331758
 10
1304.457625767
 20
396.5460331758
  0
LWPOLYLINE
  5
1FC
330
1F
100
AcDbEntity
  8
0
  6
Continuous
 62
     7
370
    15
100
AcDbPolyline
 90
       30
 70
   128
 43
0.0
 10
1294.8162197084
 20
404.6814951396
 10
1294.3142870276
 20
403.1223048808
 10
1294.061097175
 20
401.4469730055
 10
1294.0684890267
 20
399.7338361702
 10
1294.3361169479
 20
398.0629987494
 10
1294.8514669545
 20
396.5125872438
 10
1295.5904418529
 20
395.1550971722
 10
1296.5184879982
 20
394.0540032617
 10
1297.5922109841
 20
393.2607914398
 10
1298.7614047171
 20
392.8125514096
 10
1299.9713989977
 20
392.7302423768
 10
1301.1656158383
 20
393.0177130203
 10
1302.2882149865
 20
393.6615215322
 10
1303.286704954
 20
394.6315641422
 10
1304.1143974595
 20
395.8824827358
 10
1304.7325905214
 20
397.35578575
 10
1305.1123781193
 20
398.9825831733
 10
1305.2360018071
 20
400.6868077661
 10
1305.0976810786
 20
402.3887718808
 10
1304.7038836574
 20
404.0088935667
 10
1304.0730230731
 20
405.4714177347
 10
1303.2345976656
 20
406.7079583799
 10
1302.227811275
 20
407.6606962363
 10
1301.0997401141
 20
408.2850823404
 10
1299.9031315365
 20
408.5519210921
 10
1298.6939376294
 20
408.4487354079
 10
1297.528698956
 20
407.9803501357
 10
1296.4619007816
 20
407.1686664502
 10
1295.5434254031
 20
406.0516377784
 10
1294.8162197084
 20
404.6814951396
  0
ARC
  5
1FD
330
1F
100
AcDbEntity
  8
0
  6
Continuous
 62
     7
370
    15
100
AcDbCircle
 10
1297.2147454657
 20
396.5353806173
 30
0.0
 40
5.349343981265745
100
AcDbArc
 50
248.5959576701
 51
319.6199123808
  0
ARC
  5
1FE
330
1F
100
AcDbEntity
  8
0
  6
Continuous
 62
     7
370
    15
100
AcDbCircle
 10
1297.2349919648
 20
404.85663169
 30
0.0
 40
5.249939378516571
100
AcDbArc
 50
41.557175813
 51
112.0681382003
  0
LWPOLYLINE
  5
1FF
330
1F
100
AcDbEntity
  8
0
  6
Continuous
 62
     7
370
    15
100
AcDbPolyline
 90
        3
 70
   128
 43
0.0
 10
1295.7890846828
 20
391.2478524801
 10
1295.8491951134
 20
391.2352326931
 10
1296.8055506769
 20
391.1384644818
  0
LWPOLYLINE
  5
200
330
1F
100
AcDbEntity
  8
0
  6
Continuous
 62
     7
370
    15
100
AcDbPolyline
 90
        3
 70
   128
 43
0.0
 10
1296.8055506769
 20
410.1384644818
 10
1296.4463572294
 20
410.1248737147
 10
1295.9031228864
 20
410.0523504045
  0
LINE
  5
201
330
1F
100
AcDbEntity
  8
0
  6
Continuous
 62
     7
370
    15
100
AcDbLine
 10
1291.0322052432
 20
366.6384644818
 30
0.0
 11
1284.4392940423
 21
366.6384644818
 31
0.0
  0
LINE
  5
202
330
1F
100
AcDbEntity
  8
0
  6
Continuous
 62
     7
370
    15
100
AcDbLine
 10
1300.2845056836
 20
366.6384644818
 30
0.0
 11
1291.0322052432
 21
366.6384644818
 31
0.0
  0
LINE
  5
203
330
1F
100
AcDbEntity
  8
0
  6
Continuous
 62
     7
370
    15
100
AcDbLine
 10
1218.0322052432
 20
366.6384644817
 30
0.0
 11
1211.4392940423
 21
366.6384644817
 31
0.0
  0
LINE
  5
204
330
1F
100
AcDbEntity
  8
0
  6
Continuous
 62
     7
370
    15
100
AcDbLine
 10
1227.2845056836
 20
366.6384644817
 30
0.0
 11
1218.0322052432
 21
366.6384644817
 31
0.0
  0
LWPOLYLINE
  5
205
330
1F
100
AcDbEntity
  8
0
  6
Continuous
 62
     7
370
    15
100
AcDbPolyline
 90
       26
 70
   128
 43
0.0
 10
1164.5836386678
 20
782.3454011625
 10
1165.538823517
 20
781.2015424327
 10
1166.7422493095
 20
780.3364718331
 10
1168.1183003767
 20
779.8045449309
 10
1169.5805143693
 20
779.6391846499
 10
1171.0370150046
 20
779.8507811844
 10
1172.396284991
 20
780.4260391462
 10
1173.5729163961
 20
781.3288129617
 10
1174.4929771416
 20
782.5023780321
 10
1175.0986564269
 20
783.8729949478
 10
1175.3518971951
 20
785.3545428072
 10
1175.2367873973
 20
786.8539305097
 10
1174.7605598054
 20
788.2769460115
 10
1173.9531375506
 20
789.5341760151
 10
1172.8652539426
 20
790.5466241356
 10
1171.5652647094
 20
791.2506745342
 10
1170.1348529555
 20
791.6020891349
 10
1168.6638967122
 20
791.5787872659
 10
1167.2448215701
 20
791.1822330695
 10
1165.9667932392
 20
790.4373435041
 10
1164.9101149399
 20
789.3909227207
 10
1164.1411816559
 20
788.1087211856
 10
1163.7083082934
 20
786.6713043369
 10
1163.6386938777
 20
785.1689903615
 10
1163.9367125387
 20
783.6961751717
 10
1164.5836386678
 20
782.3454011625
  0
LINE
  5
206
330
1F
100
AcDbEntity
  8
0
  6
Continuous
 62
     7
370
    15
100
AcDbLine
 10
1167.1183781761
 20
784.0468172108
 30
0.0
 11
1169.6522676108
 21
782.7432375445
 31
0.0
  0
LINE
  5
207
330
1F
100
AcDbEntity
  8
0
  6
Continuous
 62
     7
370
    15
100
AcDbLine
 10
1169.6522676108
 20
782.7432375445
 30
0.0
 11
1172.023475538
 21
784.3348848155
 31
0.0
  0
LINE
  5
208
330
1F
100
AcDbEntity
  8
0
  6
Continuous
 62
     7
370
    15
100
AcDbLine
 10
1171.8607940305
 20
787.2301117528
 30
0.0
 11
1172.023475538
 21
784.3348848155
 31
0.0
  0
LINE
  5
209
330
1F
100
AcDbEntity
  8
0
  6
Continuous
 62
     7
370
    15
100
AcDbLine
 10
1169.3269045958
 20
788.5336914191
 30
0.0
 11
1171.8607940305
 21
787.2301117528
 31
0.0
  0
LINE
  5
20A
330
1F
100
AcDbEntity
  8
0
  6
Continuous
 62
     7
370
    15
100
AcDbLine
 10
1166.9556966686
 20
786.9420441481
 30
0.0
 11
1169.3269045958
 21
788.5336914191
 31
0.0
  0
LINE
  5
20B
330
1F
100
AcDbEntity
  8
0
  6
Continuous
 62
     7
370
    15
100
AcDbLine
 10
1166.9556966686
 20
786.9420441481
 30
0.0
 11
1167.1183781761
 21
784.0468172108
 31
0.0
  0
LINE
  5
20C
330
1F
100
AcDbEntity
  8
0
  6
Continuous
 62
     7
370
    15
100
AcDbLine
 10
1171.4449706489
 20
787.2301117528
 30
0.0
 11
1171.8607940305
 21
787.2301117528
 31
0.0
  0
LINE
  5
20D
330
1F
100
AcDbEntity
  8
0
  6
Continuous
 62
     7
370
    15
100
AcDbLine
 10
1169.1464844206
 20
788.4125863586
 30
0.0
 11
1171.4449706489
 21
787.2301117528
 31
0.0
  0
LINE
  5
20E
330
1F
100
AcDbEntity
  8
0
  6
Continuous
 62
     7
370
    15
100
AcDbLine
 10
1169.4168644044
 20
782.864342605
 30
0.0
 11
1171.6076521564
 21
784.3348848155
 31
0.0
  0
LINE
  5
20F
330
1F
100
AcDbEntity
  8
0
  6
Continuous
 62
     7
370
    15
100
AcDbLine
 10
1171.6076521564
 20
784.3348848155
 30
0.0
 11
1172.023475538
 21
784.3348848155
 31
0.0
  0
LINE
  5
210
330
1F
100
AcDbEntity
  8
0
  6
Continuous
 62
     7
370
    15
100
AcDbLine
 10
1171.4449706489
 20
787.2301117528
 30
0.0
 11
1171.6076521564
 21
784.3348848155
 31
0.0
  0
ARC
  5
211
330
1F
100
AcDbEntity
  8
0
  6
Continuous
 62
     7
370
    15
100
AcDbCircle
 10
1169.0872281351
 20
785.6201334869
 30
0.0
 40
2.264146947202717
100
AcDbArc
 50
208.0960215287
 51
34.4461276785
  0
LWPOLYLINE
  5
212
330
1F
100
AcDbEntity
  8
0
  6
Continuous
 62
     7
370
    15
100
AcDbPolyline
 90
        3
 70
   128
 43
0.0
 10
1166.9814502717
 20
786.4837097848
 10
1167.2133176385
 20
786.931663438
 10
1167.5921445893
 20
787.3692528228
  0
ARC
  5
213
330
1F
100
AcDbEntity
  8
0
  6
Continuous
 62
     7
370
    15
100
AcDbCircle
 10
1169.0749810171
 20
785.7149098864
 30
0.0
 40
2.222267617729545
100
AcDbArc
 50
32.2518680409
 51
115.7557493832
  0
CIRCLE
  5
214
330
1F
100
AcDbEntity
  8
0
  6
Continuous
 62
     7
370
    15
100
AcDbCircle
 10
1168.7547250279
 20
785.6464313405
 30
0.0
 40
0.4940177851830165
  0
LWPOLYLINE
  5
215
330
1F
100
AcDbEntity
  8
0
  6
Continuous
 62
     7
370
    15
100
AcDbPolyline
 90
       26
 70
   128
 43
0.0
 10
1163.9114817798
 20
410.7732684665
 10
1164.540447218
 20
409.413657616
 10
1165.4803852541
 20
408.2566732409
 10
1166.6722361243
 20
407.3750129246
 10
1168.0411114552
 20
406.8240746273
 10
1169.5009997753
 20
406.6384758283
 10
1170.9601709325
 20
406.8298783828
 10
1172.3269398364
 20
407.3862557645
 10
1173.5154273702
 20
408.2726487361
 10
1174.4509564912
 20
409.4333619674
 10
1175.0747444641
 20
410.7954635771
 10
1175.3475963964
 20
412.2733677119
 10
1175.2523679977
 20
413.7742122194
 10
1174.7950428186
 20
415.2036935195
 10
1174.004356282
 20
416.471992045
 10
1172.9299901308
 20
417.4994159349
 10
1171.6394507417
 20
418.2214083678
 10
1170.2138274508
 20
418.5926039036
 10
1168.7426974124
 20
418.5896789618
 10
1167.3184971373
 20
418.2128173271
 10
1166.0307143666
 20
417.4856986022
 10
1164.960265228
 20
416.4540103306
 10
1164.1744099777
 20
415.1825772807
 10
1163.7225267912
 20
413.7512882671
 10
1163.6330091511
 20
412.2500764423
 10
1163.9114817798
 20
410.7732684665
  0
LINE
  5
216
330
1F
100
AcDbEntity
  8
0
  6
Continuous
 62
     7
370
    15
100
AcDbLine
 10
1166.793502347
 20
411.7369530744
 30
0.0
 11
1168.9052151432
 21
409.8006692127
 31
0.0
  0
LINE
  5
217
330
1F
100
AcDbEntity
  8
0
  6
Continuous
 62
     7
370
    15
100
AcDbLine
 10
1168.9052151432
 20
409.8006692127
 30
0.0
 11
1171.6012988995
 21
410.7021806201
 31
0.0
  0
LINE
  5
218
330
1F
100
AcDbEntity
  8
0
  6
Continuous
 62
     7
370
    15
100
AcDbLine
 10
1172.1856698597
 20
413.5399758892
 30
0.0
 11
1171.6012988995
 21
410.7021806201
 31
0.0
  0
LINE
  5
219
330
1F
100
AcDbEntity
  8
0
  6
Continuous
 62
     7
370
    15
100
AcDbLine
 10
1170.0739570635
 20
415.4762597509
 30
0.0
 11
1172.1856698597
 21
413.5399758892
 31
0.0
  0
LINE
  5
21A
330
1F
100
AcDbEntity
  8
0
  6
Continuous
 62
     7
370
    15
100
AcDbLine
 10
1167.3778733071
 20
414.5747483435
 30
0.0
 11
1170.0739570635
 21
415.4762597509
 31
0.0
  0
LINE
  5
21B
330
1F
100
AcDbEntity
  8
0
  6
Continuous
 62
     7
370
    15
100
AcDbLine
 10
1167.3778733071
 20
414.5747483435
 30
0.0
 11
1166.793502347
 21
411.7369530744
 31
0.0
  0
LINE
  5
21C
330
1F
100
AcDbEntity
  8
0
  6
Continuous
 62
     7
370
    15
100
AcDbLine
 10
1168.7940972592
 20
409.902556063
 30
0.0
 11
1171.1854755179
 21
410.7021806201
 31
0.0
  0
LINE
  5
21D
330
1F
100
AcDbEntity
  8
0
  6
Continuous
 62
     7
370
    15
100
AcDbLine
 10
1171.1854755179
 20
410.7021806201
 30
0.0
 11
1171.6012988995
 21
410.7021806201
 31
0.0
  0
LINE
  5
21E
330
1F
100
AcDbEntity
  8
0
  6
Continuous
 62
     7
370
    15
100
AcDbLine
 10
1171.7698464781
 20
413.5399758892
 30
0.0
 11
1172.1856698597
 21
413.5399758892
 31
0.0
  0
LINE
  5
21F
330
1F
100
AcDbEntity
  8
0
  6
Continuous
 62
     7
370
    15
100
AcDbLine
 10
1169.7692515658
 20
415.3743729006
 30
0.0
 11
1171.7698464781
 21
413.5399758892
 31
0.0
  0
LINE
  5
220
330
1F
100
AcDbEntity
  8
0
  6
Continuous
 62
     7
370
    15
100
AcDbLine
 10
1171.7698464781
 20
413.5399758892
 30
0.0
 11
1171.1854755179
 21
410.7021806201
 31
0.0
  0
ARC
  5
221
330
1F
100
AcDbEntity
  8
0
  6
Continuous
 62
     7
370
    15
100
AcDbCircle
 10
1169.0751899472
 20
412.6081694277
 30
0.0
 40
2.263087217175602
100
AcDbArc
 50
242.6572667559
 51
19.2276945601
  0
LWPOLYLINE
  5
222
330
1F
100
AcDbEntity
  8
0
  6
Continuous
 62
     7
370
    15
100
AcDbPolyline
 90
        3
 70
   128
 43
0.0
 10
1167.2020941515
 20
411.3623047233
 10
1166.9354893977
 20
411.9234726759
 10
1166.8769836008
 20
412.1423508841
  0
ARC
  5
223
330
1F
100
AcDbEntity
  8
0
  6
Continuous
 62
     7
370
    15
100
AcDbCircle
 10
1169.0763719531
 20
412.6993049324
 30
0.0
 40
2.233601377193302
100
AcDbArc
 50
17.029763743
 51
144.4499028882
  0
CIRCLE
  5
224
330
1F
100
AcDbEntity
  8
0
  6
Continuous
 62
     7
370
    15
100
AcDbCircle
 10
1168.7546207172
 20
412.6448553174
 30
0.0
 40
0.4950833790544371
  0
LINE
  5
225
330
1F
100
AcDbEntity
  8
0
  6
Continuous
 62
     7
370
    15
100
AcDbLine
 10
1108.2367362269
 20
812.6384644818
 30
0.0
 11
1079.9820984375
 21
812.6384644818
 31
0.0
  0
ARC
  5
226
330
1F
100
AcDbEntity
  8
0
  6
Continuous
 62
     7
370
    15
100
AcDbCircle
 10
1084.9681709741
 20
812.6523921644
 30
0.0
 40
4.986091988823654
100
AcDbArc
 50
90.1609440191
 51
180.1600448743
  0
LINE
  5
227
330
1F
100
AcDbEntity
  8
0
  6
Continuous
 62
     7
370
    15
100
AcDbLine
 10
1084.954165045
 20
817.6384644818
 30
0.0
 11
1107.1971777728
 21
817.6384644818
 31
0.0
  0
LWPOLYLINE
  5
228
330
1F
100
AcDbEntity
  8
0
  6
Continuous
 62
     7
370
    15
100
AcDbPolyline
 90
        9
 70
   128
 43
0.0
 10
1108.2367362269
 20
812.6384644818
 10
1108.2167614027
 20
813.6139160919
 10
1108.1576045514
 20
814.5518816436
 10
1108.0615390376
 20
815.4163156469
 10
1107.9322566051
 20
816.1739983877
 10
1107.7747255054
 20
816.7958125433
 10
1107.5949995701
 20
817.2578621444
 10
1107.3999855664
 20
817.5423908838
 10
1107.1971777728
 20
817.6384644818
  0
LINE
  5
229
330
1F
100
AcDbEntity
  8
0
  6
Continuous
 62
     7
370
    15
100
AcDbLine
 10
1108.2367362269
 20
812.6384644818
 30
0.0
 11
1108.2367362269
 21
807.6384644818
 31
0.0
  0
LINE
  5
22A
330
1F
100
AcDbEntity
  8
0
  6
Continuous
 62
     7
370
    15
100
AcDbLine
 10
1079.9820984375
 20
807.6384644818
 30
0.0
 11
1108.2367362269
 21
807.6384644818
 31
0.0
  0
LINE
  5
22B
330
1F
100
AcDbEntity
  8
0
  6
Continuous
 62
     7
370
    15
100
AcDbLine
 10
1079.9820984375
 20
812.6384644818
 30
0.0
 11
1079.9820984375
 21
807.6384644818
 31
0.0
  0
LINE
  5
22C
330
1F
100
AcDbEntity
  8
0
  6
Continuous
 62
     7
370
    15
100
AcDbLine
 10
1107.8209128452
 20
805.6384644818
 30
0.0
 11
1081.9709250805
 21
805.6384644818
 31
0.0
  0
ARC
  5
22D
330
1F
100
AcDbEntity
  8
0
  6
Continuous
 62
     7
370
    15
100
AcDbCircle
 10
1081.9765274522
 20
807.6328934088
 30
0.0
 40
1.994436795529413
100
AcDbArc
 50
179.8399551257
 51
269.8390559809
  0
ARC
  5
22E
330
1F
100
AcDbEntity
  8
0
  6
Continuous
 62
     7
370
    15
100
AcDbCircle
 10
1105.5200015183
 20
807.1600781174
 30
0.0
 40
2.758532397951753
100
AcDbArc
 50
326.5229725425
 51
9.986760318
  0
LINE
  5
22F
330
1F
100
AcDbEntity
  8
0
  6
Continuous
 62
     7
370
    15
100
AcDbLine
 10
1222.5114208766
 20
812.6384644818
 30
0.0
 11
1108.2367362269
 21
812.6384644818
 31
0.0
  0
LINE
  5
230
330
1F
100
AcDbEntity
  8
0
  6
Continuous
 62
     7
370
    15
100
AcDbLine
 10
1107.1971777728
 20
817.6384644818
 30
0.0
 11
1221.4718624226
 21
817.6384644818
 31
0.0
  0
LWPOLYLINE
  5
231
330
1F
100
AcDbEntity
  8
0
  6
Continuous
 62
     7
370
    15
100
AcDbPolyline
 90
        9
 70
   128
 43
0.0
 10
1222.5114208766
 20
812.6384644818
 10
1222.4914460524
 20
813.6139160919
 10
1222.4322892011
 20
814.5518816436
 10
1222.3362236873
 20
815.4163156469
 10
1222.2069412549
 20
816.1739983877
 10
1222.0494101551
 20
816.7958125433
 10
1221.8696842199
 20
817.2578621444
 10
1221.6746702161
 20
817.5423908838
 10
1221.4718624226
 20
817.6384644818
  0
LINE
  5
232
330
1F
100
AcDbEntity
  8
0
  6
Continuous
 62
     7
370
    15
100
AcDbLine
 10
1222.095597495
 20
805.6384644818
 30
0.0
 11
1107.8209128452
 21
805.6384644818
 31
0.0
  0
LINE
  5
233
330
1F
100
AcDbEntity
  8
0
  6
Continuous
 62
     7
370
    15
100
AcDbLine
 10
1108.2367362269
 20
807.6384644818
 30
0.0
 11
1222.5114208766
 21
807.6384644818
 31
0.0
  0
ARC
  5
234
330
1F
100
AcDbEntity
  8
0
  6
Continuous
 62
     7
370
    15
100
AcDbCircle
 10
1219.794686168
 20
807.1600781174
 30
0.0
 40
2.758532397954177
100
AcDbArc
 50
326.5229725425
 51
9.986760318
  0
LINE
  5
235
330
1F
100
AcDbEntity
  8
0
  6
Continuous
 62
     7
370
    15
100
AcDbLine
 10
1222.5114208766
 20
812.6384644818
 30
0.0
 11
1222.5114208766
 21
807.6384644818
 31
0.0
  0
LINE
  5
236
330
1F
100
AcDbEntity
  8
0
  6
Continuous
 62
     7
370
    15
100
AcDbLine
 10
1079.361899863
 20
817.6384644818
 30
0.0
 11
1084.954165045
 21
817.6384644818
 31
0.0
  0
LINE
  5
237
330
1F
100
AcDbEntity
  8
0
  6
Continuous
 62
     7
370
    15
100
AcDbLine
 10
1081.9709250805
 20
805.6384644818
 30
0.0
 11
1076.361899863
 21
805.6384644818
 31
0.0
  0
LWPOLYLINE
  5
238
330
1F
100
AcDbEntity
  8
0
  6
Continuous
 62
     7
370
    15
100
AcDbPolyline
 90
        9
 70
   128
 43
0.0
 10
1222.9694476937
 20
817.6384644818
 10
1223.6591961419
 20
817.5423908838
 10
1224.322437944
 20
817.2578621444
 10
1224.9336850896
 20
816.7958125433
 10
1225.4694476937
 20
816.1739983877
 10
1225.9091366997
 20
815.4163156469
 10
1226.2358551059
 20
814.5518816436
 10
1226.437047307
 20
813.6139160919
 10
1226.5049815996
 20
812.6384644818
  0
LINE
  5
239
330
1F
100
AcDbEntity
  8
0
  6
Continuous
 62
     7
370
    15
100
AcDbLine
 10
1226.5049815996
 20
812.6384644818
 30
0.0
 11
1222.5114208766
 21
812.6384644818
 31
0.0
  0
LINE
  5
23A
330
1F
100
AcDbEntity
  8
0
  6
Continuous
 62
     7
370
    15
100
AcDbLine
 10
1221.4718624226
 20
817.6384644818
 30
0.0
 11
1222.9694476937
 21
817.6384644818
 31
0.0
  0
LINE
  5
23B
330
1F
100
AcDbEntity
  8
0
  6
Continuous
 62
     7
370
    15
100
AcDbLine
 10
1226.5049815996
 20
812.6384644818
 30
0.0
 11
1226.5049815996
 21
807.6384644818
 31
0.0
  0
LINE
  5
23C
330
1F
100
AcDbEntity
  8
0
  6
Continuous
 62
     7
370
    15
100
AcDbLine
 10
1222.5114208766
 20
807.6384644818
 30
0.0
 11
1226.5049815996
 21
807.6384644818
 31
0.0
  0
ARC
  5
23D
330
1F
100
AcDbEntity
  8
0
  6
Continuous
 62
     7
370
    15
100
AcDbCircle
 10
1224.7372146466
 20
807.3884644818
 30
0.0
 40
1.785357107135836
100
AcDbArc
 50
281.421753659
 51
8.0494669755
  0
LINE
  5
23E
330
1F
100
AcDbEntity
  8
0
  6
Continuous
 62
     7
370
    15
100
AcDbLine
 10
1225.0907680372
 20
805.6384644818
 30
0.0
 11
1222.095597495
 21
805.6384644818
 31
0.0
  0
LINE
  5
23F
330
1F
100
AcDbEntity
  8
0
  6
Continuous
 62
     7
370
    15
100
AcDbLine
 10
1226.5049815996
 20
807.6384644818
 30
0.0
 11
1310.0187541125
 21
807.6384644818
 31
0.0
  0
ARC
  5
240
330
1F
100
AcDbEntity
  8
0
  6
Continuous
 62
     7
370
    15
100
AcDbCircle
 10
1308.2509871595
 20
807.3884644818
 30
0.0
 40
1.785357107135783
100
AcDbArc
 50
281.421753659
 51
8.0494669755
  0
LINE
  5
241
330
1F
100
AcDbEntity
  8
0
  6
Continuous
 62
     7
370
    15
100
AcDbLine
 10
1310.0187541125
 20
812.6384644818
 30
0.0
 11
1226.5049815996
 21
812.6384644818
 31
0.0
  0
LINE
  5
242
330
1F
100
AcDbEntity
  8
0
  6
Continuous
 62
     7
370
    15
100
AcDbLine
 10
1310.0187541125
 20
812.6384644818
 30
0.0
 11
1310.0187541125
 21
807.6384644818
 31
0.0
  0
LWPOLYLINE
  5
243
330
1F
100
AcDbEntity
  8
0
  6
Continuous
 62
     7
370
    15
100
AcDbPolyline
 90
        9
 70
   128
 43
0.0
 10
1306.4832202065
 20
817.6384644818
 10
1307.1729686547
 20
817.5423908838
 10
1307.8362104569
 20
817.2578621444
 10
1308.4474576025
 20
816.7958125433
 10
1308.9832202065
 20
816.1739983877
 10
1309.4229092126
 20
815.4163156469
 10
1309.7496276187
 20
814.5518816436
 10
1309.9508198198
 20
813.6139160919
 10
1310.0187541125
 20
812.6384644818
  0
LINE
  5
244
330
1F
100
AcDbEntity
  8
0
  6
Continuous
 62
     7
370
    15
100
AcDbLine
 10
1222.9694476937
 20
817.6384644818
 30
0.0
 11
1306.4832202065
 21
817.6384644818
 31
0.0
  0
ARC
  5
245
330
1F
100
AcDbEntity
  8
0
  6
Continuous
 62
     7
370
    15
100
AcDbCircle
 10
1307.361899863
 20
812.6384644818
 30
0.0
 40
5.000000000000227
100
AcDbArc
 50
0.0
 51
90.0
  0
LINE
  5
246
330
1F
100
AcDbEntity
  8
0
  6
Continuous
 62
     7
370
    15
100
AcDbLine
 10
1312.361899863
 20
812.6384644818
 30
0.0
 11
1310.0187541125
 21
812.6384644818
 31
0.0
  0
LINE
  5
247
330
1F
100
AcDbEntity
  8
0
  6
Continuous
 62
     7
370
    15
100
AcDbLine
 10
1306.4832202065
 20
817.6384644818
 30
0.0
 11
1307.361899863
 21
817.6384644818
 31
0.0
  0
LINE
  5
248
330
1F
100
AcDbEntity
  8
0
  6
Continuous
 62
     7
370
    15
100
AcDbLine
 10
1310.0187541125
 20
807.6384644818
 30
0.0
 11
1312.361899863
 21
807.6384644818
 31
0.0
  0
ARC
  5
249
330
1F
100
AcDbEntity
  8
0
  6
Continuous
 62
     7
370
    15
100
AcDbCircle
 10
1310.361899863
 20
807.6384644818
 30
0.0
 40
2.0
100
AcDbArc
 50
270.0
 51
0.0
  0
LINE
  5
24A
330
1F
100
AcDbEntity
  8
0
  6
Continuous
 62
     7
370
    15
100
AcDbLine
 10
1310.361899863
 20
805.6384644818
 30
0.0
 11
1308.6045405501
 21
805.6384644818
 31
0.0
  0
LINE
  5
24B
330
1F
100
AcDbEntity
  8
0
  6
Continuous
 62
     7
370
    15
100
AcDbLine
 10
1312.361899863
 20
812.6384644818
 30
0.0
 11
1312.361899863
 21
807.6384644818
 31
0.0
  0
LINE
  5
24C
330
1F
100
AcDbEntity
  8
0
  6
Continuous
 62
     7
370
    15
100
AcDbLine
 10
1079.9820984375
 20
373.6384644818
 30
0.0
 11
1108.2367362269
 21
373.6384644818
 31
0.0
  0
LINE
  5
24D
330
1F
100
AcDbEntity
  8
0
  6
Continuous
 62
     7
370
    15
100
AcDbLine
 10
1079.9820984375
 20
373.6384644818
 30
0.0
 11
1079.9820984375
 21
377.6384644818
 31
0.0
  0
LINE
  5
24E
330
1F
100
AcDbEntity
  8
0
  6
Continuous
 62
     7
370
    15
100
AcDbLine
 10
1108.2367362269
 20
377.6384644818
 30
0.0
 11
1079.9820984375
 21
377.6384644818
 31
0.0
  0
LINE
  5
24F
330
1F
100
AcDbEntity
  8
0
  6
Continuous
 62
     7
370
    15
100
AcDbLine
 10
1108.2367362269
 20
373.6384644818
 30
0.0
 11
1108.2367362269
 21
377.6384644818
 31
0.0
  0
ARC
  5
250
330
1F
100
AcDbEntity
  8
0
  6
Continuous
 62
     7
370
    15
100
AcDbCircle
 10
1082.9737419595
 20
377.6468210913
 30
0.0
 40
2.991655193294582
100
AcDbArc
 50
90.1609440191
 51
180.1600448743
  0
LINE
  5
251
330
1F
100
AcDbEntity
  8
0
  6
Continuous
 62
     7
370
    15
100
AcDbLine
 10
1082.965338402
 20
380.6384644818
 30
0.0
 11
1107.6130011544
 21
380.6384644818
 31
0.0
  0
ARC
  5
252
330
1F
100
AcDbEntity
  8
0
  6
Continuous
 62
     7
370
    15
100
AcDbCircle
 10
1104.161634164
 20
378.3560440284
 30
0.0
 40
4.137798596929645
100
AcDbArc
 50
350.013239682
 51
33.4770274575
  0
LINE
  5
253
330
1F
100
AcDbEntity
  8
0
  6
Continuous
 62
     7
370
    15
100
AcDbLine
 10
1107.1971777728
 20
368.6384644818
 30
0.0
 11
1084.954165045
 21
368.6384644818
 31
0.0
  0
ARC
  5
254
330
1F
100
AcDbEntity
  8
0
  6
Continuous
 62
     7
370
    15
100
AcDbCircle
 10
1084.9681709741
 20
373.6245367993
 30
0.0
 40
4.986091988822974
100
AcDbArc
 50
179.8399551257
 51
269.8390559809
  0
LWPOLYLINE
  5
255
330
1F
100
AcDbEntity
  8
0
  6
Continuous
 62
     7
370
    15
100
AcDbPolyline
 90
        9
 70
   128
 43
0.0
 10
1107.1971777728
 20
368.6384644818
 10
1107.3999855664
 20
368.7345380798
 10
1107.5949995701
 20
369.0190668193
 10
1107.7747255054
 20
369.4811164203
 10
1107.9322566051
 20
370.1029305759
 10
1108.0615390376
 20
370.8606133167
 10
1108.1576045514
 20
371.72504732
 10
1108.2167614027
 20
372.6630128717
 10
1108.2367362269
 20
373.6384644818
  0
LINE
  5
256
330
1F
100
AcDbEntity
  8
0
  6
Continuous
 62
     7
370
    15
100
AcDbLine
 10
1222.5114208766
 20
377.6384644818
 30
0.0
 11
1108.2367362269
 21
377.6384644818
 31
0.0
  0
LINE
  5
257
330
1F
100
AcDbEntity
  8
0
  6
Continuous
 62
     7
370
    15
100
AcDbLine
 10
1107.6130011544
 20
380.6384644818
 30
0.0
 11
1111.0952878234
 21
380.6384644818
 31
0.0
  0
ARC
  5
258
330
1F
100
AcDbEntity
  8
0
  6
Continuous
 62
     7
370
    15
100
AcDbCircle
 10
1218.4363188137
 20
378.3560440284
 30
0.0
 40
4.137798596932662
100
AcDbArc
 50
350.013239682
 51
33.4770274575
  0
LINE
  5
259
330
1F
100
AcDbEntity
  8
0
  6
Continuous
 62
     7
370
    15
100
AcDbLine
 10
1108.2367362269
 20
373.6384644818
 30
0.0
 11
1222.5114208766
 21
373.6384644818
 31
0.0
  0
LINE
  5
25A
330
1F
100
AcDbEntity
  8
0
  6
Continuous
 62
     7
370
    15
100
AcDbLine
 10
1222.5114208766
 20
373.6384644818
 30
0.0
 11
1222.5114208766
 21
377.6384644818
 31
0.0
  0
LINE
  5
25B
330
1F
100
AcDbEntity
  8
0
  6
Continuous
 62
     7
370
    15
100
AcDbLine
 10
1221.4718624226
 20
368.6384644818
 30
0.0
 11
1107.1971777728
 21
368.6384644818
 31
0.0
  0
LWPOLYLINE
  5
25C
330
1F
100
AcDbEntity
  8
0
  6
Continuous
 62
     7
370
    15
100
AcDbPolyline
 90
        9
 70
   128
 43
0.0
 10
1221.4718624226
 20
368.6384644818
 10
1221.6746702161
 20
368.7345380798
 10
1221.8696842199
 20
369.0190668193
 10
1222.0494101551
 20
369.4811164203
 10
1222.2069412549
 20
370.1029305759
 10
1222.3362236873
 20
370.8606133167
 10
1222.4322892011
 20
371.72504732
 10
1222.4914460524
 20
372.6630128717
 10
1222.5114208766
 20
373.6384644818
  0
LINE
  5
25D
330
1F
100
AcDbEntity
  8
0
  6
Continuous
 62
     7
370
    15
100
AcDbLine
 10
1084.954165045
 20
368.6384644818
 30
0.0
 11
1079.361899863
 21
368.6384644818
 31
0.0
  0
LINE
  5
25E
330
1F
100
AcDbEntity
  8
0
  6
Continuous
 62
     7
370
    15
100
AcDbLine
 10
1077.361899863
 20
380.6384644818
 30
0.0
 11
1082.965338402
 21
380.6384644818
 31
0.0
  0
LINE
  5
25F
330
1F
100
AcDbEntity
  8
0
  6
Continuous
 62
     7
370
    15
100
AcDbLine
 10
1222.5114208766
 20
373.6384644818
 30
0.0
 11
1226.5049815996
 21
373.6384644818
 31
0.0
  0
LWPOLYLINE
  5
260
330
1F
100
AcDbEntity
  8
0
  6
Continuous
 62
     7
370
    15
100
AcDbPolyline
 90
        9
 70
   128
 43
0.0
 10
1222.9694476937
 20
368.6384644818
 10
1223.6591961419
 20
368.7345380798
 10
1224.322437944
 20
369.0190668193
 10
1224.9336850896
 20
369.4811164203
 10
1225.4694476937
 20
370.1029305759
 10
1225.9091366997
 20
370.8606133167
 10
1226.2358551059
 20
371.72504732
 10
1226.437047307
 20
372.6630128717
 10
1226.5049815996
 20
373.6384644818
  0
LINE
  5
261
330
1F
100
AcDbEntity
  8
0
  6
Continuous
 62
     7
370
    15
100
AcDbLine
 10
1222.9694476937
 20
368.6384644818
 30
0.0
 11
1221.4718624226
 21
368.6384644818
 31
0.0
  0
LINE
  5
262
330
1F
100
AcDbEntity
  8
0
  6
Continuous
 62
     7
370
    15
100
AcDbLine
 10
1226.5049815996
 20
377.6384644818
 30
0.0
 11
1222.5114208766
 21
377.6384644818
 31
0.0
  0
ARC
  5
263
330
1F
100
AcDbEntity
  8
0
  6
Continuous
 62
     7
370
    15
100
AcDbCircle
 10
1223.8533311701
 20
378.0134644818
 30
0.0
 40
2.678035660703854
100
AcDbArc
 50
351.9505330245
 51
78.578246341
  0
LINE
  5
264
330
1F
100
AcDbEntity
  8
0
  6
Continuous
 62
     7
370
    15
100
AcDbLine
 10
1226.5049815996
 20
373.6384644818
 30
0.0
 11
1226.5049815996
 21
377.6384644818
 31
0.0
  0
LINE
  5
265
330
1F
100
AcDbEntity
  8
0
  6
Continuous
 62
     7
370
    15
100
AcDbLine
 10
1226.5049815996
 20
373.6384644818
 30
0.0
 11
1310.0187541125
 21
373.6384644818
 31
0.0
  0
LWPOLYLINE
  5
266
330
1F
100
AcDbEntity
  8
0
  6
Continuous
 62
     7
370
    15
100
AcDbPolyline
 90
        9
 70
   128
 43
0.0
 10
1306.4832202065
 20
368.6384644818
 10
1307.1729686547
 20
368.7345380798
 10
1307.8362104569
 20
369.0190668193
 10
1308.4474576025
 20
369.4811164203
 10
1308.9832202065
 20
370.1029305759
 10
1309.4229092126
 20
370.8606133167
 10
1309.7496276187
 20
371.72504732
 10
1309.9508198198
 20
372.6630128717
 10
1310.0187541125
 20
373.6384644818
  0
LINE
  5
267
330
1F
100
AcDbEntity
  8
0
  6
Continuous
 62
     7
370
    15
100
AcDbLine
 10
1306.4832202065
 20
368.6384644818
 30
0.0
 11
1222.9694476937
 21
368.6384644818
 31
0.0
  0
ARC
  5
268
330
1F
100
AcDbEntity
  8
0
  6
Continuous
 62
     7
370
    15
100
AcDbCircle
 10
1307.367103683
 20
378.0134644818
 30
0.0
 40
2.678035660703631
100
AcDbArc
 50
351.9505330245
 51
78.578246341
  0
LINE
  5
269
330
1F
100
AcDbEntity
  8
0
  6
Continuous
 62
     7
370
    15
100
AcDbLine
 10
1310.0187541125
 20
377.6384644818
 30
0.0
 11
1226.5049815996
 21
377.6384644818
 31
0.0
  0
LINE
  5
26A
330
1F
100
AcDbEntity
  8
0
  6
Continuous
 62
     7
370
    15
100
AcDbLine
 10
1310.0187541125
 20
373.6384644818
 30
0.0
 11
1310.0187541125
 21
377.6384644818
 31
0.0
  0
ARC
  5
26B
330
1F
100
AcDbEntity
  8
0
  6
Continuous
 62
     7
370
    15
100
AcDbCircle
 10
1309.361899863
 20
377.6384644818
 30
0.0
 40
3.000000000000227
100
AcDbArc
 50
0.0
 51
90.0
  0
LINE
  5
26C
330
1F
100
AcDbEntity
  8
0
  6
Continuous
 62
     7
370
    15
100
AcDbLine
 10
1312.361899863
 20
377.6384644818
 30
0.0
 11
1310.0187541125
 21
377.6384644818
 31
0.0
  0
LINE
  5
26D
330
1F
100
AcDbEntity
  8
0
  6
Continuous
 62
     7
370
    15
100
AcDbLine
 10
1310.0187541125
 20
373.6384644818
 30
0.0
 11
1312.361899863
 21
373.6384644818
 31
0.0
  0
LINE
  5
26E
330
1F
100
AcDbEntity
  8
0
  6
Continuous
 62
     7
370
    15
100
AcDbLine
 10
1312.361899863
 20
373.6384644818
 30
0.0
 11
1312.361899863
 21
377.6384644818
 31
0.0
  0
ARC
  5
26F
330
1F
100
AcDbEntity
  8
0
  6
Continuous
 62
     7
370
    15
100
AcDbCircle
 10
1307.361899863
 20
373.6384644818
 30
0.0
 40
5.000000000000227
100
AcDbArc
 50
270.0
 51
0.0
  0
LINE
  5
270
330
1F
100
AcDbEntity
  8
0
  6
Continuous
 62
     7
370
    15
100
AcDbLine
 10
1307.361899863
 20
368.6384644818
 30
0.0
 11
1306.4832202065
 21
368.6384644818
 31
0.0
  0
LINE
  5
271
330
1F
100
AcDbEntity
  8
0
  6
Continuous
 62
     8
370
    15
100
AcDbLine
 10
1085.9485783665
 20
805.6384644818
 30
0.0
 11
1085.9485783665
 21
380.6384644818
 31
0.0
  0
LINE
  5
272
330
1F
100
AcDbEntity
  8
0
  6
Continuous
 62
     8
370
    15
100
AcDbLine
 10
1106.989266082
 20
805.6384644818
 30
0.0
 11
1106.989266082
 21
380.6384644818
 31
0.0
  0
LINE
  5
273
330
1F
100
AcDbEntity
  8
0
  6
Continuous
 62
     8
370
    15
100
AcDbLine
 10
1107.5487328125
 20
805.6384644818
 30
0.0
 11
1107.5487328125
 21
380.6384644818
 31
0.0
  0
LINE
  5
274
330
1F
100
AcDbEntity
  8
0
  6
Continuous
 62
     8
370
    15
100
AcDbLine
 10
1109.898499863
 20
805.6384644818
 30
0.0
 11
1109.898499863
 21
380.6384644818
 31
0.0
  0
LINE
  5
275
330
1F
100
AcDbEntity
  8
0
  6
Continuous
 62
     8
370
    15
100
AcDbLine
 10
1092.2683580839
 20
366.7133852051
 30
0.0
 11
1108.3071778849
 21
366.7133852051
 31
0.0
  0
LWPOLYLINE
  5
276
330
1F
100
AcDbEntity
  8
0
  6
Continuous
 62
     8
370
    15
100
AcDbPolyline
 90
       20
 70
   128
 43
0.0
 10
1240.0038003431
 20
392.2108065542
 10
1239.778950144
 20
392.1318815406
 10
1238.5400092263
 20
391.9149756256
 10
1237.295555212
 20
392.0552103694
 10
1236.0965361946
 20
392.546844545
 10
1234.9920401535
 20
393.3697505916
 10
1234.0272852865
 20
394.4902386388
 10
1233.2417687712
 20
395.8624357745
 10
1232.667649746
 20
397.4301640866
 10
1232.3284327112
 20
399.1292405938
 10
1232.2380052521
 20
400.8901049044
 10
1232.4000694795
 20
402.6406670264
 10
1232.8079904649
 20
404.3092587411
 10
1233.4450678752
 20
405.8275677074
 10
1234.2852196864
 20
407.133434178
 10
1235.2940499846
 20
408.1733958262
 10
1236.4302571389
 20
408.9048764997
 10
1237.6473246949
 20
409.297929294
 10
1238.8954257639
 20
409.3364625815
 10
1240.0038003431
 20
409.0661224095
  0
LWPOLYLINE
  5
277
330
1F
100
AcDbEntity
  8
0
  6
Continuous
 62
     8
370
    15
100
AcDbPolyline
 90
       20
 70
   128
 43
0.0
 10
1240.0038003431
 20
777.2108065542
 10
1239.778950144
 20
777.1318815406
 10
1238.5400092263
 20
776.9149756256
 10
1237.295555212
 20
777.0552103694
 10
1236.0965361946
 20
777.546844545
 10
1234.9920401536
 20
778.3697505916
 10
1234.0272852866
 20
779.4902386388
 10
1233.2417687712
 20
780.8624357745
 10
1232.667649746
 20
782.4301640866
 10
1232.3284327112
 20
784.1292405938
 10
1232.2380052521
 20
785.8901049044
 10
1232.4000694795
 20
787.6406670264
 10
1232.8079904649
 20
789.3092587411
 10
1233.4450678752
 20
790.8275677074
 10
1234.2852196864
 20
792.133434178
 10
1235.2940499847
 20
793.1733958262
 10
1236.430257139
 20
793.9048764997
 10
1237.647324695
 20
794.297929294
 10
1238.8954257639
 20
794.3364625815
 10
1240.0038003431
 20
794.0661224095
  0
LWPOLYLINE
  5
278
330
1F
100
AcDbEntity
  8
0
  6
Continuous
 62
     8
370
    15
100
AcDbPolyline
 90
       20
 70
   128
 43
0.0
 10
1299.2520839268
 20
777.2108065542
 10
1299.0272337277
 20
777.1318815406
 10
1297.78829281
 20
776.9149756256
 10
1296.5438387957
 20
777.0552103694
 10
1295.3448197783
 20
777.546844545
 10
1294.2403237372
 20
778.3697505916
 10
1293.2755688702
 20
779.4902386388
 10
1292.4900523549
 20
780.8624357745
 10
1291.9159333297
 20
782.4301640866
 10
1291.5767162949
 20
784.1292405938
 10
1291.4862888358
 20
785.8901049044
 10
1291.6483530632
 20
787.6406670264
 10
1292.0562740486
 20
789.3092587411
 10
1292.6933514589
 20
790.8275677074
 10
1293.5335032701
 20
792.133434178
 10
1294.5423335683
 20
793.1733958262
 10
1295.6785407226
 20
793.9048764997
 10
1296.8956082786
 20
794.297929294
 10
1298.1437093476
 20
794.3364625815
 10
1299.2520839268
 20
794.0661224095
  0
LWPOLYLINE
  5
279
330
1F
100
AcDbEntity
  8
0
  6
Continuous
 62
     8
370
    15
100
AcDbPolyline
 90
       20
 70
   128
 43
0.0
 10
1299.2520839268
 20
392.2108065542
 10
1299.0272337277
 20
392.1318815406
 10
1297.78829281
 20
391.9149756256
 10
1296.5438387957
 20
392.0552103694
 10
1295.3448197783
 20
392.546844545
 10
1294.2403237372
 20
393.3697505916
 10
1293.2755688702
 20
394.4902386388
 10
1292.4900523549
 20
395.8624357745
 10
1291.9159333297
 20
397.4301640866
 10
1291.5767162949
 20
399.1292405938
 10
1291.4862888358
 20
400.8901049044
 10
1291.6483530632
 20
402.6406670264
 10
1292.0562740486
 20
404.3092587411
 10
1292.6933514589
 20
405.8275677074
 10
1293.5335032701
 20
407.133434178
 10
1294.5423335683
 20
408.1733958262
 10
1295.6785407226
 20
408.9048764997
 10
1296.8956082786
 20
409.297929294
 10
1298.1437093476
 20
409.3364625815
 10
1299.2520839268
 20
409.0661224095
  0
LINE
  5
27A
330
1F
100
AcDbEntity
  8
0
  6
Continuous
 62
     8
370
    15
100
AcDbLine
 10
1284.3424899625
 20
366.713385205
 30
0.0
 11
1300.3813097635
 21
366.713385205
 31
0.0
  0
LINE
  5
27B
330
1F
100
AcDbEntity
  8
0
  6
Continuous
 62
     8
370
    15
100
AcDbLine
 10
1211.3424899625
 20
366.7133852048
 30
0.0
 11
1227.3813097635
 21
366.7133852048
 31
0.0
  0
LINE
  5
27C
330
1F
100
AcDbEntity
  8
0
  6
Continuous
 62
     8
370
    15
100
AcDbLine
 10
1079.9820984375
 20
812.6384644818
 30
0.0
 11
1074.361899863
 21
812.6384644818
 31
0.0
  0
LINE
  5
27D
330
1F
100
AcDbEntity
  8
0
  6
Continuous
 62
     8
370
    15
100
AcDbLine
 10
1074.361899863
 20
807.6384644818
 30
0.0
 11
1079.9820984375
 21
807.6384644818
 31
0.0
  0
LINE
  5
27E
330
1F
100
AcDbEntity
  8
0
  6
Continuous
 62
     8
370
    15
100
AcDbLine
 10
1074.361899863
 20
373.6384644818
 30
0.0
 11
1079.9820984375
 21
373.6384644818
 31
0.0
  0
LINE
  5
27F
330
1F
100
AcDbEntity
  8
0
  6
Continuous
 62
     8
370
    15
100
AcDbLine
 10
1079.9820984375
 20
377.6384644818
 30
0.0
 11
1074.361899863
 21
377.6384644818
 31
0.0
  0
DIMENSION
  5
280
330
1F
100
AcDbEntity
  8
MEDIÇÕES
100
AcDbDimension
  2
_D_1
 10
994.361899863
 20
817.6384644818
 30
0.0
 11
994.361899863
 21
592.1759248434
 31
0.0
 70
   160
  1
<>
 71
     2
 42
-1.0
  3
SLDDIMSTYLE0
100
AcDbAlignedDimension
 13
1092.2683580839
 23
366.7133852051
 33
0.0
 14
1084.954165045
 24
817.6384644818
 34
0.0
 50
90.0
100
AcDbRotatedDimension
  0
LINE
  5
28A
330
1F
100
AcDbEntity
  8
0
  6
Continuous
 62
     7
370
    15
100
AcDbLine
 10
700.6264840758
 20
1262.9187855144
 30
0.0
 11
701.6350616888
 21
1264.6326811233
 31
0.0
  0
LINE
  5
28B
330
1F
100
AcDbEntity
  8
0
  6
Continuous
 62
     7
370
    15
100
AcDbLine
 10
690.2939034453
 20
1275.9738393668
 30
0.0
 11
688.5800078364
 21
1274.9652617538
 31
0.0
  0
ARC
  5
28C
330
1F
100
AcDbEntity
  8
0
  6
Continuous
 62
     7
370
    15
100
AcDbCircle
 10
690.3446205399
 20
1275.8876548188
 30
0.0
 40
0.1000000000000651
100
AcDbArc
 50
45.0
 51
120.4755709219
  0
ARC
  5
28D
330
1F
100
AcDbEntity
  8
0
  6
Continuous
 62
     7
370
    15
100
AcDbCircle
 10
701.5488771408
 20
1264.6833982179
 30
0.0
 40
0.0999999999999847
100
AcDbArc
 50
329.5244290782
 51
44.9999999999
  0
LINE
  5
28E
330
1F
100
AcDbEntity
  8
0
  6
Continuous
 62
     7
370
    15
100
AcDbLine
 10
641.3782004922
 20
1322.167069098
 30
0.0
 11
642.3867781052
 21
1323.8809647069
 31
0.0
  0
LINE
  5
28F
330
1F
100
AcDbEntity
  8
0
  6
Continuous
 62
     7
370
    15
100
AcDbLine
 10
631.0456198617
 20
1335.2221229504
 30
0.0
 11
629.3317242527
 21
1334.2135453375
 31
0.0
  0
ARC
  5
290
330
1F
100
AcDbEntity
  8
0
  6
Continuous
 62
     7
370
    15
100
AcDbCircle
 10
631.0963369563
 20
1335.1359384024
 30
0.0
 40
0.1000000000000193
100
AcDbArc
 50
45.0
 51
120.4755709219
  0
ARC
  5
291
330
1F
100
AcDbEntity
  8
0
  6
Continuous
 62
     7
370
    15
100
AcDbCircle
 10
642.3005935572
 20
1323.9316818015
 30
0.0
 40
0.1000000000000651
100
AcDbArc
 50
329.5244290781
 51
45.0
  0
LINE
  5
292
330
1F
100
AcDbEntity
  8
0
  6
Continuous
 62
     7
370
    15
100
AcDbLine
 10
700.8352176116
 20
1265.5384791032
 30
0.0
 11
701.6195878189
 21
1264.754108896
 31
0.0
  0
LINE
  5
293
330
1F
100
AcDbEntity
  8
0
  6
Continuous
 62
     7
370
    15
100
AcDbLine
 10
690.415331218
 20
1275.9583654969
 30
0.0
 11
700.8352176116
 21
1265.5384791032
 31
0.0
  0
LINE
  5
294
330
1F
100
AcDbEntity
  8
0
  6
Continuous
 62
     7
370
    15
100
AcDbLine
 10
641.586934028
 20
1324.7867626869
 30
0.0
 11
642.3713042353
 21
1324.0023924797
 31
0.0
  0
LINE
  5
295
330
1F
100
AcDbEntity
  8
0
  6
Continuous
 62
     7
370
    15
100
AcDbLine
 10
631.1670476344
 20
1335.2066490806
 30
0.0
 11
641.586934028
 21
1324.7867626869
 31
0.0
  0
CIRCLE
  5
296
330
1F
100
AcDbEntity
  8
0
  6
Continuous
 62
     7
370
    15
100
AcDbCircle
 10
689.2074872379
 20
1192.8069549757
 30
0.0
 40
6.0
  0
LINE
  5
297
330
1F
100
AcDbEntity
  8
0
  6
Continuous
 62
     7
370
    15
100
AcDbLine
 10
689.2074872379
 20
1189.9069549757
 30
0.0
 11
691.7189609088
 21
1191.3569549757
 31
0.0
  0
LINE
  5
298
330
1F
100
AcDbEntity
  8
0
  6
Continuous
 62
     7
370
    15
100
AcDbLine
 10
691.7189609088
 20
1191.3569549757
 30
0.0
 11
691.7189609088
 21
1194.2569549757
 31
0.0
  0
LINE
  5
299
330
1F
100
AcDbEntity
  8
0
  6
Continuous
 62
     7
370
    15
100
AcDbLine
 10
689.2074872379
 20
1195.7069549757
 30
0.0
 11
691.7189609088
 21
1194.2569549757
 31
0.0
  0
LINE
  5
29A
330
1F
100
AcDbEntity
  8
0
  6
Continuous
 62
     7
370
    15
100
AcDbLine
 10
686.6960135669
 20
1194.2569549757
 30
0.0
 11
689.2074872379
 21
1195.7069549757
 31
0.0
  0
LINE
  5
29B
330
1F
100
AcDbEntity
  8
0
  6
Continuous
 62
     7
370
    15
100
AcDbLine
 10
686.6960135669
 20
1191.3569549757
 30
0.0
 11
686.6960135669
 21
1194.2569549757
 31
0.0
  0
LINE
  5
29C
330
1F
100
AcDbEntity
  8
0
  6
Continuous
 62
     7
370
    15
100
AcDbLine
 10
686.6960135669
 20
1191.3569549757
 30
0.0
 11
689.2074872379
 21
1189.9069549757
 31
0.0
  0
CIRCLE
  5
29D
330
1F
100
AcDbEntity
  8
0
  6
Continuous
 62
     7
370
    15
100
AcDbCircle
 10
689.2074872379
 20
1192.8069549757
 30
0.0
 40
2.299999999999955
  0
CIRCLE
  5
29E
330
1F
100
AcDbEntity
  8
0
  6
Continuous
 62
     7
370
    15
100
AcDbCircle
 10
689.2074872379
 20
1192.8069549757
 30
0.0
 40
0.4999999999997726
  0
CIRCLE
  5
29F
330
1F
100
AcDbEntity
  8
0
  6
Continuous
 62
     7
370
    15
100
AcDbCircle
 10
606.8323091463
 20
1206.3324428415
 30
0.0
 40
6.000000000000028
  0
LINE
  5
2A0
330
1F
100
AcDbEntity
  8
0
  6
Continuous
 62
     7
370
    15
100
AcDbLine
 10
605.7553136736
 20
1203.6398454427
 30
0.0
 11
608.6256691594
 21
1204.0534387029
 31
0.0
  0
LINE
  5
2A1
330
1F
100
AcDbEntity
  8
0
  6
Continuous
 62
     7
370
    15
100
AcDbLine
 10
608.6256691594
 20
1204.0534387029
 30
0.0
 11
609.7026646322
 21
1206.7460361017
 31
0.0
  0
LINE
  5
2A2
330
1F
100
AcDbEntity
  8
0
  6
Continuous
 62
     7
370
    15
100
AcDbLine
 10
607.9093046191
 20
1209.0250402402
 30
0.0
 11
609.7026646322
 21
1206.7460361017
 31
0.0
  0
LINE
  5
2A3
330
1F
100
AcDbEntity
  8
0
  6
Continuous
 62
     7
370
    15
100
AcDbLine
 10
603.9619536605
 20
1205.9188495813
 30
0.0
 11
605.0389491332
 21
1208.61144698
 31
0.0
  0
LINE
  5
2A4
330
1F
100
AcDbEntity
  8
0
  6
Continuous
 62
     7
370
    15
100
AcDbLine
 10
603.9619536605
 20
1205.9188495813
 30
0.0
 11
605.7553136736
 21
1203.6398454427
 31
0.0
  0
LINE
  5
2A5
330
1F
100
AcDbEntity
  8
0
  6
Continuous
 62
     7
370
    15
100
AcDbLine
 10
605.0389491332
 20
1208.61144698
 30
0.0
 11
607.9093046191
 21
1209.0250402402
 31
0.0
  0
CIRCLE
  5
2A6
330
1F
100
AcDbEntity
  8
0
  6
Continuous
 62
     7
370
    15
100
AcDbCircle
 10
606.8323091463
 20
1206.3324428415
 30
0.0
 40
2.299999999999895
  0
CIRCLE
  5
2A7
330
1F
100
AcDbEntity
  8
0
  6
Continuous
 62
     7
370
    15
100
AcDbCircle
 10
606.8323091463
 20
1206.3324428415
 30
0.0
 40
0.4999999999999073
  0
CIRCLE
  5
2A8
330
1F
100
AcDbEntity
  8
0
  6
Continuous
 62
     7
370
    15
100
AcDbCircle
 10
606.8323091463
 20
1290.3324428415
 30
0.0
 40
5.999999999999859
  0
LINE
  5
2A9
330
1F
100
AcDbEntity
  8
0
  6
Continuous
 62
     7
370
    15
100
AcDbLine
 10
605.7553136736
 20
1287.6398454427
 30
0.0
 11
608.6256691594
 21
1288.0534387029
 31
0.0
  0
LINE
  5
2AA
330
1F
100
AcDbEntity
  8
0
  6
Continuous
 62
     7
370
    15
100
AcDbLine
 10
608.6256691594
 20
1288.0534387029
 30
0.0
 11
609.7026646322
 21
1290.7460361017
 31
0.0
  0
LINE
  5
2AB
330
1F
100
AcDbEntity
  8
0
  6
Continuous
 62
     7
370
    15
100
AcDbLine
 10
607.9093046191
 20
1293.0250402402
 30
0.0
 11
609.7026646322
 21
1290.7460361017
 31
0.0
  0
LINE
  5
2AC
330
1F
100
AcDbEntity
  8
0
  6
Continuous
 62
     7
370
    15
100
AcDbLine
 10
605.0389491332
 20
1292.61144698
 30
0.0
 11
607.9093046191
 21
1293.0250402402
 31
0.0
  0
LINE
  5
2AD
330
1F
100
AcDbEntity
  8
0
  6
Continuous
 62
     7
370
    15
100
AcDbLine
 10
603.9619536605
 20
1289.9188495813
 30
0.0
 11
605.0389491332
 21
1292.61144698
 31
0.0
  0
LINE
  5
2AE
330
1F
100
AcDbEntity
  8
0
  6
Continuous
 62
     7
370
    15
100
AcDbLine
 10
603.9619536605
 20
1289.9188495813
 30
0.0
 11
605.7553136736
 21
1287.6398454427
 31
0.0
  0
CIRCLE
  5
2AF
330
1F
100
AcDbEntity
  8
0
  6
Continuous
 62
     7
370
    15
100
AcDbCircle
 10
606.8323091463
 20
1290.3324428415
 30
0.0
 40
2.300000000000106
  0
CIRCLE
  5
2B0
330
1F
100
AcDbEntity
  8
0
  6
Continuous
 62
     7
370
    15
100
AcDbCircle
 10
606.8323091463
 20
1290.3324428415
 30
0.0
 40
0.5000000000001183
  0
CIRCLE
  5
2B1
330
1F
100
AcDbEntity
  8
0
  6
Continuous
 62
     7
370
    15
100
AcDbCircle
 10
524.4571310548
 20
1192.8069549757
 30
0.0
 40
6.000000000000227
  0
LINE
  5
2B2
330
1F
100
AcDbEntity
  8
0
  6
Continuous
 62
     7
370
    15
100
AcDbLine
 10
524.4571310548
 20
1189.9069549757
 30
0.0
 11
526.9686047258
 21
1191.3569549757
 31
0.0
  0
LINE
  5
2B3
330
1F
100
AcDbEntity
  8
0
  6
Continuous
 62
     7
370
    15
100
AcDbLine
 10
526.9686047258
 20
1191.3569549757
 30
0.0
 11
526.9686047258
 21
1194.2569549757
 31
0.0
  0
LINE
  5
2B4
330
1F
100
AcDbEntity
  8
0
  6
Continuous
 62
     7
370
    15
100
AcDbLine
 10
524.4571310548
 20
1195.7069549757
 30
0.0
 11
526.9686047258
 21
1194.2569549757
 31
0.0
  0
LINE
  5
2B5
330
1F
100
AcDbEntity
  8
0
  6
Continuous
 62
     7
370
    15
100
AcDbLine
 10
521.9456573838
 20
1194.2569549757
 30
0.0
 11
524.4571310548
 21
1195.7069549757
 31
0.0
  0
LINE
  5
2B6
330
1F
100
AcDbEntity
  8
0
  6
Continuous
 62
     7
370
    15
100
AcDbLine
 10
521.9456573838
 20
1191.3569549757
 30
0.0
 11
521.9456573838
 21
1194.2569549757
 31
0.0
  0
LINE
  5
2B7
330
1F
100
AcDbEntity
  8
0
  6
Continuous
 62
     7
370
    15
100
AcDbLine
 10
521.9456573838
 20
1191.3569549757
 30
0.0
 11
524.4571310548
 21
1189.9069549757
 31
0.0
  0
CIRCLE
  5
2B8
330
1F
100
AcDbEntity
  8
0
  6
Continuous
 62
     7
370
    15
100
AcDbCircle
 10
524.4571310548
 20
1192.8069549757
 30
0.0
 40
2.299999999999955
  0
CIRCLE
  5
2B9
330
1F
100
AcDbEntity
  8
0
  6
Continuous
 62
     7
370
    15
100
AcDbCircle
 10
524.4571310548
 20
1192.8069549757
 30
0.0
 40
0.5
  0
CIRCLE
  5
2BA
330
1F
100
AcDbEntity
  8
0
  6
Continuous
 62
     7
370
    15
100
AcDbCircle
 10
590.6422640003
 20
1310.3324428415
 30
0.0
 40
6.0
  0
LINE
  5
2BB
330
1F
100
AcDbEntity
  8
0
  6
Continuous
 62
     7
370
    15
100
AcDbLine
 10
590.6422640003
 20
1307.4324428415
 30
0.0
 11
593.1537376712
 21
1308.8824428415
 31
0.0
  0
LINE
  5
2BC
330
1F
100
AcDbEntity
  8
0
  6
Continuous
 62
     7
370
    15
100
AcDbLine
 10
588.1307903293
 20
1308.8824428415
 30
0.0
 11
588.1307903293
 21
1311.7824428415
 31
0.0
  0
LINE
  5
2BD
330
1F
100
AcDbEntity
  8
0
  6
Continuous
 62
     7
370
    15
100
AcDbLine
 10
588.1307903293
 20
1308.8824428415
 30
0.0
 11
590.6422640003
 21
1307.4324428415
 31
0.0
  0
LINE
  5
2BE
330
1F
100
AcDbEntity
  8
0
  6
Continuous
 62
     7
370
    15
100
AcDbLine
 10
588.1307903293
 20
1311.7824428415
 30
0.0
 11
590.6422640003
 21
1313.2324428415
 31
0.0
  0
LINE
  5
2BF
330
1F
100
AcDbEntity
  8
0
  6
Continuous
 62
     7
370
    15
100
AcDbLine
 10
593.1537376712
 20
1308.8824428415
 30
0.0
 11
593.1537376712
 21
1311.7824428415
 31
0.0
  0
LINE
  5
2C0
330
1F
100
AcDbEntity
  8
0
  6
Continuous
 62
     7
370
    15
100
AcDbLine
 10
590.6422640003
 20
1313.2324428415
 30
0.0
 11
593.1537376712
 21
1311.7824428415
 31
0.0
  0
CIRCLE
  5
2C1
330
1F
100
AcDbEntity
  8
0
  6
Continuous
 62
     7
370
    15
100
AcDbCircle
 10
590.6422640003
 20
1310.3324428415
 30
0.0
 40
2.299999999999955
  0
CIRCLE
  5
2C2
330
1F
100
AcDbEntity
  8
0
  6
Continuous
 62
     7
370
    15
100
AcDbCircle
 10
590.6422640003
 20
1310.3324428415
 30
0.0
 40
0.5
  0
ARC
  5
2C3
330
1F
100
AcDbEntity
  8
0
  6
Continuous
 62
     7
370
    15
100
AcDbCircle
 10
617.8991182497
 20
1334.3324428415
 30
0.0
 40
3.000000000000024
100
AcDbArc
 50
45.0
 51
90.0
  0
LINE
  5
2C4
330
1F
100
AcDbEntity
  8
0
  6
Continuous
 62
     7
370
    15
100
AcDbLine
 10
617.8991182497
 20
1337.3324428415
 30
0.0
 11
617.8991182497
 21
1342.3324428415
 31
0.0
  0
ARC
  5
2C5
330
1F
100
AcDbEntity
  8
0
  6
Continuous
 62
     7
370
    15
100
AcDbCircle
 10
617.8991182497
 20
1334.3324428415
 30
0.0
 40
8.000000000000146
100
AcDbArc
 50
45.0
 51
90.0
  0
LINE
  5
2C6
330
1F
100
AcDbEntity
  8
0
  6
Continuous
 62
     7
370
    15
100
AcDbLine
 10
620.0204385933
 20
1336.453763185
 30
0.0
 11
623.5559724992
 21
1339.989297091
 31
0.0
  0
LINE
  5
2C7
330
1F
100
AcDbEntity
  8
0
  6
Continuous
 62
     7
370
    15
100
AcDbLine
 10
617.8991182497
 20
1337.3324428415
 30
0.0
 11
530.0031278675
 21
1337.3324428415
 31
0.0
  0
LINE
  5
2C8
330
1F
100
AcDbEntity
  8
0
  6
Continuous
 62
     7
370
    15
100
AcDbLine
 10
530.0031278675
 20
1337.3324428415
 30
0.0
 11
530.0031278675
 21
1342.3324428415
 31
0.0
  0
LINE
  5
2C9
330
1F
100
AcDbEntity
  8
0
  6
Continuous
 62
     7
370
    15
100
AcDbLine
 10
530.0031278675
 20
1342.3324428415
 30
0.0
 11
617.8991182497
 21
1342.3324428415
 31
0.0
  0
ARC
  5
2CA
330
1F
100
AcDbEntity
  8
0
  6
Continuous
 62
     7
370
    15
100
AcDbCircle
 10
530.0031278675
 20
1334.3324428415
 30
0.0
 40
3.000000000000054
100
AcDbArc
 50
90.0
 51
168.0
  0
LINE
  5
2CB
330
1F
100
AcDbEntity
  8
0
  6
Continuous
 62
     7
370
    15
100
AcDbLine
 10
527.0686850653
 20
1334.9561779139
 30
0.0
 11
522.1779470616
 21
1335.995736368
 31
0.0
  0
ARC
  5
2CC
330
1F
100
AcDbEntity
  8
0
  6
Continuous
 62
     7
370
    15
100
AcDbCircle
 10
530.0031278675
 20
1334.3324428415
 30
0.0
 40
8.0
100
AcDbArc
 50
90.0
 51
168.0
  0
LINE
  5
2CD
330
1F
100
AcDbEntity
  8
0
  6
Continuous
 62
     7
370
    15
100
AcDbLine
 10
703.5342111062
 20
1252.9399906722
 30
0.0
 11
620.0204385933
 21
1336.453763185
 31
0.0
  0
LINE
  5
2CE
330
1F
100
AcDbEntity
  8
0
  6
Continuous
 62
     7
370
    15
100
AcDbLine
 10
623.5559724992
 20
1339.989297091
 30
0.0
 11
707.0697450121
 21
1256.4755245781
 31
0.0
  0
LINE
  5
2CF
330
1F
100
AcDbEntity
  8
0
  6
Continuous
 62
     7
370
    15
100
AcDbLine
 10
703.5342111062
 20
1252.9399906722
 30
0.0
 11
707.0697450121
 21
1256.4755245781
 31
0.0
  0
ARC
  5
2D0
330
1F
100
AcDbEntity
  8
0
  6
Continuous
 62
     7
370
    15
100
AcDbCircle
 10
701.4128907626
 20
1250.8186703286
 30
0.0
 40
3.000000000000105
100
AcDbArc
 50
12.0
 51
45.0
  0
LINE
  5
2D1
330
1F
100
AcDbEntity
  8
0
  6
Continuous
 62
     7
370
    15
100
AcDbLine
 10
728.6371676199
 20
1137.1677207513
 30
0.0
 11
704.3473335648
 21
1251.4424054011
 31
0.0
  0
ARC
  5
2D2
330
1F
100
AcDbEntity
  8
0
  6
Continuous
 62
     7
370
    15
100
AcDbCircle
 10
710.5414370063
 20
1133.3213544712
 30
0.0
 40
18.49999999999994
100
AcDbArc
 50
276.0592220213
 51
12.0
  0
ARC
  5
2D3
330
1F
100
AcDbEntity
  8
0
  6
Continuous
 62
     7
370
    15
100
AcDbCircle
 10
606.8323091463
 20
2110.3324428415
 30
0.0
 40
1001.000000000001
100
AcDbArc
 50
263.9407779787
 51
276.0592220213
  0
ARC
  5
2D4
330
1F
100
AcDbEntity
  8
0
  6
Continuous
 62
     7
370
    15
100
AcDbCircle
 10
503.1231812863
 20
1133.3213544712
 30
0.0
 40
18.49999999999911
100
AcDbArc
 50
168.0
 51
263.9407779787
  0
LINE
  5
2D5
330
1F
100
AcDbEntity
  8
0
  6
Continuous
 62
     7
370
    15
100
AcDbLine
 10
527.0686850653
 20
1334.9561779139
 30
0.0
 11
485.0274506728
 21
1137.1677207513
 31
0.0
  0
CIRCLE
  5
2D6
330
1F
100
AcDbEntity
  8
0
  6
Continuous
 62
     7
370
    15
100
AcDbCircle
 10
689.2074872379
 20
1192.8069549757
 30
0.0
 40
6.025000000000546
  0
CIRCLE
  5
2D7
330
1F
100
AcDbEntity
  8
0
  6
Continuous
 62
     7
370
    15
100
AcDbCircle
 10
606.8323091463
 20
1206.3324428415
 30
0.0
 40
6.399999999999864
  0
CIRCLE
  5
2D8
330
1F
100
AcDbEntity
  8
0
  6
Continuous
 62
     7
370
    15
100
AcDbCircle
 10
524.4571310548
 20
1192.8069549757
 30
0.0
 40
6.024999999999977
  0
CIRCLE
  5
2D9
330
1F
100
AcDbEntity
  8
0
  6
Continuous
 62
     7
370
    15
100
AcDbCircle
 10
590.6422640003
 20
1310.3324428415
 30
0.0
 40
6.02499999999975
  0
CIRCLE
  5
2DA
330
1F
100
AcDbEntity
  8
0
  6
Continuous
 62
     7
370
    15
100
AcDbCircle
 10
606.8323091463
 20
1290.3324428415
 30
0.0
 40
6.399999999999864
  0
LINE
  5
2DB
330
1F
100
AcDbEntity
  8
0
  6
Continuous
 62
     7
370
    15
100
AcDbLine
 10
480.1367126691
 20
1138.2072792054
 30
0.0
 11
485.0274506728
 21
1137.1677207513
 31
0.0
  0
LINE
  5
2DC
330
1F
100
AcDbEntity
  8
0
  6
Continuous
 62
     7
370
    15
100
AcDbLine
 10
480.1367126691
 20
1138.2072792054
 30
0.0
 11
522.1779470616
 21
1335.995736368
 31
0.0
  0
ARC
  5
2DD
330
1F
100
AcDbEntity
  8
0
  6
Continuous
 62
     7
370
    15
100
AcDbCircle
 10
701.4128907626
 20
1250.8186703286
 30
0.0
 40
8.000000000000147
100
AcDbArc
 50
12.0
 51
45.0
  0
LINE
  5
2DE
330
1F
100
AcDbEntity
  8
0
  6
Continuous
 62
     7
370
    15
100
AcDbLine
 10
709.2380715685
 20
1252.4819638551
 30
0.0
 11
704.3473335648
 21
1251.4424054011
 31
0.0
  0
LINE
  5
2DF
330
1F
100
AcDbEntity
  8
0
  6
Continuous
 62
     7
370
    15
100
AcDbLine
 10
709.2380715685
 20
1252.4819638551
 30
0.0
 11
733.5279056236
 21
1138.2072792054
 31
0.0
  0
LINE
  5
2E0
330
1F
100
AcDbEntity
  8
0
  6
Continuous
 62
     7
370
    15
100
AcDbLine
 10
733.5279056236
 20
1138.2072792054
 30
0.0
 11
728.6371676199
 21
1137.1677207513
 31
0.0
  0
ARC
  5
2E1
330
1F
100
AcDbEntity
  8
0
  6
Continuous
 62
     7
370
    15
100
AcDbCircle
 10
710.5414370063
 20
1133.3213544712
 30
0.0
 40
23.50000000000077
100
AcDbArc
 50
276.0592220213
 51
12.0
  0
LINE
  5
2E2
330
1F
100
AcDbEntity
  8
0
  6
Continuous
 62
     7
370
    15
100
AcDbLine
 10
713.0220115658
 20
1109.952641416
 30
0.0
 11
712.4942297446
 21
1114.9247080235
 31
0.0
  0
ARC
  5
2E3
330
1F
100
AcDbEntity
  8
0
  6
Continuous
 62
     7
370
    15
100
AcDbCircle
 10
503.1231812863
 20
1133.3213544712
 30
0.0
 40
23.49999999999931
100
AcDbArc
 50
168.0
 51
263.9407779787
  0
LINE
  5
2E4
330
1F
100
AcDbEntity
  8
0
  6
Continuous
 62
     7
370
    15
100
AcDbLine
 10
500.6426067268
 20
1109.952641416
 30
0.0
 11
501.170388548
 21
1114.9247080235
 31
0.0
  0
ARC
  5
2E5
330
1F
100
AcDbEntity
  8
0
  6
Continuous
 62
     7
370
    15
100
AcDbCircle
 10
606.8323091463
 20
2110.3324428415
 30
0.0
 40
1006.000000000001
100
AcDbArc
 50
263.9407779787
 51
276.0592220213
  0
LINE
  5
2E6
330
1F
100
AcDbEntity
  8
0
  6
Continuous
 62
     8
370
    15
100
AcDbLine
 10
701.6350616888
 20
1264.6326811233
 30
0.0
 11
690.2939034453
 21
1275.9738393668
 31
0.0
  0
LINE
  5
2E7
330
1F
100
AcDbEntity
  8
0
  6
Continuous
 62
     8
370
    15
100
AcDbLine
 10
642.3867781052
 20
1323.8809647069
 30
0.0
 11
631.0456198617
 21
1335.2221229504
 31
0.0
  0
DIMENSION
  5
2E8
330
1F
100
AcDbEntity
  8
MEDIÇÕES
100
AcDbDimension
  2
_D_2
 10
428.8154196187
 20
1104.3324428415
 30
0.0
 11
428.8154196187
 21
1225.0104693257
 31
0.0
 70
   160
  1
<>
 71
     2
 42
-1.0
  3
SLDDIMSTYLE1
100
AcDbAlignedDimension
 13
530.0031278675
 23
1342.3324428415
 33
0.0
 14
606.8323091463
 24
1104.3324428415
 34
0.0
 50
90.0
100
AcDbRotatedDimension
  0
LINE
  5
2F3
330
1F
100
AcDbEntity
  8
0
  6
Continuous
 62
     7
370
    15
100
AcDbLine
 10
2140.9430583469
 20
1037.1080890817
 30
0.0
 11
2140.9430583469
 21
1379.7338906384
 31
0.0
  0
LINE
  5
2F4
330
1F
100
AcDbEntity
  8
0
  6
Continuous
 62
     7
370
    15
100
AcDbLine
 10
1961.4593899598
 20
1465.6723133526
 30
0.0
 11
1961.4593899598
 21
1126.7103027589
 31
0.0
  0
SPLINE
  5
2F5
330
1F
100
AcDbEntity
  8
0
  6
Continuous
 62
     7
370
    15
100
AcDbSpline
210
0.0
220
0.0
230
1.0
 70
     8
 71
     3
 72
     9
 73
     5
 74
     0
 42
0.00000001
 43
0.00000001
 12
1.0
 22
0.0
 32
0.0
 13
1.0
 23
0.0
 33
0.0
 40
0.0
 40
0.0
 40
0.0
 40
0.0
 40
0.4119941766163698
 40
1.0
 40
1.0
 40
1.0
 40
1.0
 10
2209.786879364126
 20
1093.466805669536
 30
0.0
 10
2209.900264484133
 20
1093.714576048417
 30
0.0
 10
2210.175474976038
 20
1094.315968963521
 30
0.0
 10
2210.225261952133
 20
1094.975684842195
 30
0.0
 10
2210.254536984006
 20
1095.363601620634
 30
0.0
  0
LINE
  5
2F6
330
1F
100
AcDbEntity
  8
0
  6
Continuous
 62
     7
370
    15
100
AcDbLine
 10
2148.3406044136
 20
1038.4014164387
 30
0.0
 11
2208.615335024
 21
1091.9823441874
 31
0.0
  0
SPLINE
  5
2F7
330
1F
100
AcDbEntity
  8
0
  6
Continuous
 62
     7
370
    15
100
AcDbSpline
210
0.0
220
0.0
230
1.0
 70
     8
 71
     3
 72
     9
 73
     5
 74
     0
 42
0.00000001
 43
0.00000001
 12
1.0
 22
0.0
 32
0.0
 13
1.0
 23
0.0
 33
0.0
 40
0.0
 40
0.0
 40
0.0
 40
0.0
 40
0.4093137041115211
 40
1.0
 40
1.0
 40
1.0
 40
1.0
 10
2208.61533502398
 20
1091.982344187428
 30
0.0
 10
2208.806782990027
 20
1092.163782021954
 30
0.0
 10
2209.274512177018
 20
1092.607055317483
 30
0.0
 10
2209.596616660115
 20
1093.147545516132
 30
0.0
 10
2209.786879364126
 20
1093.466805669536
 30
0.0
  0
LINE
  5
2F8
330
1F
100
AcDbEntity
  8
0
  6
Continuous
 62
     7
370
    15
100
AcDbLine
 10
2210.254536984
 20
1111.7209421516
 30
0.0
 11
2212.1796162607
 21
1112.2196772894
 31
0.0
  0
LINE
  5
2F9
330
1F
100
AcDbEntity
  8
0
  6
Continuous
 62
     7
370
    15
100
AcDbLine
 10
2212.1796162607
 20
1128.2584970904
 30
0.0
 11
2210.254536984
 21
1128.7572322283
 31
0.0
  0
ARC
  5
2FA
330
1F
100
AcDbEntity
  8
0
  6
Continuous
 62
     7
370
    15
100
AcDbCircle
 10
2212.1545369839
 20
1128.1616930106
 30
0.0
 40
0.0999999999999091
100
AcDbArc
 50
0.0000000001
 51
75.4755709219
  0
ARC
  5
2FB
330
1F
100
AcDbEntity
  8
0
  6
Continuous
 62
     7
370
    15
100
AcDbCircle
 10
2212.1545369839
 20
1112.3164813693
 30
0.0
 40
0.1000000000000965
100
AcDbArc
 50
284.524429078
 51
359.9999999999
  0
LINE
  5
2FC
330
1F
100
AcDbEntity
  8
0
  6
Continuous
 62
     7
370
    15
100
AcDbLine
 10
2210.254536984
 20
1426.0891547276
 30
0.0
 11
2212.1796162608
 21
1426.5878898654
 31
0.0
  0
LINE
  5
2FD
330
1F
100
AcDbEntity
  8
0
  6
Continuous
 62
     7
370
    15
100
AcDbLine
 10
2212.1796162608
 20
1442.6267096664
 30
0.0
 11
2210.254536984
 21
1443.1254448043
 31
0.0
  0
ARC
  5
2FE
330
1F
100
AcDbEntity
  8
0
  6
Continuous
 62
     7
370
    15
100
AcDbCircle
 10
2212.154536984
 20
1442.5299055866
 30
0.0
 40
0.0999999999999825
100
AcDbArc
 50
0.0
 51
75.4755709223
  0
ARC
  5
2FF
330
1F
100
AcDbEntity
  8
0
  6
Continuous
 62
     7
370
    15
100
AcDbCircle
 10
2212.154536984
 20
1426.6846939453
 30
0.0
 40
0.0999999999999825
100
AcDbArc
 50
284.5244290777
 51
359.9999999998
  0
LINE
  5
300
330
1F
100
AcDbEntity
  8
0
  6
Continuous
 62
     7
370
    15
100
AcDbLine
 10
2210.254536984
 20
1474.4599340568
 30
0.0
 11
2212.1796162608
 21
1474.9586691947
 31
0.0
  0
LINE
  5
301
330
1F
100
AcDbEntity
  8
0
  6
Continuous
 62
     7
370
    15
100
AcDbLine
 10
2212.1796162608
 20
1490.9974889957
 30
0.0
 11
2210.254536984
 21
1491.4962241335
 31
0.0
  0
ARC
  5
302
330
1F
100
AcDbEntity
  8
0
  6
Continuous
 62
     7
370
    15
100
AcDbCircle
 10
2212.154536984
 20
1490.9006849158
 30
0.0
 40
0.1000000000003638
100
AcDbArc
 50
0.0000000001
 51
75.475570922
  0
ARC
  5
303
330
1F
100
AcDbEntity
  8
0
  6
Continuous
 62
     7
370
    15
100
AcDbCircle
 10
2212.154536984
 20
1475.0554732745
 30
0.0
 40
0.1000000000003638
100
AcDbArc
 50
284.524429078
 51
359.9999999999
  0
LINE
  5
304
330
1F
100
AcDbEntity
  8
0
  6
Continuous
 62
     7
370
    15
100
AcDbLine
 10
2210.254536984
 20
1160.0917214808
 30
0.0
 11
2212.1796162608
 21
1160.5904566187
 31
0.0
  0
LINE
  5
305
330
1F
100
AcDbEntity
  8
0
  6
Continuous
 62
     7
370
    15
100
AcDbLine
 10
2212.1796162608
 20
1176.6292764197
 30
0.0
 11
2210.254536984
 21
1177.1280115575
 31
0.0
  0
ARC
  5
306
330
1F
100
AcDbEntity
  8
0
  6
Continuous
 62
     7
370
    15
100
AcDbCircle
 10
2212.154536984
 20
1176.5324723398
 30
0.0
 40
0.1000000000003638
100
AcDbArc
 50
0.0
 51
75.475570922
  0
ARC
  5
307
330
1F
100
AcDbEntity
  8
0
  6
Continuous
 62
     7
370
    15
100
AcDbCircle
 10
2212.154536984
 20
1160.6872606985
 30
0.0
 40
0.1000000000003638
100
AcDbArc
 50
284.524429078
 51
359.9999999998
  0
LINE
  5
308
330
1F
100
AcDbEntity
  8
0
  6
Continuous
 62
     7
370
    15
100
AcDbLine
 10
2179.7105149773
 20
1400.7921392008
 30
0.0
 11
2179.4129107233
 21
1400.5645105297
 31
0.0
  0
LINE
  5
309
330
1F
100
AcDbEntity
  8
0
  6
Continuous
 62
     7
370
    15
100
AcDbLine
 10
2176.2022006301
 20
1392.0002194874
 30
0.0
 11
2176.2768169549
 21
1391.6330471737
 31
0.0
  0
LINE
  5
30A
330
1F
100
AcDbEntity
  8
0
  6
Continuous
 62
     7
370
    15
100
AcDbLine
 10
2179.7105149773
 20
1096.2224163674
 30
0.0
 11
2179.4129107233
 21
1095.9947876964
 31
0.0
  0
LINE
  5
30B
330
1F
100
AcDbEntity
  8
0
  6
Continuous
 62
     7
370
    15
100
AcDbLine
 10
2176.2022006301
 20
1087.430496654
 30
0.0
 11
2176.2768169549
 21
1087.0633243403
 31
0.0
  0
LINE
  5
30C
330
1F
100
AcDbEntity
  8
0
  6
Continuous
 62
     7
370
    15
100
AcDbLine
 10
2149.2111972628
 20
1429.0035684997
 30
0.0
 11
2149.6634422416
 21
1428.8246097939
 31
0.0
  0
LINE
  5
30D
330
1F
100
AcDbEntity
  8
0
  6
Continuous
 62
     7
370
    15
100
AcDbLine
 10
2155.5436298988
 20
1428.8246097939
 30
0.0
 11
2155.9958748776
 21
1429.0035684997
 31
0.0
  0
LINE
  5
30E
330
1F
100
AcDbEntity
  8
0
  6
Continuous
 62
     7
370
    15
100
AcDbLine
 10
2100.5271144216
 20
1468.1506093081
 30
0.0
 11
2102.364084342
 21
1467.4236985073
 31
0.0
  0
LINE
  5
30F
330
1F
100
AcDbEntity
  8
0
  6
Continuous
 62
     7
370
    15
100
AcDbLine
 10
2105.474822116
 20
1467.4236985073
 30
0.0
 11
2107.3117920364
 21
1468.1506093081
 31
0.0
  0
LINE
  5
310
330
1F
100
AcDbEntity
  8
0
  6
Continuous
 62
     7
370
    15
100
AcDbLine
 10
2101.419453229
 20
1467.7975002507
 30
0.0
 11
2101.419453229
 21
1467.6064716108
 31
0.0
  0
LINE
  5
311
330
1F
100
AcDbEntity
  8
0
  6
Continuous
 62
     7
370
    15
100
AcDbLine
 10
2106.419453229
 20
1467.6064716108
 30
0.0
 11
2106.419453229
 21
1467.7975002507
 31
0.0
  0
LINE
  5
312
330
1F
100
AcDbEntity
  8
0
  6
Continuous
 62
     7
370
    15
100
AcDbLine
 10
2159.9240840413
 20
1502.4397500046
 30
0.0
 11
2161.7610539617
 21
1501.7128392039
 31
0.0
  0
LINE
  5
313
330
1F
100
AcDbEntity
  8
0
  6
Continuous
 62
     7
370
    15
100
AcDbLine
 10
2164.8717917356
 20
1501.7128392039
 30
0.0
 11
2166.708761656
 21
1502.4397500046
 31
0.0
  0
LINE
  5
314
330
1F
100
AcDbEntity
  8
0
  6
Continuous
 62
     7
370
    15
100
AcDbLine
 10
2160.8164228487
 20
1502.0866409473
 30
0.0
 11
2160.8164228487
 21
1501.8956123073
 31
0.0
  0
LINE
  5
315
330
1F
100
AcDbEntity
  8
0
  6
Continuous
 62
     7
370
    15
100
AcDbLine
 10
2165.8164228487
 20
1501.8956123073
 30
0.0
 11
2165.8164228487
 21
1502.0866409473
 31
0.0
  0
LINE
  5
316
330
1F
100
AcDbEntity
  8
0
  6
Continuous
 62
     7
370
    15
100
AcDbLine
 10
2032.7151032029
 20
1496.2553321065
 30
0.0
 11
2033.1673481816
 21
1496.0763734006
 31
0.0
  0
LINE
  5
317
330
1F
100
AcDbEntity
  8
0
  6
Continuous
 62
     7
370
    15
100
AcDbLine
 10
2039.0475358389
 20
1496.0763734006
 30
0.0
 11
2039.4997808176
 21
1496.2553321065
 31
0.0
  0
LINE
  5
318
330
1F
100
AcDbEntity
  8
0
  6
Continuous
 62
     7
370
    15
100
AcDbLine
 10
2162.6181289545
 20
1517.2126732169
 30
0.0
 11
2163.0703739333
 21
1517.033714511
 31
0.0
  0
LINE
  5
319
330
1F
100
AcDbEntity
  8
0
  6
Continuous
 62
     7
370
    15
100
AcDbLine
 10
2168.9505615905
 20
1517.033714511
 30
0.0
 11
2169.4028065693
 21
1517.2126732169
 31
0.0
  0
SPLINE
  5
31A
330
1F
100
AcDbEntity
  8
0
  6
Continuous
 62
     7
370
    15
100
AcDbSpline
210
0.0
220
0.0
230
1.0
 70
     8
 71
     3
 72
    22
 73
    18
 74
     0
 42
0.00000001
 43
0.00000001
 12
1.0
 22
0.0
 32
0.0
 13
1.0
 23
0.0
 33
0.0
 40
0.0
 40
0.0
 40
0.0
 40
0.0
 40
0.0381504036780099
 40
0.1099998994309285
 40
0.1817173148889785
 40
0.253303885431876
 40
0.3247878907953228
 40
0.3962117072863607
 40
0.4676237656819006
 40
0.5390687564462614
 40
0.6105885809672794
 40
0.6822362342829379
 40
0.7540625114609429
 40
0.8261092669197777
 40
0.8983941494975611
 40
0.9708800786922679
 40
1.0
 40
1.0
 40
1.0
 40
1.0
 10
2111.267624515946
 20
1379.238008185104
 30
0.0
 10
2111.657689768887
 20
1379.06308607278
 30
0.0
 10
2112.782373506369
 20
1378.55872929254
 30
0.0
 10
2114.778577775276
 20
1377.850708604242
 30
0.0
 10
2117.277234574731
 20
1377.177210405262
 30
0.0
 10
2119.886527855323
 20
1376.686417384321
 30
0.0
 10
2122.568783698123
 20
1376.380319548197
 30
0.0
 10
2125.290251067038
 20
1376.262486511827
 30
0.0
 10
2128.015698661782
 20
1376.333794324008
 30
0.0
 10
2130.710172313339
 20
1376.593552009772
 30
0.0
 10
2133.339104082737
 20
1377.039247374199
 30
0.0
 10
2135.869006634636
 20
1377.666741479707
 30
0.0
 10
2138.26730792126
 20
1378.470709567464
 30
0.0
 10
2140.503983263456
 20
1379.44406322606
 30
0.0
 10
2142.545044217568
 20
1380.580962301966
 30
0.0
 10
2144.009784225549
 20
1381.608817524359
 30
0.0
 10
2144.76888192147
 20
1382.26230361375
 30
0.0
 10
2144.986436964421
 20
1382.449590698152
 30
0.0
  0
SPLINE
  5
31B
330
1F
100
AcDbEntity
  8
0
  6
Continuous
 62
     7
370
    15
100
AcDbSpline
210
0.0
220
0.0
230
1.0
 70
     8
 71
     3
 72
    20
 73
    16
 74
     0
 42
0.00000001
 43
0.00000001
 12
1.0
 22
0.0
 32
0.0
 13
1.0
 23
0.0
 33
0.0
 40
0.0
 40
0.0
 40
0.0
 40
0.0
 40
0.0441397853652583
 40
0.1279866932336076
 40
0.211834335739247
 40
0.2956821689672364
 40
0.379530021510971
 40
0.4633777468618526
 40
0.5472252341810625
 40
0.63107238628202
 40
0.7149191185859403
 40
0.7987653581166908
 40
0.8826110425406786
 40
0.9664561192565039
 40
0.9999999999999999
 40
0.9999999999999999
 40
0.9999999999999999
 40
0.9999999999999999
 10
1961.074176426931
 20
1465.944897268736
 30
0.0
 10
1963.049485902227
 20
1464.541842228475
 30
0.0
 10
1968.777047234123
 20
1460.47357652347
 30
0.0
 10
1978.443481503147
 20
1453.828928839059
 30
0.0
 10
1990.149443872443
 20
1446.05201542096
 30
0.0
 10
2002.095191154198
 20
1438.398101999918
 30
0.0
 10
2014.272690744008
 20
1430.867625062586
 30
0.0
 10
2026.67923461062
 20
1423.463462503444
 30
0.0
 10
2039.310621618536
 20
1416.187795277375
 30
0.0
 10
2052.162900146217
 20
1409.042891714192
 30
0.0
 10
2065.232203778953
 20
1402.031118218391
 30
0.0
 10
2078.513668802327
 20
1395.154111582726
 30
0.0
 10
2092.005934814607
 20
1388.416076214073
 30
0.0
 10
2102.956926185335
 20
1383.132180457035
 30
0.0
 10
2109.420623710711
 20
1380.103463654171
 30
0.0
 10
2111.267624515947
 20
1379.238008185105
 30
0.0
  0
LINE
  5
31C
330
1F
100
AcDbEntity
  8
0
  6
Continuous
 62
     7
370
    15
100
AcDbLine
 10
2144.9864369644
 20
1382.4495906982
 30
0.0
 11
2208.615335024
 21
1439.0121892389
 31
0.0
  0
SPLINE
  5
31D
330
1F
100
AcDbEntity
  8
0
  6
Continuous
 62
     7
370
    15
100
AcDbSpline
210
0.0
220
0.0
230
1.0
 70
     8
 71
     3
 72
    11
 73
     7
 74
     0
 42
0.00000001
 43
0.00000001
 12
1.0
 22
0.0
 32
0.0
 13
1.0
 23
0.0
 33
0.0
 40
0.0
 40
0.0
 40
0.0
 40
0.0
 40
0.1993724410771574
 40
0.4954298613486059
 40
0.778242985244688
 40
1.0
 40
1.0
 40
1.0
 40
1.0
 10
2208.61533502398
 20
1439.012189238872
 30
0.0
 10
2208.805050605251
 20
1439.19451788111
 30
0.0
 10
2209.276483686058
 20
1439.647594813186
 30
0.0
 10
2209.830788837996
 20
1440.491372778543
 30
0.0
 10
2210.196315428238
 20
1441.463456125377
 30
0.0
 10
2210.236761194762
 20
1442.10950860585
 30
0.0
 10
2210.254536984006
 20
1442.393446672078
 30
0.0
  0
SPLINE
  5
31E
330
1F
100
AcDbEntity
  8
0
  6
Continuous
 62
     7
370
    15
100
AcDbSpline
210
0.0
220
0.0
230
1.0
 70
     8
 71
     3
 72
    17
 73
    13
 74
     0
 42
0.00000001
 43
0.00000001
 12
1.0
 22
0.0
 32
0.0
 13
1.0
 23
0.0
 33
0.0
 40
0.0
 40
0.0
 40
0.0
 40
0.0
 40
0.065216924539985
 40
0.1868654889985465
 40
0.309513079921694
 40
0.4322809815475266
 40
0.55365909517649
 40
0.6595215371139992
 40
0.7620842833289561
 40
0.8722138213258573
 40
0.9788469557285192
 40
1.0
 40
1.0
 40
1.0
 40
1.0
 10
1967.128381497122
 20
1493.094593890826
 30
0.0
 10
1966.700073897357
 20
1492.926658167162
 30
0.0
 10
1965.472847841601
 20
1492.445473392745
 30
0.0
 10
1963.573341225703
 20
1491.498037615779
 30
0.0
 10
1961.518025101391
 20
1490.192932677649
 30
0.0
 10
1959.699874426373
 20
1488.694360506564
 30
0.0
 10
1958.214686126584
 20
1487.082843410313
 30
0.0
 10
1957.070076944581
 20
1485.408622936065
 30
0.0
 10
1956.210826836076
 20
1483.664432072771
 30
0.0
 10
1955.669765696103
 20
1481.809947530099
 30
0.0
 10
1955.430732154452
 20
1480.377013195673
 30
0.0
 10
1955.47744239641
 20
1479.607138213301
 30
0.0
 10
1955.485174561393
 20
1479.479697203995
 30
0.0
  0
LINE
  5
31F
330
1F
100
AcDbEntity
  8
0
  6
Continuous
 62
     7
370
    15
100
AcDbLine
 10
2136.7135827256
 20
1556.6712419225
 30
0.0
 11
1967.1283814971
 21
1493.0945938908
 31
0.0
  0
LINE
  5
320
330
1F
100
AcDbEntity
  8
0
  6
Continuous
 62
     7
370
    15
100
AcDbLine
 10
1955.4593899598
 20
1479.4559334935
 30
0.0
 11
1955.4593899598
 21
1475.3732294341
 31
0.0
  0
SPLINE
  5
321
330
1F
100
AcDbEntity
  8
0
  6
Continuous
 62
     7
370
    15
100
AcDbSpline
210
0.0
220
0.0
230
1.0
 70
     8
 71
     3
 72
    15
 73
    11
 74
     0
 42
0.00000001
 43
0.00000001
 12
1.0
 22
0.0
 32
0.0
 13
1.0
 23
0.0
 33
0.0
 40
0.0
 40
0.0
 40
0.0
 40
0.0
 40
0.0119896510673529
 40
0.1699374469243855
 40
0.3274790475238181
 40
0.4863297248756223
 40
0.647977665195814
 40
0.8129115993891328
 40
0.9744264263877908
 40
1.0
 40
1.0
 40
1.0
 40
1.0
 10
1955.471504901747
 20
1475.499853549104
 30
0.0
 10
1955.467209839194
 20
1475.456901711387
 30
0.0
 10
1955.406333007963
 20
1474.848116217862
 30
0.0
 10
1955.587314111903
 20
1473.666947192971
 30
0.0
 10
1956.030553844933
 20
1472.001820535521
 30
0.0
 10
1956.807973270013
 20
1470.394516718764
 30
0.0
 10
1957.867961532827
 20
1468.85877736049
 30
0.0
 10
1959.200644673552
 20
1467.427706904202
 30
0.0
 10
1960.332095441359
 20
1466.481279631461
 30
0.0
 10
1960.984937799385
 20
1466.009399697473
 30
0.0
 10
1961.074176426931
 20
1465.944897268736
 30
0.0
  0
SPLINE
  5
322
330
1F
100
AcDbEntity
  8
0
  6
Continuous
 62
     7
370
    15
100
AcDbSpline
210
0.0
220
0.0
230
1.0
 70
     8
 71
     3
 72
    13
 73
     9
 74
     0
 42
0.00000001
 43
0.00000001
 12
1.0
 22
0.0
 32
0.0
 13
1.0
 23
0.0
 33
0.0
 40
0.0
 40
0.0
 40
0.0
 40
0.0
 40
0.1924362444781676
 40
0.3852001190376142
 40
0.5725872467779993
 40
0.7593701779575218
 40
0.9505173034251369
 40
0.9999999999999999
 40
0.9999999999999999
 40
0.9999999999999999
 40
0.9999999999999999
 10
2210.254536984006
 20
1514.657472059928
 30
0.0
 10
2210.226532935218
 20
1515.096659218234
 30
0.0
 10
2210.170477159675
 20
1515.975781267817
 30
0.0
 10
2209.730925150178
 20
1517.217831846849
 30
0.0
 10
2209.072628566235
 20
1518.329695323447
 30
0.0
 10
2208.209987075688
 20
1519.283059212492
 30
0.0
 10
2207.440617541538
 20
1519.875949097168
 30
0.0
 10
2206.972016466304
 20
1520.154954380182
 30
0.0
 10
2206.875654159156
 20
1520.212328539565
 30
0.0
  0
LINE
  5
323
330
1F
100
AcDbEntity
  8
0
  6
Continuous
 62
     7
370
    15
100
AcDbLine
 10
2206.8756541592
 20
1520.2123285396
 30
0.0
 11
2144.7238033207
 21
1556.091828312
 31
0.0
  0
SPLINE
  5
324
330
1F
100
AcDbEntity
  8
0
  6
Continuous
 62
     7
370
    15
100
AcDbSpline
210
0.0
220
0.0
230
1.0
 70
     8
 71
     3
 72
    13
 73
     9
 74
     0
 42
0.00000001
 43
0.00000001
 12
1.0
 22
0.0
 32
0.0
 13
1.0
 23
0.0
 33
0.0
 40
0.0
 40
0.0
 40
0.0
 40
0.0
 40
0.1354618387959174
 40
0.316561868748315
 40
0.503559447806689
 40
0.6948696441260309
 40
0.8924327798227261
 40
1.0
 40
1.0
 40
1.0
 40
1.0
 10
2144.723803320744
 20
1556.091828311954
 30
0.0
 10
2144.3985136288
 20
1556.262125783844
 30
0.0
 10
2143.63834151183
 20
1556.660095325846
 30
0.0
 10
2142.3086425793
 20
1557.063157368453
 30
0.0
 10
2140.765051275957
 20
1557.289887693985
 30
0.0
 10
2139.149808836519
 20
1557.265557893671
 30
0.0
 10
2137.782599552623
 20
1557.03555748281
 30
0.0
 10
2136.992215737009
 20
1556.766198652003
 30
0.0
 10
2136.713582725636
 20
1556.671241922519
 30
0.0
  0
SPLINE
  5
325
330
1F
100
AcDbEntity
  8
0
  6
Continuous
 62
     7
370
    15
100
AcDbSpline
210
0.0
220
0.0
230
1.0
 70
     8
 71
     3
 72
    21
 73
    17
 74
     0
 42
0.00000001
 43
0.00000001
 12
1.0
 22
0.0
 32
0.0
 13
1.0
 23
0.0
 33
0.0
 40
0.0
 40
0.0
 40
0.0
 40
0.0
 40
0.0413376095721702
 40
0.1171943674556694
 40
0.1927226961691945
 40
0.2679650563654828
 40
0.342978374574553
 40
0.4178781973565196
 40
0.4928062366313367
 40
0.5678806718138014
 40
0.6432449280455692
 40
0.7190553814169043
 40
0.7954463902457771
 40
0.8724844154223419
 40
0.9500744363263135
 40
1.0
 40
1.0
 40
1.0
 40
1.0
 10
2111.8849101729
 20
1023.487599905754
 30
0.0
 10
2112.299346698258
 20
1023.302308567746
 30
0.0
 10
2113.474296748404
 20
1022.776997564578
 30
0.0
 10
2115.537380368326
 20
1022.059672402461
 30
0.0
 10
2118.087409995253
 20
1021.398929511338
 30
0.0
 10
2120.731230011495
 20
1020.938631440778
 30
0.0
 10
2123.432778519937
 20
1020.677161441789
 30
0.0
 10
2126.160308281093
 20
1020.616174067582
 30
0.0
 10
2128.881326362149
 20
1020.755591766605
 30
0.0
 10
2131.564033661249
 20
1021.095094902653
 30
0.0
 10
2134.177382879499
 20
1021.63388652281
 30
0.0
 10
2136.69092540255
 20
1022.371723035495
 30
0.0
 10
2139.076050139431
 20
1023.307746637908
 30
0.0
 10
2141.296241014671
 20
1024.446019849825
 30
0.0
 10
2143.091135080299
 20
1025.613532966951
 30
0.0
 10
2144.077428492089
 20
1026.446015410869
 30
0.0
 10
2144.463587209036
 20
1026.771953259163
 30
0.0
  0
SPLINE
  5
326
330
1F
100
AcDbEntity
  8
0
  6
Continuous
 62
     7
370
    15
100
AcDbSpline
210
0.0
220
0.0
230
1.0
 70
     8
 71
     3
 72
    20
 73
    16
 74
     0
 42
0.00000001
 43
0.00000001
 12
1.0
 22
0.0
 32
0.0
 13
1.0
 23
0.0
 33
0.0
 40
0.0
 40
0.0
 40
0.0
 40
0.0
 40
0.0442108701517361
 40
0.1281593069450404
 40
0.2121084068552094
 40
0.2960580105488134
 40
0.3800076932349
 40
0.4639570777491946
 40
0.5479058842637969
 40
0.631853867308114
 40
0.7158008131596537
 40
0.7997465373271851
 40
0.8836908821437758
 40
0.9676337144803199
 40
1.0
 40
1.0
 40
1.0
 40
1.0
 10
1961.663665969367
 20
1110.213620943866
 30
0.0
 10
1963.643394032237
 20
1108.807439372198
 30
0.0
 10
1969.382267200898
 20
1104.731173624762
 30
0.0
 10
1979.066757163214
 20
1098.074455272517
 30
0.0
 10
1990.792963658175
 20
1090.284780674914
 30
0.0
 10
2002.758702137297
 20
1082.619052296112
 30
0.0
 10
2014.955936748929
 20
1075.077657652504
 30
0.0
 10
2027.381925054224
 20
1067.663466333273
 30
0.0
 10
2040.032436031157
 20
1060.378641748839
 30
0.0
 10
2052.90349384525
 20
1053.225434930868
 30
0.0
 10
2065.991203270195
 20
1046.206189693346
 30
0.0
 10
2079.290699459772
 20
1039.322533751186
 30
0.0
 10
2092.800527372882
 20
1032.578608631226
 30
0.0
 10
2103.69923808356
 20
1027.322625914177
 30
0.0
 10
2110.102908617847
 20
1024.322476044951
 30
0.0
 10
2111.8849101729
 20
1023.487599905755
 30
0.0
  0
LINE
  5
327
330
1F
100
AcDbEntity
  8
0
  6
Continuous
 62
     7
370
    15
100
AcDbLine
 10
2144.463587209
 20
1026.7719532592
 30
0.0
 11
2208.0924852686
 21
1083.3345517999
 31
0.0
  0
SPLINE
  5
328
330
1F
100
AcDbEntity
  8
0
  6
Continuous
 62
     7
370
    15
100
AcDbSpline
210
0.0
220
0.0
230
1.0
 70
     8
 71
     3
 72
    11
 73
     7
 74
     0
 42
0.00000001
 43
0.00000001
 12
1.0
 22
0.0
 32
0.0
 13
1.0
 23
0.0
 33
0.0
 40
0.0
 40
0.0
 40
0.0
 40
0.0
 40
0.2569159156640715
 40
0.5052757958925452
 40
0.7510435261518643
 40
1.0
 40
1.0
 40
1.0
 40
1.0
 10
2208.092485268594
 20
1083.334551799883
 30
0.0
 10
2208.414568435809
 20
1083.654555613074
 30
0.0
 10
2209.048008478779
 20
1084.283906196438
 30
0.0
 10
2209.722393318717
 20
1085.439721944867
 30
0.0
 10
2210.170101887014
 20
1086.692028831151
 30
0.0
 10
2210.2262712718
 20
1087.571941993481
 30
0.0
 10
2210.254536984006
 20
1088.014734313662
 30
0.0
  0
SPLINE
  5
329
330
1F
100
AcDbEntity
  8
0
  6
Continuous
 62
     7
370
    15
100
AcDbSpline
210
0.0
220
0.0
230
1.0
 70
     8
 71
     3
 72
    14
 73
    10
 74
     0
 42
0.00000001
 43
0.00000001
 12
1.0
 22
0.0
 32
0.0
 13
1.0
 23
0.0
 33
0.0
 40
0.0
 40
0.0
 40
0.0
 40
0.0
 40
0.0095723618209181
 40
0.1851172817430569
 40
0.3598601940891635
 40
0.5321264902662056
 40
0.7001842551671892
 40
0.8632056370755709
 40
1.0
 40
1.0
 40
1.0
 40
1.0
 10
1961.459389959813
 20
1134.264694690745
 30
0.0
 10
1961.423205210973
 20
1134.2422115161
 30
0.0
 10
1960.723438270372
 20
1133.807415563637
 30
0.0
 10
1959.577325100828
 20
1132.811223868792
 30
0.0
 10
1958.07975939791
 20
1131.278532714585
 30
0.0
 10
1956.909744113722
 20
1129.606217344317
 30
0.0
 10
1956.07317847093
 20
1127.852441941164
 30
0.0
 10
1955.570091696999
 20
1126.134619800987
 30
0.0
 10
1955.509182426735
 20
1125.003951848363
 30
0.0
 10
1955.481391875487
 20
1124.488071662202
 30
0.0
  0
LINE
  5
32A
330
1F
100
AcDbEntity
  8
0
  6
Continuous
 62
     7
370
    15
100
AcDbLine
 10
1955.4593899598
 20
1124.2606803232
 30
0.0
 11
1955.4593899598
 21
1120.9945170757
 31
0.0
  0
SPLINE
  5
32B
330
1F
100
AcDbEntity
  8
0
  6
Continuous
 62
     7
370
    15
100
AcDbSpline
210
0.0
220
0.0
230
1.0
 70
     8
 71
     3
 72
    14
 73
    10
 74
     0
 42
0.00000001
 43
0.00000001
 12
1.0
 22
0.0
 32
0.0
 13
1.0
 23
0.0
 33
0.0
 40
0.0
 40
0.0
 40
0.0
 40
0.0
 40
0.1178108344773137
 40
0.2654855891597774
 40
0.4135581004100534
 40
0.5642107598608355
 40
0.7191879838675913
 40
0.8794388671698032
 40
1.0
 40
1.0
 40
1.0
 40
1.0
 10
1955.485793981565
 20
1121.005409406227
 30
0.0
 10
1955.493978693421
 20
1120.507806036992
 30
0.0
 10
1955.512422863338
 20
1119.386461601777
 30
0.0
 10
1955.913534246788
 20
1117.674509876195
 30
0.0
 10
1956.601861634554
 20
1115.909842382137
 30
0.0
 10
1957.579944644948
 20
1114.232313263949
 30
0.0
 10
1958.834390374521
 20
1112.6525069899
 30
0.0
 10
1960.209964155891
 20
1111.307428327818
 30
0.0
 10
1961.227015092539
 20
1110.542169721103
 30
0.0
 10
1961.663665969368
 20
1110.213620943866
 30
0.0
  0
ARC
  5
32C
330
1F
100
AcDbEntity
  8
0
  6
Continuous
 62
     7
370
    15
100
AcDbCircle
 10
2207.9287708208
 20
1437.6824520308
 30
0.0
 40
2.000760361646009
100
AcDbArc
 50
3.8162057357
 51
58.3577271663
  0
LINE
  5
32D
330
1F
100
AcDbEntity
  8
0
  6
Continuous
 62
     7
370
    15
100
AcDbLine
 10
2209.925094863
 20
1094.0519330723
 30
0.0
 11
2209.925094863
 21
1437.8156148762
 31
0.0
  0
LWPOLYLINE
  5
32E
330
1F
100
AcDbEntity
  8
0
  6
Continuous
 62
     7
370
    15
100
AcDbPolyline
 90
        3
 70
   128
 43
0.0
 10
2209.7870581558
 20
1093.4671542521
 10
2209.8882479583
 20
1093.7396354883
 10
2209.925094863
 20
1094.0519330723
  0
ARC
  5
32F
330
1F
100
AcDbEntity
  8
0
  6
Continuous
 62
     7
370
    15
100
AcDbCircle
 10
2207.3928760344
 20
1439.1488196633
 30
0.0
 40
2.861741986982631
100
AcDbArc
 50
332.2333442928
 51
359.5688125476
  0
LINE
  5
330
330
1F
100
AcDbEntity
  8
0
  6
Continuous
 62
     7
370
    15
100
AcDbLine
 10
2210.254536984
 20
1442.3934466721
 30
0.0
 11
2210.254536984
 21
1439.1272834245
 31
0.0
  0
LINE
  5
331
330
1F
100
AcDbEntity
  8
0
  6
Continuous
 62
     7
370
    15
100
AcDbLine
 10
2210.254536984
 20
1439.1272834245
 30
0.0
 11
2210.254536984
 21
1095.3636016206
 31
0.0
  0
ARC
  5
332
330
1F
100
AcDbEntity
  8
0
  6
Continuous
 62
     7
370
    15
100
AcDbCircle
 10
2207.3928760344
 20
1095.3851378594
 30
0.0
 40
2.861741986979815
100
AcDbArc
 50
332.2333442928
 51
359.5688125476
  0
SPLINE
  5
333
330
1F
100
AcDbEntity
  8
0
  6
Continuous
 62
     7
370
    15
100
AcDbSpline
210
0.0
220
0.0
230
1.0
 70
     8
 71
     3
 72
    11
 73
     7
 74
     0
 42
0.00000001
 43
0.00000001
 12
1.0
 22
0.0
 32
0.0
 13
1.0
 23
0.0
 33
0.0
 40
0.0
 40
0.0
 40
0.0
 40
0.0
 40
0.3259003901847088
 40
0.849299084830473
 40
0.9963816109443763
 40
1.0
 40
1.0
 40
1.0
 40
1.0
 10
2147.050130941877
 20
1384.284101392466
 30
0.0
 10
2147.427680974281
 20
1384.248992849423
 30
0.0
 10
2148.411579449568
 20
1384.157499698832
 30
0.0
 10
2149.23954259466
 20
1384.032242526799
 30
0.0
 10
2149.677160181121
 20
1383.997207295293
 30
0.0
 10
2149.767640780255
 20
1383.991809631455
 30
0.0
 10
2149.769813255513
 20
1383.991680031394
 30
0.0
  0
LINE
  5
334
330
1F
100
AcDbEntity
  8
0
  6
Continuous
 62
     7
370
    15
100
AcDbLine
 10
2149.7698132555
 20
1383.9916800314
 30
0.0
 11
2149.7698132555
 21
1040.2279982275
 31
0.0
  0
SPLINE
  5
335
330
1F
100
AcDbEntity
  8
0
  6
Continuous
 62
     7
370
    15
100
AcDbSpline
210
0.0
220
0.0
230
1.0
 70
     8
 71
     3
 72
    12
 73
     8
 74
     0
 42
0.00000001
 43
0.00000001
 12
1.0
 22
0.0
 32
0.0
 13
1.0
 23
0.0
 33
0.0
 40
0.0
 40
0.0
 40
0.0
 40
0.0
 40
0.0027767895334008
 40
0.1156494554581929
 40
0.5173110774542954
 40
0.8007006895651355
 40
1.0
 40
1.0
 40
1.0
 40
1.0
 10
2149.769813255513
 20
1040.227998227494
 30
0.0
 10
2149.767640703089
 20
1040.224012830566
 30
0.0
 10
2149.677156890125
 20
1040.058026543558
 30
0.0
 10
2149.241321109367
 20
1039.326939173171
 30
0.0
 10
2148.354799885361
 20
1038.30614935234
 30
0.0
 10
2147.065939295242
 20
1037.465145036385
 30
0.0
 10
2146.250574944213
 20
1037.33914941734
 30
0.0
 10
2145.913915979562
 20
1037.287126595144
 30
0.0
  0
ARC
  5
336
330
1F
100
AcDbEntity
  8
0
  6
Continuous
 62
     7
370
    15
100
AcDbCircle
 10
2145.5591796913
 20
1045.4698497258
 30
0.0
 40
8.190408760693979
100
AcDbArc
 50
253.8882872723
 51
272.4823244552
  0
LINE
  5
337
330
1F
100
AcDbEntity
  8
0
  6
Continuous
 62
     7
370
    15
100
AcDbLine
 10
2208.9639015276
 20
1436.611976045
 30
0.0
 11
2149.7698132555
 21
1383.9916800314
 31
0.0
  0
LINE
  5
338
330
1F
100
AcDbEntity
  8
0
  6
Continuous
 62
     7
370
    15
100
AcDbLine
 10
2208.9639015276
 20
1436.611976045
 30
0.0
 11
2208.9639015276
 21
1092.8482942411
 31
0.0
  0
LINE
  5
339
330
1F
100
AcDbEntity
  8
0
  6
Continuous
 62
     7
370
    15
100
AcDbLine
 10
2149.7698132555
 20
1040.2279982275
 30
0.0
 11
2208.9639015276
 21
1092.8482942411
 31
0.0
  0
LWPOLYLINE
  5
33A
330
1F
100
AcDbEntity
  8
0
  6
Continuous
 62
     7
370
    15
100
AcDbPolyline
 90
       27
 70
   128
 43
0.0
 10
2176.1595440585
 20
1088.1832450491
 10
2176.2548970371
 20
1089.4453599304
 10
2176.5354144044
 20
1090.8036524127
 10
2176.9847935107
 20
1092.1791834743
 10
2177.5769180757
 20
1093.4920122496
 10
2178.2773759719
 20
1094.6658419022
 10
2179.0454591326
 20
1095.6324537193
 10
2179.8365293563
 20
1096.3356717357
 10
2180.604612517
 20
1096.7346274764
 10
2181.3050704133
 20
1096.8061350837
 10
2181.8971949782
 20
1096.5460387956
 10
2182.3465740845
 20
1095.9694544628
 10
2182.6270914518
 20
1095.109891071
 10
2182.7224444304
 20
1094.0173033202
 10
2182.6270914518
 20
1092.7551884389
 10
2182.3465740845
 20
1091.3968959566
 10
2181.8971949782
 20
1090.021364895
 10
2181.3050704133
 20
1088.7085361197
 10
2180.604612517
 20
1087.5347064671
 10
2179.8365293563
 20
1086.56809465
 10
2179.0454591326
 20
1085.8648766336
 10
2178.2773759719
 20
1085.4659208929
 10
2177.5769180757
 20
1085.3944132856
 10
2176.9847935107
 20
1085.6545095737
 10
2176.5354144044
 20
1086.2310939065
 10
2176.2548970371
 20
1087.0906572983
 10
2176.1595440585
 20
1088.1832450491
  0
LWPOLYLINE
  5
33B
330
1F
100
AcDbEntity
  8
0
  6
Continuous
 62
     7
370
    15
100
AcDbPolyline
 90
       27
 70
   128
 43
0.0
 10
2176.1595440585
 20
1392.7529678825
 10
2176.2548970371
 20
1394.0150827638
 10
2176.5354144044
 20
1395.3733752461
 10
2176.9847935107
 20
1396.7489063077
 10
2177.5769180757
 20
1398.061735083
 10
2178.2773759719
 20
1399.2355647356
 10
2179.0454591326
 20
1400.2021765527
 10
2179.8365293563
 20
1400.9053945691
 10
2180.604612517
 20
1401.3043503097
 10
2181.3050704133
 20
1401.3758579171
 10
2181.8971949782
 20
1401.115761629
 10
2182.3465740845
 20
1400.5391772962
 10
2182.6270914518
 20
1399.6796139044
 10
2182.7224444304
 20
1398.5870261535
 10
2182.6270914518
 20
1397.3249112723
 10
2182.3465740845
 20
1395.96661879
 10
2181.8971949782
 20
1394.5910877284
 10
2181.3050704133
 20
1393.2782589531
 10
2180.604612517
 20
1392.1044293005
 10
2179.8365293563
 20
1391.1378174833
 10
2179.0454591326
 20
1390.4345994669
 10
2178.2773759719
 20
1390.0356437263
 10
2177.5769180757
 20
1389.964136119
 10
2176.9847935107
 20
1390.2242324071
 10
2176.5354144044
 20
1390.8008167399
 10
2176.2548970371
 20
1391.6603801317
 10
2176.1595440585
 20
1392.7529678825
  0
ARC
  5
33C
330
1F
100
AcDbEntity
  8
0
  6
Continuous
 62
     7
370
    15
100
AcDbCircle
 10
2206.2216824677
 20
1439.787448718
 30
0.0
 40
4.195639649612083
100
AcDbArc
 50
310.8126591115
 51
331.9675104016
  0
ARC
  5
33D
330
1F
100
AcDbEntity
  8
0
  6
Continuous
 62
     7
370
    15
100
AcDbCircle
 10
2207.9289390844
 20
1437.6825056236
 30
0.0
 40
2.000588904683192
100
AcDbArc
 50
3.8149950034
 51
58.3332821099
  0
ARC
  5
33E
330
1F
100
AcDbEntity
  8
0
  6
Continuous
 62
     7
370
    15
100
AcDbCircle
 10
2206.2216824677
 20
1096.0237669141
 30
0.0
 40
4.195639649605422
100
AcDbArc
 50
310.8126591115
 51
331.9675104016
  0
LWPOLYLINE
  5
33F
330
1F
100
AcDbEntity
  8
0
  6
Continuous
 62
     7
370
    15
100
AcDbPolyline
 90
        3
 70
   128
 43
0.0
 10
2209.925094863
 20
1094.0519330723
 10
2209.8882479583
 20
1093.7396354883
 10
2209.7866168647
 20
1093.4662943819
  0
LINE
  5
340
330
1F
100
AcDbEntity
  8
0
  6
Continuous
 62
     7
370
    15
100
AcDbLine
 10
2212.2545369839
 20
1119.6071299377
 30
0.0
 11
2212.2545369839
 21
1112.3164813693
 31
0.0
  0
LINE
  5
341
330
1F
100
AcDbEntity
  8
0
  6
Continuous
 62
     7
370
    15
100
AcDbLine
 10
2212.2545369839
 20
1128.1616930106
 30
0.0
 11
2212.2545369839
 21
1119.6071299377
 31
0.0
  0
LINE
  5
342
330
1F
100
AcDbEntity
  8
0
  6
Continuous
 62
     7
370
    15
100
AcDbLine
 10
2212.254536984
 20
1433.9753425137
 30
0.0
 11
2212.254536984
 21
1426.6846939453
 31
0.0
  0
LINE
  5
343
330
1F
100
AcDbEntity
  8
0
  6
Continuous
 62
     7
370
    15
100
AcDbLine
 10
2212.254536984
 20
1442.5299055866
 30
0.0
 11
2212.254536984
 21
1433.9753425137
 31
0.0
  0
LINE
  5
344
330
1F
100
AcDbEntity
  8
0
  6
Continuous
 62
     7
370
    15
100
AcDbLine
 10
2212.254536984
 20
1482.3461218429
 30
0.0
 11
2212.254536984
 21
1475.0554732745
 31
0.0
  0
LINE
  5
345
330
1F
100
AcDbEntity
  8
0
  6
Continuous
 62
     7
370
    15
100
AcDbLine
 10
2212.254536984
 20
1490.9006849158
 30
0.0
 11
2212.254536984
 21
1482.3461218429
 31
0.0
  0
LINE
  5
346
330
1F
100
AcDbEntity
  8
0
  6
Continuous
 62
     7
370
    15
100
AcDbLine
 10
2212.254536984
 20
1167.9779092669
 30
0.0
 11
2212.254536984
 21
1160.6872606985
 31
0.0
  0
LINE
  5
347
330
1F
100
AcDbEntity
  8
0
  6
Continuous
 62
     7
370
    15
100
AcDbLine
 10
2212.254536984
 20
1176.5324723398
 30
0.0
 11
2212.254536984
 21
1167.9779092669
 31
0.0
  0
LWPOLYLINE
  5
348
330
1F
100
AcDbEntity
  8
0
  6
Continuous
 62
     7
370
    15
100
AcDbPolyline
 90
       26
 70
   128
 43
0.0
 10
2176.7093303574
 20
1390.5527771346
 10
2177.2411835809
 20
1390.0915581274
 10
2177.9112589988
 20
1389.9808529516
 10
2178.6774533082
 20
1390.2276176208
 10
2179.4916237026
 20
1390.8163470032
 10
2180.302612862
 20
1391.7100490665
 10
2181.0594633549
 20
1392.8525692232
 10
2181.7146194812
 20
1394.1721187301
 10
2182.2269153721
 20
1395.5857854386
 10
2182.5641615927
 20
1397.0047434704
 10
2182.7051677225
 20
1398.3398344737
 10
2182.641073828
 20
1399.5071697707
 10
2182.3759071641
 20
1400.4334013915
 10
2181.9263291276
 20
1401.0603307969
 10
2181.32058836
 20
1401.3485657068
 10
2180.5967457815
 20
1401.2799952616
 10
2179.8002830833
 20
1400.8589279947
 10
2178.981244946
 20
1400.1118211109
 10
2178.191094548
 20
1399.0856180835
 10
2177.4794799447
 20
1397.8447990228
 10
2176.8911144988
 20
1396.4673291537
 10
2176.4629673752
 20
1395.0397599742
 10
2176.2219406321
 20
1393.651790906
 10
2176.1831788663
 20
1392.3906331503
 10
2176.3491176222
 20
1391.335529887
 10
2176.7093303574
 20
1390.5527771346
  0
LINE
  5
349
330
1F
100
AcDbEntity
  8
0
  6
Continuous
 62
     7
370
    15
100
AcDbLine
 10
2178.1206900324
 20
1393.1966740744
 30
0.0
 11
2179.5315763807
 21
1393.3864486122
 31
0.0
  0
LINE
  5
34A
330
1F
100
AcDbEntity
  8
0
  6
Continuous
 62
     7
370
    15
100
AcDbLine
 10
2179.5315763807
 20
1393.3864486122
 30
0.0
 11
2180.8518805928
 21
1395.8597715559
 31
0.0
  0
LINE
  5
34B
330
1F
100
AcDbEntity
  8
0
  6
Continuous
 62
     7
370
    15
100
AcDbLine
 10
2180.7612984565
 20
1398.1433199617
 30
0.0
 11
2180.8518805928
 21
1395.8597715559
 31
0.0
  0
LINE
  5
34C
330
1F
100
AcDbEntity
  8
0
  6
Continuous
 62
     7
370
    15
100
AcDbLine
 10
2179.3504121082
 20
1397.9535454238
 30
0.0
 11
2180.7612984565
 21
1398.1433199617
 31
0.0
  0
LINE
  5
34D
330
1F
100
AcDbEntity
  8
0
  6
Continuous
 62
     7
370
    15
100
AcDbLine
 10
2178.0301078961
 20
1395.4802224802
 30
0.0
 11
2179.3504121082
 21
1397.9535454238
 31
0.0
  0
LINE
  5
34E
330
1F
100
AcDbEntity
  8
0
  6
Continuous
 62
     7
370
    15
100
AcDbLine
 10
2178.0301078961
 20
1395.4802224802
 30
0.0
 11
2178.1206900324
 21
1393.1966740744
 31
0.0
  0
ARC
  5
34F
330
1F
100
AcDbEntity
  8
0
  6
Continuous
 62
     7
370
    15
100
AcDbCircle
 10
2174.3773210095
 20
1397.5667431894
 30
0.0
 40
4.643972527179948
100
AcDbArc
 50
322.4586129647
 51
357.0190283415
  0
LINE
  5
350
330
1F
100
AcDbEntity
  8
0
  6
Continuous
 62
     7
370
    15
100
AcDbLine
 10
2179.1326133297
 20
1397.5455434565
 30
0.0
 11
2179.1745394569
 21
1396.4885984007
 31
0.0
  0
LINE
  5
351
330
1F
100
AcDbEntity
  8
0
  6
Continuous
 62
     7
370
    15
100
AcDbLine
 10
2178.0720340234
 20
1394.4232774245
 30
0.0
 11
2179.1745394569
 21
1396.4885984007
 31
0.0
  0
LINE
  5
352
330
1F
100
AcDbEntity
  8
0
  6
Continuous
 62
     7
370
    15
100
AcDbLine
 10
2178.0917504521
 20
1393.9262321879
 30
0.0
 11
2179.5315763807
 21
1393.3864486122
 31
0.0
  0
LINE
  5
353
330
1F
100
AcDbEntity
  8
0
  6
Continuous
 62
     7
370
    15
100
AcDbLine
 10
2179.1745394569
 20
1396.4885984007
 30
0.0
 11
2180.8518805928
 21
1395.8597715559
 31
0.0
  0
LWPOLYLINE
  5
354
330
1F
100
AcDbEntity
  8
0
  6
Continuous
 62
     7
370
    15
100
AcDbPolyline
 90
       26
 70
   128
 43
0.0
 10
2176.3350689693
 20
1086.8162683937
 10
2176.6852810733
 20
1086.0174099875
 10
2177.2086447707
 20
1085.5379266323
 10
2177.8722751956
 20
1085.4079460307
 10
2178.6344740076
 20
1085.6356353419
 10
2179.4473494523
 20
1086.2066880092
 10
2180.2598255759
 20
1087.0852226932
 10
2181.0208515155
 20
1088.2160378287
 10
2181.6826092124
 20
1089.528080142
 10
2182.2035179969
 20
1090.9389091891
 10
2182.5508472541
 20
1092.3598773923
 10
2182.7027730095
 20
1093.7017000935
 10
2182.6497492091
 20
1094.8800656374
 10
2182.3951075332
 20
1095.8209329833
 10
2181.954848055
 20
1096.4651839755
 10
2181.3566338966
 20
1096.7723379548
 10
2180.6380530536
 20
1096.723095307
 10
2179.8442566031
 20
1096.3205501288
 10
2179.0251216956
 20
1095.5899958142
 10
2178.2321175897
 20
1094.5773357775
 10
2177.51507165
 20
1093.3461991733
 10
2176.91903851
 20
1091.9739428421
 10
2176.4814691239
 20
1090.546790696
 10
2176.2298575855
 20
1089.154415953
 10
2176.1800135731
 20
1087.8843066392
 10
2176.3350689693
 20
1086.8162683937
  0
LINE
  5
355
330
1F
100
AcDbEntity
  8
0
  6
Continuous
 62
     7
370
    15
100
AcDbLine
 10
2177.9397970281
 20
1089.0296713857
 30
0.0
 11
2179.1156126399
 21
1088.4938521415
 31
0.0
  0
LINE
  5
356
330
1F
100
AcDbEntity
  8
0
  6
Continuous
 62
     7
370
    15
100
AcDbLine
 10
2179.1156126399
 20
1088.4938521415
 30
0.0
 11
2180.6168098562
 21
1090.5644549405
 31
0.0
  0
LINE
  5
357
330
1F
100
AcDbEntity
  8
0
  6
Continuous
 62
     7
370
    15
100
AcDbLine
 10
2180.9421914608
 20
1093.1708769836
 30
0.0
 11
2180.6168098562
 21
1090.5644549405
 31
0.0
  0
LINE
  5
358
330
1F
100
AcDbEntity
  8
0
  6
Continuous
 62
     7
370
    15
100
AcDbLine
 10
2179.766375849
 20
1093.7066962278
 30
0.0
 11
2180.9421914608
 21
1093.1708769836
 31
0.0
  0
LINE
  5
359
330
1F
100
AcDbEntity
  8
0
  6
Continuous
 62
     7
370
    15
100
AcDbLine
 10
2178.2651786327
 20
1091.6360934288
 30
0.0
 11
2179.766375849
 21
1093.7066962278
 31
0.0
  0
LINE
  5
35A
330
1F
100
AcDbEntity
  8
0
  6
Continuous
 62
     7
370
    15
100
AcDbLine
 10
2178.2651786327
 20
1091.6360934288
 30
0.0
 11
2177.9397970281
 21
1089.0296713857
 31
0.0
  0
ARC
  5
35B
330
1F
100
AcDbEntity
  8
0
  6
Continuous
 62
     7
370
    15
100
AcDbCircle
 10
2174.3510176248
 20
1093.0085975196
 30
0.0
 40
4.672637112941007
100
AcDbArc
 50
323.0663641631
 51
355.780433156
  0
LINE
  5
35C
330
1F
100
AcDbEntity
  8
0
  6
Continuous
 62
     7
370
    15
100
AcDbLine
 10
2179.1465037857
 20
1092.8517060804
 30
0.0
 11
2178.9394687203
 21
1091.1932817854
 31
0.0
  0
LINE
  5
35D
330
1F
100
AcDbEntity
  8
0
  6
Continuous
 62
     7
370
    15
100
AcDbLine
 10
2178.0581435673
 20
1089.9776691338
 30
0.0
 11
2178.9394687203
 21
1091.1932817854
 31
0.0
  0
LINE
  5
35E
330
1F
100
AcDbEntity
  8
0
  6
Continuous
 62
     7
370
    15
100
AcDbLine
 10
2179.7122132457
 20
1093.6319896957
 30
0.0
 11
2180.9421914608
 21
1093.1708769836
 31
0.0
  0
LINE
  5
35F
330
1F
100
AcDbEntity
  8
0
  6
Continuous
 62
     7
370
    15
100
AcDbLine
 10
2178.9394687203
 20
1091.1932817854
 30
0.0
 11
2180.6168098562
 21
1090.5644549405
 31
0.0
  0
LWPOLYLINE
  5
360
330
1F
100
AcDbEntity
  8
0
  6
Continuous
 62
     7
370
    15
100
AcDbPolyline
 90
       26
 70
   128
 43
0.0
 10
2148.3608953831
 20
1429.4113081809
 10
2149.5492875757
 20
1428.8791577435
 10
2150.929589434
 20
1428.5343380479
 10
2152.4150715157
 20
1428.3985153836
 10
2153.9123955186
 20
1428.4802239882
 10
2155.3274790686
 20
1428.7743298095
 10
2156.5714072621
 20
1429.2623530972
 10
2157.5660195159
 20
1429.9136295531
 10
2158.2488206839
 20
1430.6872370825
 10
2158.5769078578
 20
1431.534567079
 10
2158.5296661138
 20
1432.4023786828
 10
2158.1100638243
 20
1433.2361440992
 10
2157.3444661445
 20
1433.9834747807
 10
2156.2809783921
 20
1434.5974131921
 10
2154.986423414
 20
1435.039383325
 10
2153.5421428604
 20
1435.2816145707
 10
2152.0388861903
 20
1435.308886649
 10
2150.5711085487
 20
1435.1194859551
 10
2149.2310358031
 20
1434.7253132309
 10
2148.1028696524
 20
1434.1511357986
 10
2147.2574969251
 20
1433.4330313378
 10
2146.7480354986
 20
1432.6161209927
 10
2146.606496708
 20
1431.7517342449
 10
2146.8417739561
 20
1430.8941836925
 10
2147.4390839082
 20
1430.0973523908
 10
2148.3608953831
 20
1429.4113081809
  0
LINE
  5
361
330
1F
100
AcDbEntity
  8
0
  6
Continuous
 62
     7
370
    15
100
AcDbLine
 10
2150.5529264048
 20
1430.6767407542
 30
0.0
 11
2153.354111301
 21
1430.2434428965
 31
0.0
  0
LINE
  5
362
330
1F
100
AcDbEntity
  8
0
  6
Continuous
 62
     7
370
    15
100
AcDbLine
 10
2153.354111301
 20
1430.2434428965
 30
0.0
 11
2155.4047209664
 21
1431.4272346586
 31
0.0
  0
LINE
  5
363
330
1F
100
AcDbEntity
  8
0
  6
Continuous
 62
     7
370
    15
100
AcDbLine
 10
2154.6541457356
 20
1433.0443242785
 30
0.0
 11
2155.4047209664
 21
1431.4272346586
 31
0.0
  0
LINE
  5
364
330
1F
100
AcDbEntity
  8
0
  6
Continuous
 62
     7
370
    15
100
AcDbLine
 10
2151.8529608394
 20
1433.4776221362
 30
0.0
 11
2154.6541457356
 21
1433.0443242785
 31
0.0
  0
LINE
  5
365
330
1F
100
AcDbEntity
  8
0
  6
Continuous
 62
     7
370
    15
100
AcDbLine
 10
2149.802351174
 20
1432.2938303741
 30
0.0
 11
2151.8529608394
 21
1433.4776221362
 31
0.0
  0
LINE
  5
366
330
1F
100
AcDbEntity
  8
0
  6
Continuous
 62
     7
370
    15
100
AcDbLine
 10
2149.802351174
 20
1432.2938303741
 30
0.0
 11
2150.5529264048
 21
1430.6767407542
 31
0.0
  0
LINE
  5
367
330
1F
100
AcDbEntity
  8
0
  6
Continuous
 62
     7
370
    15
100
AcDbLine
 10
2154.2298816669
 20
1431.1663202212
 30
0.0
 11
2154.5506471844
 21
1430.934188359
 31
0.0
  0
ARC
  5
368
330
1F
100
AcDbEntity
  8
0
  6
Continuous
 62
     7
370
    15
100
AcDbCircle
 10
2152.641330601
 20
1428.3824233776
 30
0.0
 40
3.205241976019374
100
AcDbArc
 50
60.2899950892
 51
131.7348277402
  0
LINE
  5
369
330
1F
100
AcDbEntity
  8
0
  6
Continuous
 62
     7
370
    15
100
AcDbLine
 10
2150.4001653091
 20
1431.0058595046
 30
0.0
 11
2151.8529608394
 21
1431.8445405124
 31
0.0
  0
LINE
  5
36A
330
1F
100
AcDbEntity
  8
0
  6
Continuous
 62
     7
370
    15
100
AcDbLine
 10
2151.8529608394
 20
1431.8445405124
 30
0.0
 11
2154.6541457356
 21
1431.4112426547
 31
0.0
  0
LINE
  5
36B
330
1F
100
AcDbEntity
  8
0
  6
Continuous
 62
     7
370
    15
100
AcDbLine
 10
2154.6541457356
 20
1431.4112426547
 30
0.0
 11
2154.8069068313
 21
1431.0821239043
 31
0.0
  0
LINE
  5
36C
330
1F
100
AcDbEntity
  8
0
  6
Continuous
 62
     7
370
    15
100
AcDbLine
 10
2154.6541457356
 20
1431.4112426547
 30
0.0
 11
2154.6541457356
 21
1433.0443242785
 31
0.0
  0
LINE
  5
36D
330
1F
100
AcDbEntity
  8
0
  6
Continuous
 62
     7
370
    15
100
AcDbLine
 10
2151.8529608394
 20
1431.8445405124
 30
0.0
 11
2151.8529608394
 21
1433.4776221362
 31
0.0
  0
LWPOLYLINE
  5
36E
330
1F
100
AcDbEntity
  8
0
  6
Continuous
 62
     7
370
    15
100
AcDbPolyline
 90
       26
 70
   128
 43
0.0
 10
2098.4046159564
 20
1469.6431003752
 10
2099.165676281
 20
1468.894226792
 10
2100.2254338944
 20
1468.2781425437
 10
2101.5173003283
 20
1467.8335584695
 10
2102.9601028634
 20
1467.5884094219
 10
2104.4631849102
 20
1467.5580990172
 10
2105.9321022958
 20
1467.7445317694
 10
2107.2745575385
 20
1468.1359934232
 10
2108.4061992382
 20
1468.7078870031
 10
2109.2559221851
 20
1469.4242783323
 10
2109.7703351613
 20
1470.2401539088
 10
2109.9171157077
 20
1471.1042492696
 10
2109.6870410626
 20
1471.9622701252
 10
2109.0945676623
 20
1472.7603038697
 10
2108.1769227894
 20
1473.448207108
 10
2106.9917654462
 20
1473.9827563496
 10
2105.6135634271
 20
1474.3303638999
 10
2104.1289142338
 20
1474.4691882979
 10
2102.6311038353
 20
1474.3905066962
 10
2101.2142451673
 20
1474.0992629493
 10
2099.967364671
 20
1473.6137569728
 10
2098.9688084335
 20
1472.9644948928
 10
2098.2813194157
 20
1472.1922722336
 10
2097.948095081
 20
1471.345610585
 10
2097.9900731398
 20
1470.4777088121
 10
2098.4046159564
 20
1469.6431003752
  0
LINE
  5
36F
330
1F
100
AcDbEntity
  8
0
  6
Continuous
 62
     7
370
    15
100
AcDbLine
 10
2101.2539485473
 20
1470.3480780658
 30
0.0
 11
2103.5760509747
 21
1469.3452177609
 31
0.0
  0
LINE
  5
370
330
1F
100
AcDbEntity
  8
0
  6
Continuous
 62
     7
370
    15
100
AcDbLine
 10
2103.5760509747
 20
1469.3452177609
 30
0.0
 11
2106.2415556564
 21
1470.0047130198
 31
0.0
  0
LINE
  5
371
330
1F
100
AcDbEntity
  8
0
  6
Continuous
 62
     7
370
    15
100
AcDbLine
 10
2106.5849579107
 20
1471.6670685836
 30
0.0
 11
2106.2415556564
 21
1470.0047130198
 31
0.0
  0
LINE
  5
372
330
1F
100
AcDbEntity
  8
0
  6
Continuous
 62
     7
370
    15
100
AcDbLine
 10
2104.2628554834
 20
1472.6699288886
 30
0.0
 11
2106.5849579107
 21
1471.6670685836
 31
0.0
  0
LINE
  5
373
330
1F
100
AcDbEntity
  8
0
  6
Continuous
 62
     7
370
    15
100
AcDbLine
 10
2101.5973508016
 20
1472.0104336296
 30
0.0
 11
2104.2628554834
 21
1472.6699288886
 31
0.0
  0
LINE
  5
374
330
1F
100
AcDbEntity
  8
0
  6
Continuous
 62
     7
370
    15
100
AcDbLine
 10
2101.5973508016
 20
1472.0104336296
 30
0.0
 11
2101.2539485473
 21
1470.3480780658
 31
0.0
  0
ARC
  5
375
330
1F
100
AcDbEntity
  8
0
  6
Continuous
 62
     7
370
    15
100
AcDbCircle
 10
2103.907725707
 20
1467.6838382094
 30
0.0
 40
3.078016624567888
100
AcDbArc
 50
47.2528451006
 51
129.7183940475
  0
LINE
  5
376
330
1F
100
AcDbEntity
  8
0
  6
Continuous
 62
     7
370
    15
100
AcDbLine
 10
2101.5973508016
 20
1470.3773520059
 30
0.0
 11
2104.2628554834
 21
1471.0368472648
 31
0.0
  0
LINE
  5
377
330
1F
100
AcDbEntity
  8
0
  6
Continuous
 62
     7
370
    15
100
AcDbLine
 10
2104.2628554834
 20
1471.0368472648
 30
0.0
 11
2106.2752349049
 21
1470.1677488923
 31
0.0
  0
LINE
  5
378
330
1F
100
AcDbEntity
  8
0
  6
Continuous
 62
     7
370
    15
100
AcDbLine
 10
2101.5973508016
 20
1470.3773520059
 30
0.0
 11
2101.5636715531
 21
1470.2143161333
 31
0.0
  0
LINE
  5
379
330
1F
100
AcDbEntity
  8
0
  6
Continuous
 62
     7
370
    15
100
AcDbLine
 10
2101.5973508016
 20
1470.3773520059
 30
0.0
 11
2101.5973508016
 21
1472.0104336296
 31
0.0
  0
LINE
  5
37A
330
1F
100
AcDbEntity
  8
0
  6
Continuous
 62
     7
370
    15
100
AcDbLine
 10
2104.2628554834
 20
1471.0368472648
 30
0.0
 11
2104.2628554834
 21
1472.6699288886
 31
0.0
  0
LWPOLYLINE
  5
37B
330
1F
100
AcDbEntity
  8
0
  6
Continuous
 62
     7
370
    15
100
AcDbPolyline
 90
       26
 70
   128
 43
0.0
 10
2157.8015855761
 20
1503.9322410718
 10
2158.5626459007
 20
1503.1833674885
 10
2159.6224035141
 20
1502.5672832402
 10
2160.9142699479
 20
1502.1226991661
 10
2162.357072483
 20
1501.8775501185
 10
2163.8601545298
 20
1501.8472397137
 10
2165.3290719154
 20
1502.033672466
 10
2166.6715271581
 20
1502.4251341198
 10
2167.8031688579
 20
1502.9970276997
 10
2168.6528918048
 20
1503.7134190289
 10
2169.167304781
 20
1504.5292946054
 10
2169.3140853273
 20
1505.3933899661
 10
2169.0840106823
 20
1506.2514108218
 10
2168.491537282
 20
1507.0494445663
 10
2167.5738924091
 20
1507.7373478045
 10
2166.3887350658
 20
1508.2718970462
 10
2165.0105330468
 20
1508.6195045964
 10
2163.5258838535
 20
1508.7583289944
 10
2162.0280734549
 20
1508.6796473928
 10
2160.611214787
 20
1508.3884036458
 10
2159.3643342906
 20
1507.9028976693
 10
2158.3657780531
 20
1507.2536355893
 10
2157.6782890353
 20
1506.4814129302
 10
2157.3450647006
 20
1505.6347512815
 10
2157.3870427595
 20
1504.7668495086
 10
2157.8015855761
 20
1503.9322410718
  0
LINE
  5
37C
330
1F
100
AcDbEntity
  8
0
  6
Continuous
 62
     7
370
    15
100
AcDbLine
 10
2160.6509181669
 20
1504.6372187623
 30
0.0
 11
2162.9730205943
 21
1503.6343584574
 31
0.0
  0
LINE
  5
37D
330
1F
100
AcDbEntity
  8
0
  6
Continuous
 62
     7
370
    15
100
AcDbLine
 10
2162.9730205943
 20
1503.6343584574
 30
0.0
 11
2165.6385252761
 21
1504.2938537163
 31
0.0
  0
LINE
  5
37E
330
1F
100
AcDbEntity
  8
0
  6
Continuous
 62
     7
370
    15
100
AcDbLine
 10
2165.9819275304
 20
1505.9562092802
 30
0.0
 11
2165.6385252761
 21
1504.2938537163
 31
0.0
  0
LINE
  5
37F
330
1F
100
AcDbEntity
  8
0
  6
Continuous
 62
     7
370
    15
100
AcDbLine
 10
2163.659825103
 20
1506.9590695851
 30
0.0
 11
2165.9819275304
 21
1505.9562092802
 31
0.0
  0
LINE
  5
380
330
1F
100
AcDbEntity
  8
0
  6
Continuous
 62
     7
370
    15
100
AcDbLine
 10
2160.9943204213
 20
1506.2995743262
 30
0.0
 11
2163.659825103
 21
1506.9590695851
 31
0.0
  0
LINE
  5
381
330
1F
100
AcDbEntity
  8
0
  6
Continuous
 62
     7
370
    15
100
AcDbLine
 10
2160.9943204213
 20
1506.2995743262
 30
0.0
 11
2160.6509181669
 21
1504.6372187623
 31
0.0
  0
ARC
  5
382
330
1F
100
AcDbEntity
  8
0
  6
Continuous
 62
     7
370
    15
100
AcDbCircle
 10
2163.3046953266
 20
1501.9729789059
 30
0.0
 40
3.078016624567237
100
AcDbArc
 50
47.2528451006
 51
129.7183940475
  0
LINE
  5
383
330
1F
100
AcDbEntity
  8
0
  6
Continuous
 62
     7
370
    15
100
AcDbLine
 10
2160.9943204213
 20
1504.6664927024
 30
0.0
 11
2163.659825103
 21
1505.3259879613
 31
0.0
  0
LINE
  5
384
330
1F
100
AcDbEntity
  8
0
  6
Continuous
 62
     7
370
    15
100
AcDbLine
 10
2163.659825103
 20
1505.3259879613
 30
0.0
 11
2165.6722045246
 21
1504.4568895889
 31
0.0
  0
LINE
  5
385
330
1F
100
AcDbEntity
  8
0
  6
Continuous
 62
     7
370
    15
100
AcDbLine
 10
2160.9943204213
 20
1504.6664927024
 30
0.0
 11
2160.9606411728
 21
1504.5034568299
 31
0.0
  0
LINE
  5
386
330
1F
100
AcDbEntity
  8
0
  6
Continuous
 62
     7
370
    15
100
AcDbLine
 10
2160.9943204213
 20
1504.6664927024
 30
0.0
 11
2160.9943204213
 21
1506.2995743262
 31
0.0
  0
LINE
  5
387
330
1F
100
AcDbEntity
  8
0
  6
Continuous
 62
     7
370
    15
100
AcDbLine
 10
2163.659825103
 20
1505.3259879613
 30
0.0
 11
2163.659825103
 21
1506.9590695851
 31
0.0
  0
LWPOLYLINE
  5
388
330
1F
100
AcDbEntity
  8
0
  6
Continuous
 62
     7
370
    15
100
AcDbPolyline
 90
       26
 70
   128
 43
0.0
 10
2031.8648013232
 20
1496.6630717876
 10
2033.0531935158
 20
1496.1309213503
 10
2034.433495374
 20
1495.7861016547
 10
2035.9189774558
 20
1495.6502789904
 10
2037.4163014587
 20
1495.731987595
 10
2038.8313850087
 20
1496.0260934163
 10
2040.0753132022
 20
1496.5141167039
 10
2041.0699254559
 20
1497.1653931599
 10
2041.752726624
 20
1497.9390006892
 10
2042.0808137979
 20
1498.7863306858
 10
2042.0335720538
 20
1499.6541422896
 10
2041.6139697644
 20
1500.487907706
 10
2040.8483720845
 20
1501.2352383874
 10
2039.7848843322
 20
1501.8491767988
 10
2038.4903293541
 20
1502.2911469318
 10
2037.0460488005
 20
1502.5333781775
 10
2035.5427921304
 20
1502.5606502558
 10
2034.0750144888
 20
1502.3712495618
 10
2032.7349417432
 20
1501.9770768377
 10
2031.6067755925
 20
1501.4028994053
 10
2030.7614028651
 20
1500.6847949445
 10
2030.2519414386
 20
1499.8678845995
 10
2030.1104026481
 20
1499.0034978516
 10
2030.3456798962
 20
1498.1459472993
 10
2030.9429898483
 20
1497.3491159976
 10
2031.8648013232
 20
1496.6630717876
  0
LINE
  5
389
330
1F
100
AcDbEntity
  8
0
  6
Continuous
 62
     7
370
    15
100
AcDbLine
 10
2034.0568323448
 20
1497.928504361
 30
0.0
 11
2036.8580172411
 21
1497.4952065032
 31
0.0
  0
LINE
  5
38A
330
1F
100
AcDbEntity
  8
0
  6
Continuous
 62
     7
370
    15
100
AcDbLine
 10
2036.8580172411
 20
1497.4952065032
 30
0.0
 11
2038.9086269065
 21
1498.6789982654
 31
0.0
  0
LINE
  5
38B
330
1F
100
AcDbEntity
  8
0
  6
Continuous
 62
     7
370
    15
100
AcDbLine
 10
2038.1580516757
 20
1500.2960878852
 30
0.0
 11
2038.9086269065
 21
1498.6789982654
 31
0.0
  0
LINE
  5
38C
330
1F
100
AcDbEntity
  8
0
  6
Continuous
 62
     7
370
    15
100
AcDbLine
 10
2035.3568667795
 20
1500.729385743
 30
0.0
 11
2038.1580516757
 21
1500.2960878852
 31
0.0
  0
LINE
  5
38D
330
1F
100
AcDbEntity
  8
0
  6
Continuous
 62
     7
370
    15
100
AcDbLine
 10
2033.306257114
 20
1499.5455939808
 30
0.0
 11
2035.3568667795
 21
1500.729385743
 31
0.0
  0
LINE
  5
38E
330
1F
100
AcDbEntity
  8
0
  6
Continuous
 62
     7
370
    15
100
AcDbLine
 10
2033.306257114
 20
1499.5455939808
 30
0.0
 11
2034.0568323448
 21
1497.928504361
 31
0.0
  0
LINE
  5
38F
330
1F
100
AcDbEntity
  8
0
  6
Continuous
 62
     7
370
    15
100
AcDbLine
 10
2037.733787607
 20
1498.4180838279
 30
0.0
 11
2038.0545531245
 21
1498.1859519658
 31
0.0
  0
ARC
  5
390
330
1F
100
AcDbEntity
  8
0
  6
Continuous
 62
     7
370
    15
100
AcDbCircle
 10
2036.1452365411
 20
1495.6341869843
 30
0.0
 40
3.205241976019508
100
AcDbArc
 50
60.2899950892
 51
131.7348277402
  0
LINE
  5
391
330
1F
100
AcDbEntity
  8
0
  6
Continuous
 62
     7
370
    15
100
AcDbLine
 10
2033.9040712492
 20
1498.2576231114
 30
0.0
 11
2035.3568667795
 21
1499.0963041192
 31
0.0
  0
LINE
  5
392
330
1F
100
AcDbEntity
  8
0
  6
Continuous
 62
     7
370
    15
100
AcDbLine
 10
2035.3568667795
 20
1499.0963041192
 30
0.0
 11
2038.1580516757
 21
1498.6630062615
 31
0.0
  0
LINE
  5
393
330
1F
100
AcDbEntity
  8
0
  6
Continuous
 62
     7
370
    15
100
AcDbLine
 10
2038.1580516757
 20
1498.6630062615
 30
0.0
 11
2038.3108127714
 21
1498.333887511
 31
0.0
  0
LINE
  5
394
330
1F
100
AcDbEntity
  8
0
  6
Continuous
 62
     7
370
    15
100
AcDbLine
 10
2038.1580516757
 20
1498.6630062615
 30
0.0
 11
2038.1580516757
 21
1500.2960878852
 31
0.0
  0
LINE
  5
395
330
1F
100
AcDbEntity
  8
0
  6
Continuous
 62
     7
370
    15
100
AcDbLine
 10
2035.3568667795
 20
1499.0963041192
 30
0.0
 11
2035.3568667795
 21
1500.729385743
 31
0.0
  0
LWPOLYLINE
  5
396
330
1F
100
AcDbEntity
  8
0
  6
Continuous
 62
     7
370
    15
100
AcDbPolyline
 90
       26
 70
   128
 43
0.0
 10
2161.7678270748
 20
1517.620412898
 10
2162.9562192674
 20
1517.0882624607
 10
2164.3365211257
 20
1516.7434427651
 10
2165.8220032074
 20
1516.6076201008
 10
2167.3193272103
 20
1516.6893287054
 10
2168.7344107603
 20
1516.9834345267
 10
2169.9783389538
 20
1517.4714578143
 10
2170.9729512075
 20
1518.1227342703
 10
2171.6557523756
 20
1518.8963417997
 10
2171.9838395495
 20
1519.7436717962
 10
2171.9365978055
 20
1520.6114834
 10
2171.516995516
 20
1521.4452488164
 10
2170.7513978362
 20
1522.1925794979
 10
2169.6879100838
 20
1522.8065179092
 10
2168.3933551057
 20
1523.2484880422
 10
2166.9490745521
 20
1523.4907192879
 10
2165.445817882
 20
1523.5179913662
 10
2163.9780402404
 20
1523.3285906722
 10
2162.6379674948
 20
1522.9344179481
 10
2161.5098013441
 20
1522.3602405158
 10
2160.6644286168
 20
1521.6421360549
 10
2160.1549671903
 20
1520.8252257099
 10
2160.0134283997
 20
1519.9608389621
 10
2160.2487056478
 20
1519.1032884097
 10
2160.8460155999
 20
1518.306457108
 10
2161.7678270748
 20
1517.620412898
  0
LINE
  5
397
330
1F
100
AcDbEntity
  8
0
  6
Continuous
 62
     7
370
    15
100
AcDbLine
 10
2163.9598580965
 20
1518.8858454714
 30
0.0
 11
2166.7610429927
 21
1518.4525476136
 31
0.0
  0
LINE
  5
398
330
1F
100
AcDbEntity
  8
0
  6
Continuous
 62
     7
370
    15
100
AcDbLine
 10
2166.7610429927
 20
1518.4525476136
 30
0.0
 11
2168.8116526581
 21
1519.6363393758
 31
0.0
  0
LINE
  5
399
330
1F
100
AcDbEntity
  8
0
  6
Continuous
 62
     7
370
    15
100
AcDbLine
 10
2168.0610774273
 20
1521.2534289957
 30
0.0
 11
2168.8116526581
 21
1519.6363393758
 31
0.0
  0
LINE
  5
39A
330
1F
100
AcDbEntity
  8
0
  6
Continuous
 62
     7
370
    15
100
AcDbLine
 10
2165.2598925311
 20
1521.6867268534
 30
0.0
 11
2168.0610774273
 21
1521.2534289957
 31
0.0
  0
LINE
  5
39B
330
1F
100
AcDbEntity
  8
0
  6
Continuous
 62
     7
370
    15
100
AcDbLine
 10
2163.2092828657
 20
1520.5029350912
 30
0.0
 11
2165.2598925311
 21
1521.6867268534
 31
0.0
  0
LINE
  5
39C
330
1F
100
AcDbEntity
  8
0
  6
Continuous
 62
     7
370
    15
100
AcDbLine
 10
2163.2092828657
 20
1520.5029350912
 30
0.0
 11
2163.9598580965
 21
1518.8858454714
 31
0.0
  0
LINE
  5
39D
330
1F
100
AcDbEntity
  8
0
  6
Continuous
 62
     7
370
    15
100
AcDbLine
 10
2167.6368133586
 20
1519.3754249383
 30
0.0
 11
2167.9575788761
 21
1519.1432930762
 31
0.0
  0
ARC
  5
39E
330
1F
100
AcDbEntity
  8
0
  6
Continuous
 62
     7
370
    15
100
AcDbCircle
 10
2166.0482622927
 20
1516.5915280947
 30
0.0
 40
3.205241976018865
100
AcDbArc
 50
60.2899950892
 51
131.7348277402
  0
LINE
  5
39F
330
1F
100
AcDbEntity
  8
0
  6
Continuous
 62
     7
370
    15
100
AcDbLine
 10
2163.8070970008
 20
1519.2149642218
 30
0.0
 11
2165.2598925311
 21
1520.0536452296
 31
0.0
  0
LINE
  5
3A0
330
1F
100
AcDbEntity
  8
0
  6
Continuous
 62
     7
370
    15
100
AcDbLine
 10
2165.2598925311
 20
1520.0536452296
 30
0.0
 11
2168.0610774273
 21
1519.6203473719
 31
0.0
  0
LINE
  5
3A1
330
1F
100
AcDbEntity
  8
0
  6
Continuous
 62
     7
370
    15
100
AcDbLine
 10
2168.0610774273
 20
1519.6203473719
 30
0.0
 11
2168.213838523
 21
1519.2912286214
 31
0.0
  0
LINE
  5
3A2
330
1F
100
AcDbEntity
  8
0
  6
Continuous
 62
     7
370
    15
100
AcDbLine
 10
2168.0610774273
 20
1519.6203473719
 30
0.0
 11
2168.0610774273
 21
1521.2534289957
 31
0.0
  0
LINE
  5
3A3
330
1F
100
AcDbEntity
  8
0
  6
Continuous
 62
     7
370
    15
100
AcDbLine
 10
2165.2598925311
 20
1520.0536452296
 30
0.0
 11
2165.2598925311
 21
1521.6867268534
 31
0.0
  0
LWPOLYLINE
  5
3A4
330
1F
100
AcDbEntity
  8
0
  6
Continuous
 62
     7
370
    15
100
AcDbPolyline
 90
       14
 70
   128
 43
0.0
 10
2145.335003468
 20
1387.3982448113
 10
2143.5276949145
 20
1385.9979923701
 10
2141.4237924895
 20
1384.7433568503
 10
2139.05815396
 20
1383.6551252389
 10
2136.4699735754
 20
1382.7513275185
 10
2133.7021326919
 20
1382.0469379436
 10
2130.8004893069
 20
1381.5536269449
 10
2127.813118278
 20
1381.2795677722
 10
2124.7895148107
 20
1381.2293010784
 10
2121.7797744151
 20
1381.4036596896
 10
2118.8337629159
 20
1381.7997548064
 10
2116.0002902678
 20
1382.4110238663
 10
2113.3263018654
 20
1383.2273392729
 10
2110.8561007446
 20
1384.2351761918
  0
ARC
  5
3A5
330
1F
100
AcDbEntity
  8
0
  6
Continuous
 62
     7
370
    15
100
AcDbCircle
 10
2119.3560060755
 20
1383.958072459
 30
0.0
 40
8.504421033343247
100
AcDbArc
 50
129.0460987977
 51
178.1327729393
  0
LWPOLYLINE
  5
3A6
330
1F
100
AcDbEntity
  8
0
  6
Continuous
 62
     7
370
    15
100
AcDbPolyline
 90
       13
 70
   128
 43
0.0
 10
2113.9986846546
 20
1390.5629406867
 10
2116.1130698328
 20
1389.7100619827
 10
2118.4123901353
 20
1389.0352449817
 10
2120.8519470179
 20
1388.5516080549
 10
2123.384315752
 20
1388.2685530532
 10
2125.9602673567
 20
1388.1915825361
 10
2128.5297256043
 20
1388.3221928022
 10
2131.0427404976
 20
1388.6578448018
 10
2133.450459292
 20
1389.1920134953
 10
2135.7060761881
 20
1389.9143146997
 10
2137.7657422314
 20
1390.8107069558
 10
2139.5894177313
 20
1391.8637644927
 10
2141.1416506283
 20
1393.0530159829
  0
ARC
  5
3A7
330
1F
100
AcDbEntity
  8
0
  6
Continuous
 62
     7
370
    15
100
AcDbCircle
 10
2138.7828996312
 20
1386.9216630668
 30
0.0
 40
6.569413584794708
100
AcDbArc
 50
4.1602085897
 51
68.9581067683
  0
LINE
  5
3A8
330
1F
100
AcDbEntity
  8
0
  6
Continuous
 62
     7
370
    15
100
AcDbLine
 10
2204.3758573276
 20
1519.9647882871
 30
0.0
 11
2142.2240064892
 21
1555.8442880595
 31
0.0
  0
ARC
  5
3A9
330
1F
100
AcDbEntity
  8
0
  6
Continuous
 62
     7
370
    15
100
AcDbCircle
 10
2203.7531657965
 20
1518.5904569887
 30
0.0
 40
1.508817835482435
100
AcDbArc
 50
5.6947992512
 51
65.6253417064
  0
LINE
  5
3AA
330
1F
100
AcDbEntity
  8
0
  6
Continuous
 62
     7
370
    15
100
AcDbLine
 10
2205.254536984
 20
1450.5588547909
 30
0.0
 11
2205.254536984
 21
1518.7401761194
 31
0.0
  0
ARC
  5
3AB
330
1F
100
AcDbEntity
  8
0
  6
Continuous
 62
     7
370
    15
100
AcDbCircle
 10
2203.9726445095
 20
1450.6208194041
 30
0.0
 40
1.283389235413404
100
AcDbArc
 50
308.4415861751
 51
357.2325686162
  0
LINE
  5
3AC
330
1F
100
AcDbEntity
  8
0
  6
Continuous
 62
     7
370
    15
100
AcDbLine
 10
2141.1416506283
 20
1393.0530159829
 30
0.0
 11
2204.7705486878
 21
1449.6156145236
 31
0.0
  0
LWPOLYLINE
  5
3AD
330
1F
100
AcDbEntity
  8
0
  6
Continuous
 62
     7
370
    15
100
AcDbPolyline
 90
       12
 70
   128
 43
0.0
 10
1964.570163518
 20
1476.826189774
 10
1976.8104718194
 20
1468.2516725566
 10
1989.334093788
 20
1459.814599665
 10
2002.1363994382
 20
1451.5180902868
 10
2015.2126557545
 20
1443.3652116434
 10
2028.5580284424
 20
1435.3589778557
 10
2042.1675837145
 20
1427.5023488301
 10
2056.0362901153
 20
1419.7982291643
 10
2070.1590203809
 20
1412.2494670727
 10
2084.5305533349
 20
1404.8588533345
 10
2099.1455758185
 20
1397.6291202612
 10
2113.9986846546
 20
1390.5629406867
  0
LWPOLYLINE
  5
3AE
330
1F
100
AcDbEntity
  8
0
  6
Continuous
 62
     7
370
    15
100
AcDbPolyline
 90
       13
 70
   128
 43
0.0
 10
1968.883567812
 20
1492.4954905001
 10
1966.8235005955
 20
1491.5994055224
 10
1964.9993537882
 20
1490.5466200655
 10
1963.4465886118
 20
1489.3576001677
 10
1962.1953906574
 20
1488.0554602504
 10
1961.2700830814
 20
1486.6655137762
 10
1960.6886537654
 20
1485.214781158
 10
1960.4624056341
 20
1483.731464485
 10
1960.5957369272
 20
1482.2443992767
 10
1961.0860556984
 20
1480.782493924
 10
1961.9238302026
 20
1479.3741677127
 10
1963.0927741918
 20
1478.046798356
 10
1964.570163518
 20
1476.826189774
  0
LINE
  5
3AF
330
1F
100
AcDbEntity
  8
0
  6
Continuous
 62
     7
370
    15
100
AcDbLine
 10
2138.4687690405
 20
1556.0721385318
 30
0.0
 11
1968.883567812
 21
1492.4954905001
 31
0.0
  0
ARC
  5
3B0
330
1F
100
AcDbEntity
  8
0
  6
Continuous
 62
     7
370
    15
100
AcDbCircle
 10
2140.0855836194
 20
1551.6598614705
 30
0.0
 40
4.699178465282522
100
AcDbArc
 50
62.9310036809
 51
110.1246230868
  0
LWPOLYLINE
  5
3B1
330
1F
100
AcDbEntity
  8
0
  6
Continuous
 62
     7
370
    15
100
AcDbPolyline
 90
       27
 70
   128
 43
0.0
 10
2148.3432177136
 20
1434.3199619532
 10
2149.4865757398
 20
1434.837075393
 10
2150.8110801707
 20
1435.1812029802
 10
2152.2397556232
 20
1435.3323452701
 10
2153.689572673
 20
1435.2817184223
 10
2155.0762732231
 20
1435.0322646852
 10
2156.3192672778
 20
1434.5984814032
 10
2157.3463165409
 20
1434.0055784839
 10
2158.0977326423
 20
1433.2880132899
 10
2158.5298460096
 20
1432.487488102
 10
2158.6175437844
 20
1431.6505265344
 10
2158.3557292909
 20
1430.8257697511
 10
2157.7596182358
 20
1430.0611496185
 10
2156.8638544269
 20
1429.4011030795
 10
2155.7204964006
 20
1428.8839896396
 10
2154.3959919697
 20
1428.5398620525
 10
2152.9673165172
 20
1428.3887197625
 10
2151.5174994674
 20
1428.4393466103
 10
2150.1307989174
 20
1428.6888003475
 10
2148.8878048626
 20
1429.1225836295
 10
2147.8607555995
 20
1429.7154865488
 10
2147.1093394981
 20
1430.4330517428
 10
2146.6772261308
 20
1431.2335769306
 10
2146.589528356
 20
1432.0705384983
 10
2146.8513428495
 20
1432.8952952816
 10
2147.4474539046
 20
1433.6599154141
 10
2148.3432177136
 20
1434.3199619532
  0
LWPOLYLINE
  5
3B2
330
1F
100
AcDbEntity
  8
0
  6
Continuous
 62
     7
370
    15
100
AcDbPolyline
 90
       27
 70
   128
 43
0.0
 10
2099.3939698294
 20
1473.6200792825
 10
2100.6084912183
 20
1474.1693782062
 10
2102.0154336843
 20
1474.5349245228
 10
2103.5330308455
 20
1474.6954740092
 10
2105.073085471
 20
1474.6416961128
 10
2106.5460951839
 20
1474.3767162095
 10
2107.8664540138
 20
1473.915933968
 10
2108.9574275049
 20
1473.2861283774
 10
2109.7556122434
 20
1472.5239014493
 10
2110.2146206335
 20
1471.6735510423
 10
2110.307776776
 20
1470.784496431
 10
2110.0296667747
 20
1469.908406238
 10
2109.3964533717
 20
1469.0961956407
 10
2108.4449366286
 20
1468.3950673669
 10
2107.2304152397
 20
1467.8457684432
 10
2105.8234727737
 20
1467.4802221266
 10
2104.3058756125
 20
1467.3196726402
 10
2102.765820987
 20
1467.3734505366
 10
2101.2928112741
 20
1467.63843044
 10
2099.9724524442
 20
1468.0992126814
 10
2098.8814789531
 20
1468.729018272
 10
2098.0832942147
 20
1469.4912452001
 10
2097.6242858245
 20
1470.3415956071
 10
2097.531129682
 20
1471.2306502184
 10
2097.8092396833
 20
1472.1067404114
 10
2098.4424530863
 20
1472.9189510087
 10
2099.3939698294
 20
1473.6200792825
  0
LWPOLYLINE
  5
3B3
330
1F
100
AcDbEntity
  8
0
  6
Continuous
 62
     7
370
    15
100
AcDbPolyline
 90
       27
 70
   128
 43
0.0
 10
2031.8471236536
 20
1501.57172556
 10
2032.9904816799
 20
1502.0888389998
 10
2034.3149861108
 20
1502.432966587
 10
2035.7436615633
 20
1502.5841088769
 10
2037.1934786131
 20
1502.5334820291
 10
2038.5801791631
 20
1502.284028292
 10
2039.8231732179
 20
1501.8502450099
 10
2040.8502224809
 20
1501.2573420906
 10
2041.6016385824
 20
1500.5397768967
 10
2042.0337519496
 20
1499.7392517088
 10
2042.1214497245
 20
1498.9022901412
 10
2041.859635231
 20
1498.0775333579
 10
2041.2635241759
 20
1497.3129132253
 10
2040.3677603669
 20
1496.6528666862
 10
2039.2244023407
 20
1496.1357532464
 10
2037.8998979098
 20
1495.7916256592
 10
2036.4712224572
 20
1495.6404833693
 10
2035.0214054074
 20
1495.6911102171
 10
2033.6347048574
 20
1495.9405639542
 10
2032.3917108027
 20
1496.3743472363
 10
2031.3646615396
 20
1496.9672501555
 10
2030.6132454382
 20
1497.6848153495
 10
2030.1811320709
 20
1498.4853405374
 10
2030.0934342961
 20
1499.322302105
 10
2030.3552487896
 20
1500.1470588883
 10
2030.9513598447
 20
1500.9116790209
 10
2031.8471236536
 20
1501.57172556
  0
LWPOLYLINE
  5
3B4
330
1F
100
AcDbEntity
  8
0
  6
Continuous
 62
     7
370
    15
100
AcDbPolyline
 90
       27
 70
   128
 43
0.0
 10
2161.7501494053
 20
1522.5290666704
 10
2162.8935074315
 20
1523.0461801102
 10
2164.2180118624
 20
1523.3903076974
 10
2165.6466873149
 20
1523.5414499873
 10
2167.0965043647
 20
1523.4908231395
 10
2168.4832049148
 20
1523.2413694024
 10
2169.7261989695
 20
1522.8075861203
 10
2170.7532482326
 20
1522.2146832011
 10
2171.504664334
 20
1521.4971180071
 10
2171.9367777013
 20
1520.6965928192
 10
2172.0244754761
 20
1519.8596312516
 10
2171.7626609826
 20
1519.0348744683
 10
2171.1665499275
 20
1518.2702543357
 10
2170.2707861185
 20
1517.6102077966
 10
2169.1274280923
 20
1517.0930943568
 10
2167.8029236614
 20
1516.7489667697
 10
2166.3742482089
 20
1516.5978244797
 10
2164.9244311591
 20
1516.6484513275
 10
2163.537730609
 20
1516.8979050647
 10
2162.2947365543
 20
1517.3316883467
 10
2161.2676872912
 20
1517.924591266
 10
2160.5162711898
 20
1518.64215646
 10
2160.0841578225
 20
1519.4426816478
 10
2159.9964600477
 20
1520.2796432154
 10
2160.2582745412
 20
1521.1043999987
 10
2160.8543855963
 20
1521.8690201313
 10
2161.7501494053
 20
1522.5290666704
  0
LWPOLYLINE
  5
3B5
330
1F
100
AcDbEntity
  8
0
  6
Continuous
 62
     7
370
    15
100
AcDbPolyline
 90
       27
 70
   128
 43
0.0
 10
2158.7909394491
 20
1507.9092199791
 10
2160.0054608379
 20
1508.4585189028
 10
2161.412403304
 20
1508.8240652194
 10
2162.9300004652
 20
1508.9846147058
 10
2164.4700550907
 20
1508.9308368094
 10
2165.9430648036
 20
1508.665856906
 10
2167.2634236335
 20
1508.2050746645
 10
2168.3543971246
 20
1507.5752690739
 10
2169.152581863
 20
1506.8130421459
 10
2169.6115902531
 20
1505.9626917388
 10
2169.7047463957
 20
1505.0736371276
 10
2169.4266363943
 20
1504.1975469346
 10
2168.7934229914
 20
1503.3853363373
 10
2167.8419062483
 20
1502.6842080634
 10
2166.6273848594
 20
1502.1349091398
 10
2165.2204423933
 20
1501.7693628231
 10
2163.7028452322
 20
1501.6088133367
 10
2162.1627906067
 20
1501.6625912332
 10
2160.6897808938
 20
1501.9275711365
 10
2159.3694220639
 20
1502.388353378
 10
2158.2784485728
 20
1503.0181589686
 10
2157.4802638343
 20
1503.7803858967
 10
2157.0212554442
 20
1504.6307363037
 10
2156.9280993016
 20
1505.5197909149
 10
2157.206209303
 20
1506.395881108
 10
2157.8394227059
 20
1507.2080917052
 10
2158.7909394491
 20
1507.9092199791
  0
LINE
  5
3B6
330
1F
100
AcDbEntity
  8
0
  6
Continuous
 62
     7
370
    15
100
AcDbLine
 10
2145.335003468
 20
1387.3982448113
 30
0.0
 11
2145.335003468
 21
1383.3155407519
 31
0.0
  0
LWPOLYLINE
  5
3B7
330
1F
100
AcDbEntity
  8
0
  6
Continuous
 62
     7
370
    15
100
AcDbPolyline
 90
       14
 70
   128
 43
0.0
 10
2110.8561007446
 20
1380.1524721324
 10
2113.3263018654
 20
1379.1446352135
 10
2116.0002902678
 20
1378.3283198068
 10
2118.8337629159
 20
1377.717050747
 10
2121.7797744151
 20
1377.3209556302
 10
2124.7895148107
 20
1377.146597019
 10
2127.813118278
 20
1377.1968637128
 10
2130.8004893069
 20
1377.4709228855
 10
2133.7021326919
 20
1377.9642338842
 10
2136.4699735754
 20
1378.6686234591
 10
2139.05815396
 20
1379.5724211795
 10
2141.4237924895
 20
1380.6606527909
 10
2143.5276949145
 20
1381.9152883107
 10
2145.335003468
 20
1383.3155407519
  0
LINE
  5
3B8
330
1F
100
AcDbEntity
  8
0
  6
Continuous
 62
     7
370
    15
100
AcDbLine
 10
2110.8561007446
 20
1384.2351761918
 30
0.0
 11
2110.8561007446
 21
1380.1524721324
 31
0.0
  0
LWPOLYLINE
  5
3B9
330
1F
100
AcDbEntity
  8
0
  6
Continuous
 62
     7
370
    15
100
AcDbPolyline
 90
       12
 70
   128
 43
0.0
 10
2110.8561007446
 20
1384.2351761918
 10
2095.9288005558
 20
1391.3366513686
 10
2081.2407759619
 20
1398.6024969947
 10
2066.7974571289
 20
1406.0300268854
 10
2052.6041837551
 20
1413.6164950813
 10
2038.6662030966
 20
1421.3590968634
 10
2024.9886680279
 20
1429.2549697902
 10
2011.5766351368
 20
1437.3011947556
 10
1998.4350628548
 20
1445.4947970686
 10
1985.568809624
 20
1453.8327475526
 10
1972.9826321011
 20
1462.3119636655
 10
1960.6811833986
 20
1470.9293106391
  0
ARC
  5
3BA
330
1F
100
AcDbEntity
  8
0
  6
Continuous
 62
     7
370
    15
100
AcDbCircle
 10
1967.7296153895
 20
1470.5117106038
 30
0.0
 40
7.060791975316879
100
AcDbArc
 50
116.5811078495
 51
176.6093476856
  0
LWPOLYLINE
  5
3BB
330
1F
100
AcDbEntity
  8
0
  6
Continuous
 62
     7
370
    15
100
AcDbPolyline
 90
       12
 70
   128
 43
0.0
 10
1960.6811833986
 20
1466.8466065797
 10
1972.9826321011
 20
1458.229259606
 10
1985.568809624
 20
1449.7500434932
 10
1998.4350628548
 20
1441.4120930092
 10
2011.5766351368
 20
1433.2184906962
 10
2024.9886680279
 20
1425.1722657308
 10
2038.6662030966
 20
1417.276392804
 10
2052.6041837551
 20
1409.5337910219
 10
2066.7974571289
 20
1401.947322826
 10
2081.2407759619
 20
1394.5197929353
 10
2095.9288005558
 20
1387.2539473092
 10
2110.8561007446
 20
1380.1524721324
  0
LINE
  5
3BC
330
1F
100
AcDbEntity
  8
0
  6
Continuous
 62
     7
370
    15
100
AcDbLine
 10
1960.6811833986
 20
1470.9293106391
 30
0.0
 11
1960.6811833986
 21
1466.8466065797
 31
0.0
  0
LINE
  5
3BD
330
1F
100
AcDbEntity
  8
0
  6
Continuous
 62
     7
370
    15
100
AcDbLine
 10
2208.9639015276
 20
1443.960843352
 30
0.0
 11
2145.335003468
 21
1387.3982448113
 31
0.0
  0
ARC
  5
3BE
330
1F
100
AcDbEntity
  8
0
  6
Continuous
 62
     7
370
    15
100
AcDbCircle
 10
2202.4117976907
 20
1443.4842616075
 30
0.0
 40
6.569413584793232
100
AcDbArc
 50
4.1602085897
 51
68.9581067683
  0
LINE
  5
3BF
330
1F
100
AcDbEntity
  8
0
  6
Continuous
 62
     7
370
    15
100
AcDbLine
 10
2208.9639015276
 20
1443.960843352
 30
0.0
 11
2208.9639015276
 21
1439.8781392926
 31
0.0
  0
LINE
  5
3C0
330
1F
100
AcDbEntity
  8
0
  6
Continuous
 62
     7
370
    15
100
AcDbLine
 10
2145.335003468
 20
1383.3155407519
 30
0.0
 11
2208.9639015276
 21
1439.8781392926
 31
0.0
  0
ARC
  5
3C1
330
1F
100
AcDbEntity
  8
0
  6
Continuous
 62
     7
370
    15
100
AcDbCircle
 10
2205.6711133622
 20
1445.9659785857
 30
0.0
 40
4.611729362793676
100
AcDbArc
 50
6.3513401366
 51
95.1825778655
  0
ARC
  5
3C2
330
1F
100
AcDbEntity
  8
0
  6
Continuous
 62
     7
370
    15
100
AcDbCircle
 10
2206.8361570519
 20
1446.6413896999
 30
0.0
 40
3.422371294435997
100
AcDbArc
 50
308.4415861751
 51
357.2325686162
  0
ARC
  5
3C3
330
1F
100
AcDbEntity
  8
0
  6
Continuous
 62
     7
370
    15
100
AcDbCircle
 10
2205.6711133622
 20
1514.1472999141
 30
0.0
 40
4.611729362793038
100
AcDbArc
 50
6.3513401366
 51
95.1825778655
  0
LINE
  5
3C4
330
1F
100
AcDbEntity
  8
0
  6
Continuous
 62
     7
370
    15
100
AcDbLine
 10
2210.254536984
 20
1514.6574720599
 30
0.0
 11
2210.254536984
 21
1446.4761507315
 31
0.0
  0
LINE
  5
3C5
330
1F
100
AcDbEntity
  8
0
  6
Continuous
 62
     7
370
    15
100
AcDbLine
 10
2210.254536984
 20
1446.4761507315
 30
0.0
 11
2210.254536984
 21
1442.3934466721
 31
0.0
  0
ARC
  5
3C6
330
1F
100
AcDbEntity
  8
0
  6
Continuous
 62
     7
370
    15
100
AcDbCircle
 10
2206.8361570519
 20
1442.5586856405
 30
0.0
 40
3.422371294435088
100
AcDbArc
 50
308.4415861751
 51
357.2325686162
  0
LINE
  5
3C7
330
1F
100
AcDbEntity
  8
0
  6
Continuous
 62
     7
370
    15
100
AcDbLine
 10
2100.5227561272
 20
1468.1523355663
 30
0.0
 11
2100.7333326075
 21
1467.80330745
 31
0.0
  0
LWPOLYLINE
  5
3C8
330
1F
100
AcDbEntity
  8
0
  6
Continuous
 62
     7
370
    15
100
AcDbPolyline
 90
        3
 70
   128
 43
0.0
 10
2107.1055738505
 20
1467.80330745
 10
2107.2739494176
 20
1468.063081134
 10
2107.3161503309
 20
1468.1523355663
  0
LINE
  5
3C9
330
1F
100
AcDbEntity
  8
0
  6
Continuous
 62
     7
370
    15
100
AcDbLine
 10
1955.4601393556
 20
1475.4815705761
 30
0.0
 11
1955.4593899598
 21
1475.3732294341
 31
0.0
  0
LINE
  5
3CA
330
1F
100
AcDbEntity
  8
0
  6
Continuous
 62
     7
370
    15
100
AcDbLine
 10
2159.9197257468
 20
1502.4414762629
 30
0.0
 11
2160.1303022272
 21
1502.0924481466
 31
0.0
  0
LWPOLYLINE
  5
3CB
330
1F
100
AcDbEntity
  8
0
  6
Continuous
 62
     7
370
    15
100
AcDbPolyline
 90
        3
 70
   128
 43
0.0
 10
2166.5025434701
 20
1502.0924481466
 10
2166.6709190373
 20
1502.3522218305
 10
2166.7131199505
 20
1502.4414762629
  0
LWPOLYLINE
  5
3CC
330
1F
100
AcDbEntity
  8
0
  6
Continuous
 62
     7
370
    15
100
AcDbPolyline
 90
       14
 70
   128
 43
0.0
 10
2145.335003468
 20
1032.202991641
 10
2143.5276949145
 20
1030.8027391998
 10
2141.4237924895
 20
1029.54810368
 10
2139.05815396
 20
1028.4598720686
 10
2136.4699735754
 20
1027.5560743482
 10
2133.7021326919
 20
1026.8516847733
 10
2130.8004893069
 20
1026.3583737746
 10
2127.813118278
 20
1026.0843146019
 10
2124.7895148107
 20
1026.0340479081
 10
2121.7797744151
 20
1026.2084065193
 10
2118.8337629159
 20
1026.6045016361
 10
2116.0002902678
 20
1027.215770696
 10
2113.3263018654
 20
1028.0320861026
 10
2110.8561007446
 20
1029.0399230215
  0
ARC
  5
3CD
330
1F
100
AcDbEntity
  8
0
  6
Continuous
 62
     7
370
    15
100
AcDbCircle
 10
2115.9560439432
 20
1028.8736607818
 30
0.0
 40
5.102652620009372
100
AcDbArc
 50
129.0460987977
 51
178.1327729392
  0
LWPOLYLINE
  5
3CE
330
1F
100
AcDbEntity
  8
0
  6
Continuous
 62
     7
370
    15
100
AcDbPolyline
 90
       13
 70
   128
 43
0.0
 10
2112.7416510906
 20
1032.8365817185
 10
2115.0846184503
 20
1031.8914999113
 10
2117.6325139206
 20
1031.143729721
 10
2120.3358066823
 20
1030.607807721
 10
2123.1419450094
 20
1030.2941521786
 10
2125.9963778686
 20
1030.2088605245
 10
2128.8436153862
 20
1030.3535908194
 10
2131.6283075653
 20
1030.7255295216
 10
2134.2963202834
 20
1031.317446182
 10
2136.7957876548
 20
1032.1178340031
 10
2139.0781202974
 20
1033.1111335302
 10
2141.0989499053
 20
1034.2780351251
 10
2142.8189917642
 20
1035.595854344
  0
ARC
  5
3CF
330
1F
100
AcDbEntity
  8
0
  6
Continuous
 62
     7
370
    15
100
AcDbCircle
 10
2141.4037411659
 20
1031.9170425943
 30
0.0
 40
3.941648150878112
100
AcDbArc
 50
4.1602085897
 51
68.9581067683
  0
LWPOLYLINE
  5
3D0
330
1F
100
AcDbEntity
  8
0
  6
Continuous
 62
     7
370
    15
100
AcDbPolyline
 90
       12
 70
   128
 43
0.0
 10
1963.0145714703
 20
1119.2721849497
 10
1975.2793359321
 20
1110.6805358299
 10
1987.8279801224
 20
1102.2266056498
 10
2000.6558648048
 20
1093.9135198292
 10
2013.7582475075
 20
1085.744351718
 10
2027.1302842766
 20
1077.7221214592
 10
2040.7670314673
 20
1069.8497948732
 10
2054.6634475712
 20
1062.1302823608
 10
2068.8143950801
 20
1054.5664378275
 10
2083.2146423857
 20
1047.1610576283
 10
2097.8588657134
 20
1039.9168795339
 10
2112.7416510906
 20
1032.8365817185
  0
ARC
  5
3D1
330
1F
100
AcDbEntity
  8
0
  6
Continuous
 62
     7
370
    15
100
AcDbCircle
 10
1969.5219873502
 20
1127.2824153076
 30
0.0
 40
8.082870124350029
100
AcDbArc
 50
184.05883881
 51
238.908642316
  0
LWPOLYLINE
  5
3D2
330
1F
100
AcDbEntity
  8
0
  6
Continuous
 62
     7
370
    15
100
AcDbPolyline
 90
       12
 70
   128
 43
0.0
 10
1965.3479595419
 20
1120.360689995
 10
1977.5760397631
 20
1111.7947387289
 10
1990.0871506208
 20
1103.3660944815
 10
2002.8766667548
 20
1095.0778733245
 10
2015.9398598781
 20
1086.9331394149
 10
2029.2719005253
 20
1078.9349038628
 10
2042.8678598381
 20
1071.0861236175
 10
2056.7227113873
 20
1063.3897003749
 10
2070.8313330313
 20
1055.8484795042
 10
2085.1885088096
 20
1048.4652489965
 10
2099.7889308711
 20
1041.2427384338
 10
2114.6272014366
 20
1034.1836179797
  0
LWPOLYLINE
  5
3D3
330
1F
100
AcDbEntity
  8
0
  6
Continuous
 62
     7
370
    15
100
AcDbPolyline
 90
       12
 70
   128
 43
0.0
 10
2114.6272014366
 20
1034.1836179797
 10
2116.8184102398
 20
1033.3116389176
 10
2119.2133261553
 20
1032.6415596508
 10
2121.7565597019
 20
1032.1888777354
 10
2124.3892911164
 20
1031.9640627732
 10
2127.0506307339
 20
1031.9723142721
 10
2129.6790272406
 20
1032.213441392
 10
2132.2136912293
 20
1032.6818673583
 10
2134.5960011329
 20
1033.3667584414
 10
2136.7708590213
 20
1034.2522745187
 10
2138.687964903
 20
1035.3179354239
 10
2140.3029800603
 20
1036.5390946113
  0
LINE
  5
3D4
330
1F
100
AcDbEntity
  8
0
  6
Continuous
 62
     7
370
    15
100
AcDbLine
 10
2140.3029800603
 20
1036.5390946113
 30
0.0
 11
2141.5127168782
 21
1037.6144842543
 31
0.0
  0
LINE
  5
3D5
330
1F
100
AcDbEntity
  8
0
  6
Continuous
 62
     7
370
    15
100
AcDbLine
 10
2141.5127168782
 20
1037.6144842543
 30
0.0
 11
2140.9430583469
 21
1037.9433411245
 31
0.0
  0
LINE
  5
3D6
330
1F
100
AcDbEntity
  8
0
  6
Continuous
 62
     7
370
    15
100
AcDbLine
 10
2142.0409265099
 20
1038.1259634363
 30
0.0
 11
2140.9430583469
 21
1038.7597492363
 31
0.0
  0
ARC
  5
3D7
330
1F
100
AcDbEntity
  8
0
  6
Continuous
 62
     7
370
    15
100
AcDbCircle
 10
2144.9042485617
 20
1043.1802906748
 30
0.0
 40
5.809030642537988
100
AcDbArc
 50
240.4680545449
 51
253.8274221507
  0
LWPOLYLINE
  5
3D8
330
1F
100
AcDbEntity
  8
0
  6
Continuous
 62
     7
370
    15
100
AcDbPolyline
 90
       14
 70
   128
 43
0.0
 10
2110.8561007446
 20
1025.773759774
 10
2113.3263018654
 20
1024.7659228551
 10
2116.0002902678
 20
1023.9496074484
 10
2118.8337629159
 20
1023.3383383885
 10
2121.7797744151
 20
1022.9422432717
 10
2124.7895148107
 20
1022.7678846606
 10
2127.813118278
 20
1022.8181513544
 10
2130.8004893069
 20
1023.0922105271
 10
2133.7021326919
 20
1023.5855215258
 10
2136.4699735754
 20
1024.2899111007
 10
2139.05815396
 20
1025.1937088211
 10
2141.4237924895
 20
1026.2819404325
 10
2143.5276949145
 20
1027.5365759523
 10
2145.335003468
 20
1028.9368283935
  0
LINE
  5
3D9
330
1F
100
AcDbEntity
  8
0
  6
Continuous
 62
     7
370
    15
100
AcDbLine
 10
2110.8561007446
 20
1025.773759774
 30
0.0
 11
2110.8561007446
 21
1029.0399230215
 31
0.0
  0
LINE
  5
3DA
330
1F
100
AcDbEntity
  8
0
  6
Continuous
 62
     7
370
    15
100
AcDbLine
 10
2145.335003468
 20
1028.9368283935
 30
0.0
 11
2145.335003468
 21
1032.202991641
 31
0.0
  0
LWPOLYLINE
  5
3DB
330
1F
100
AcDbEntity
  8
0
  6
Continuous
 62
     7
370
    15
100
AcDbPolyline
 90
       12
 70
   128
 43
0.0
 10
2110.8561007446
 20
1029.0399230215
 10
2095.9288005558
 20
1036.1413981983
 10
2081.2407759619
 20
1043.4072438244
 10
2066.7974571289
 20
1050.8347737151
 10
2052.6041837551
 20
1058.421241911
 10
2038.6662030966
 20
1066.1638436931
 10
2024.9886680279
 20
1074.0597166199
 10
2011.5766351368
 20
1082.1059415853
 10
1998.4350628548
 20
1090.2995438983
 10
1985.568809624
 20
1098.6374943823
 10
1972.9826321011
 20
1107.1167104952
 10
1960.6811833986
 20
1115.7340574688
  0
ARC
  5
3DC
330
1F
100
AcDbEntity
  8
0
  6
Continuous
 62
     7
370
    15
100
AcDbCircle
 10
1964.9102425931
 20
1115.4834974476
 30
0.0
 40
4.236475185192109
100
AcDbArc
 50
116.5811078496
 51
176.6093476856
  0
LWPOLYLINE
  5
3DD
330
1F
100
AcDbEntity
  8
0
  6
Continuous
 62
     7
370
    15
100
AcDbPolyline
 90
       12
 70
   128
 43
0.0
 10
1960.6811833986
 20
1112.4678942213
 10
1972.9826321011
 20
1103.8505472476
 10
1985.568809624
 20
1095.3713311348
 10
1998.4350628548
 20
1087.0333806508
 10
2011.5766351368
 20
1078.8397783378
 10
2024.9886680279
 20
1070.7935533723
 10
2038.6662030966
 20
1062.8976804456
 10
2052.6041837551
 20
1055.1550786635
 10
2066.7974571289
 20
1047.5686104676
 10
2081.2407759619
 20
1040.1410805769
 10
2095.9288005558
 20
1032.8752349508
 10
2110.8561007446
 20
1025.773759774
  0
LINE
  5
3DE
330
1F
100
AcDbEntity
  8
0
  6
Continuous
 62
     7
370
    15
100
AcDbLine
 10
1960.6811833986
 20
1112.4678942213
 30
0.0
 11
1960.6811833986
 21
1115.7340574688
 31
0.0
  0
LINE
  5
3DF
330
1F
100
AcDbEntity
  8
0
  6
Continuous
 62
     7
370
    15
100
AcDbLine
 10
2208.9639015276
 20
1088.7655901817
 30
0.0
 11
2145.335003468
 21
1032.202991641
 31
0.0
  0
LINE
  5
3E0
330
1F
100
AcDbEntity
  8
0
  6
Continuous
 62
     7
370
    15
100
AcDbLine
 10
2145.335003468
 20
1028.9368283935
 30
0.0
 11
2208.9639015276
 21
1085.4994269342
 31
0.0
  0
LINE
  5
3E1
330
1F
100
AcDbEntity
  8
0
  6
Continuous
 62
     7
370
    15
100
AcDbLine
 10
2208.9639015276
 20
1085.4994269342
 30
0.0
 11
2208.9639015276
 21
1088.7655901817
 31
0.0
  0
ARC
  5
3E2
330
1F
100
AcDbEntity
  8
0
  6
Continuous
 62
     7
370
    15
100
AcDbCircle
 10
2206.8361570519
 20
1091.4461365296
 30
0.0
 40
3.422371294436007
100
AcDbArc
 50
308.4415861751
 51
357.2325686162
  0
ARC
  5
3E3
330
1F
100
AcDbEntity
  8
0
  6
Continuous
 62
     7
370
    15
100
AcDbCircle
 10
2206.8361570519
 20
1088.1799732821
 30
0.0
 40
3.422371294435088
100
AcDbArc
 50
308.4415861751
 51
357.2325686162
  0
LINE
  5
3E4
330
1F
100
AcDbEntity
  8
0
  6
Continuous
 62
     7
370
    15
100
AcDbLine
 10
2210.254536984
 20
1088.0147343137
 30
0.0
 11
2210.254536984
 21
1091.2808975612
 31
0.0
  0
LINE
  5
3E5
330
1F
100
AcDbEntity
  8
0
  6
Continuous
 62
     7
370
    15
100
AcDbLine
 10
2210.254536984
 20
1095.3636016206
 30
0.0
 11
2210.254536984
 21
1091.2808975612
 31
0.0
  0
LINE
  5
3E6
330
1F
100
AcDbEntity
  8
0
  6
Continuous
 62
     7
370
    15
100
AcDbLine
 10
1955.4593899598
 20
1124.2606803232
 30
0.0
 11
1955.4615107007
 21
1124.4429335588
 31
0.0
  0
LINE
  5
3E7
330
1F
100
AcDbEntity
  8
0
  6
Continuous
 62
     8
370
    15
100
AcDbLine
 10
2114.6272014366
 20
1377.9406556691
 30
0.0
 11
2114.6272014366
 21
1034.1836179797
 31
0.0
  0
LINE
  5
3E8
330
1F
100
AcDbEntity
  8
0
  6
Continuous
 62
     8
370
    15
100
AcDbLine
 10
2140.3029800603
 20
1379.3977560475
 30
0.0
 11
2140.3029800603
 21
1036.5390946113
 31
0.0
  0
LINE
  5
3E9
330
1F
100
AcDbEntity
  8
0
  6
Continuous
 62
     8
370
    15
100
AcDbLine
 10
1965.3479595419
 20
1462.9206926688
 30
0.0
 11
1965.3479595419
 21
1120.360689995
 31
0.0
  0
LINE
  5
3EA
330
1F
100
AcDbEntity
  8
0
  6
Continuous
 62
     8
370
    15
100
AcDbLine
 10
2140.6144948256
 20
1379.5511407995
 30
0.0
 11
2140.6144948256
 21
1036.8160141422
 31
0.0
  0
ARC
  5
3EB
330
1F
100
AcDbEntity
  8
0
  6
Continuous
 62
     8
370
    15
100
AcDbCircle
 10
2208.7169374314
 20
1439.0738683101
 30
0.0
 40
1.538527074404453
100
AcDbArc
 50
1.9896145052
 51
52.6804825434
  0
LINE
  5
3EC
330
1F
100
AcDbEntity
  8
0
  6
Continuous
 62
     8
370
    15
100
AcDbLine
 10
2142.0409265099
 20
1038.1259634363
 30
0.0
 11
2142.0409265099
 21
1380.3445342946
 31
0.0
  0
ARC
  5
3ED
330
1F
100
AcDbEntity
  8
0
  6
Continuous
 62
     8
370
    15
100
AcDbCircle
 10
2206.4337448259
 20
1436.458714222
 30
0.0
 40
2.53479429567738
100
AcDbArc
 50
3.466401545
 51
52.0683873972
  0
ARC
  5
3EE
330
1F
100
AcDbEntity
  8
0
  6
Continuous
 62
     8
370
    15
100
AcDbCircle
 10
2207.8525330813
 20
1092.792519387
 30
0.0
 40
1.112767117491785
100
AcDbArc
 50
313.2749479276
 51
2.8730210291
  0
LINE
  5
3EF
330
1F
100
AcDbEntity
  8
0
  6
Continuous
 62
     8
370
    15
100
AcDbLine
 10
2212.1796162607
 20
1112.2196772894
 30
0.0
 11
2212.1796162607
 21
1128.2584970904
 31
0.0
  0
LINE
  5
3F0
330
1F
100
AcDbEntity
  8
0
  6
Continuous
 62
     8
370
    15
100
AcDbLine
 10
2212.1796162608
 20
1426.5878898654
 30
0.0
 11
2212.1796162608
 21
1442.6267096664
 31
0.0
  0
LINE
  5
3F1
330
1F
100
AcDbEntity
  8
0
  6
Continuous
 62
     8
370
    15
100
AcDbLine
 10
2212.1796162608
 20
1474.9586691947
 30
0.0
 11
2212.1796162608
 21
1490.9974889957
 31
0.0
  0
LINE
  5
3F2
330
1F
100
AcDbEntity
  8
0
  6
Continuous
 62
     8
370
    15
100
AcDbLine
 10
2212.1796162608
 20
1160.5904566187
 30
0.0
 11
2212.1796162608
 21
1176.6292764197
 31
0.0
  0
ARC
  5
3F3
330
1F
100
AcDbEntity
  8
0
  6
Continuous
 62
     8
370
    15
100
AcDbCircle
 10
2111.7817114428
 20
1380.0191106959
 30
0.0
 40
0.935168667784755
100
AcDbArc
 50
171.8012796989
 51
236.6189007263
  0
ARC
  5
3F4
330
1F
100
AcDbEntity
  8
0
  6
Continuous
 62
     8
370
    15
100
AcDbCircle
 10
2144.2237643873
 20
1383.2597393672
 30
0.0
 40
1.112639244743036
100
AcDbArc
 50
313.2352596555
 51
2.8747194161
  0
ARC
  5
3F5
330
1F
100
AcDbEntity
  8
0
  6
Continuous
 62
     8
370
    15
100
AcDbCircle
 10
1961.736654286
 20
1466.770153493
 30
0.0
 40
1.058236206393062
100
AcDbArc
 50
175.8570130805
 51
231.2717982776
  0
ARC
  5
3F6
330
1F
100
AcDbEntity
  8
0
  6
Continuous
 62
     8
370
    15
100
AcDbCircle
 10
2207.8525330813
 20
1439.8223644384
 30
0.0
 40
1.112767117493591
100
AcDbArc
 50
313.2749479276
 51
2.8730210291
  0
ARC
  5
3F7
330
1F
100
AcDbEntity
  8
0
  6
Continuous
 62
     8
370
    15
100
AcDbCircle
 10
1966.1677193439
 20
1480.1501906742
 30
0.0
 40
10.72971133352499
100
AcDbArc
 50
183.6193044891
 51
239.2468389884
  0
ARC
  5
3F8
330
1F
100
AcDbEntity
  8
0
  6
Continuous
 62
     8
370
    15
100
AcDbCircle
 10
1967.5170684485
 20
1491.3622272492
 30
0.0
 40
1.775276346518934
100
AcDbArc
 50
39.6695467875
 51
102.6828459906
  0
ARC
  5
3F9
330
1F
100
AcDbEntity
  8
0
  6
Continuous
 62
     8
370
    15
100
AcDbCircle
 10
2137.1019030075
 20
1554.9382731094
 30
0.0
 40
1.775943002600959
100
AcDbArc
 50
39.676949281
 51
102.6300953797
  0
ARC
  5
3FA
330
1F
100
AcDbEntity
  8
0
  6
Continuous
 62
     8
370
    15
100
AcDbCircle
 10
1966.1716648141
 20
1476.0712871108
 30
0.0
 40
10.73499497312581
100
AcDbArc
 50
183.7283668161
 51
239.2391143099
  0
ARC
  5
3FB
330
1F
100
AcDbEntity
  8
0
  6
Continuous
 62
     8
370
    15
100
AcDbCircle
 10
2205.8268817891
 20
1518.0568982658
 30
0.0
 40
2.396980667706002
100
AcDbArc
 50
64.0335642442
 51
127.2543986237
  0
ARC
  5
3FC
330
1F
100
AcDbEntity
  8
0
  6
Continuous
 62
     8
370
    15
100
AcDbCircle
 10
2143.6886067634
 20
1553.7998814139
 30
0.0
 40
2.514886179509129
100
AcDbArc
 50
65.6928809539
 51
125.6175774752
  0
LINE
  5
3FD
330
1F
100
AcDbEntity
  8
0
  6
Continuous
 62
     8
370
    15
100
AcDbLine
 10
2142.8189917642
 20
1035.595854344
 30
0.0
 11
2144.7579519473
 21
1037.3194835403
 31
0.0
  0
LWPOLYLINE
  5
3FE
330
1F
100
AcDbEntity
  8
0
  6
Continuous
 62
     8
370
    15
100
AcDbPolyline
 90
       10
 70
   128
 43
0.0
 10
1961.4593899598
 20
1132.8740488347
 10
1960.3830664085
 20
1131.7154306128
 10
1959.357725581
 20
1130.1752196549
 10
1958.7134390417
 20
1128.567651078
 10
1958.4627316529
 20
1126.9239758457
 10
1958.6104771399
 20
1125.2761468311
 10
1959.1538033458
 20
1123.6561976565
 10
1960.0821480667
 20
1122.095619963
 10
1961.377464379
 20
1120.6247512163
 10
1963.0145714703
 20
1119.2721849497
  0
ARC
  5
3FF
330
1F
100
AcDbEntity
  8
0
  6
Continuous
 62
     8
370
    15
100
AcDbCircle
 10
2113.1701247766
 20
1025.4403556876
 30
0.0
 40
2.337919054453602
100
AcDbArc
 50
171.8012582043
 51
236.6190683437
  0
ARC
  5
400
330
1F
100
AcDbEntity
  8
0
  6
Continuous
 62
     8
370
    15
100
AcDbCircle
 10
2142.5569792918
 20
1028.7973098539
 30
0.0
 40
2.78152543519991
100
AcDbArc
 50
313.2262306197
 51
2.8751055655
  0
ARC
  5
401
330
1F
100
AcDbEntity
  8
0
  6
Continuous
 62
     8
370
    15
100
AcDbCircle
 10
1963.319766299
 20
1112.2767431281
 30
0.0
 40
2.645497772169278
100
AcDbArc
 50
175.8564685512
 51
231.2806059165
  0
ARC
  5
402
330
1F
100
AcDbEntity
  8
0
  6
Continuous
 62
     8
370
    15
100
AcDbCircle
 10
2205.2287202388
 20
1088.5496412499
 30
0.0
 40
3.741418608115406
100
AcDbArc
 50
3.3088632738
 51
46.4732184098
  0
ARC
  5
403
330
1F
100
AcDbEntity
  8
0
  6
Continuous
 62
     8
370
    15
100
AcDbCircle
 10
2206.1854804118
 20
1085.3599897988
 30
0.0
 40
2.781917793731284
100
AcDbArc
 50
313.2749479276
 51
2.8730210291
  0
ARC
  5
404
330
1F
100
AcDbEntity
  8
0
  6
Continuous
 62
     8
370
    15
100
AcDbCircle
 10
2208.0180724517
 20
1091.2315958239
 30
0.0
 40
2.237007882276193
100
AcDbArc
 50
1.2628521426
 51
50.1594721102
  0
ARC
  5
405
330
1F
100
AcDbEntity
  8
0
  6
Continuous
 62
     8
370
    15
100
AcDbCircle
 10
1966.1716648141
 20
1124.9587379999
 30
0.0
 40
10.7349949731204
100
AcDbArc
 50
183.7283668161
 51
239.2391143099
  0
ARC
  5
406
330
1F
100
AcDbEntity
  8
0
  6
Continuous
 62
     8
370
    15
100
AcDbCircle
 10
1966.1716648141
 20
1121.6925747523
 30
0.0
 40
10.73499497312126
100
AcDbArc
 50
183.7283668161
 51
239.2391143099
  0
ENDSEC
  0
SECTION
  2
OBJECTS
  0
DICTIONARY
  5
C
330
0
100
AcDbDictionary
281
     1
  3
ACAD_GROUP
350
D
  3
ACAD_LAYOUT
350
1A
  3
ACAD_MATERIAL
350
3B
  3
ACAD_MLEADERSTYLE
350
408
  3
ACAD_MLINESTYLE
350
17
  3
ACAD_PLOTSETTINGS
350
19
  3
ACAD_PLOTSTYLENAME
350
E
  3
ACAD_TABLESTYLE
350
407
  0
DICTIONARY
  5
D
102
{ACAD_REACTORS
330
C
102
}
330
C
100
AcDbDictionary
281
     1
  0
DICTIONARY
  5
1A
102
{ACAD_REACTORS
330
C
102
}
330
C
100
AcDbDictionary
281
     1
  3
Layout1
350
1E
  3
Layout2
350
26
  3
Model
350
22
  0
DICTIONARY
  5
3B
102
{ACAD_REACTORS
330
C
102
}
330
C
100
AcDbDictionary
281
     1
  3
ByBlock
350
3D
  3
ByLayer
350
3C
  3
Global
350
3E
  0
DICTIONARY
  5
408
102
{ACAD_REACTORS
330
C
102
}
330
C
100
AcDbDictionary
281
     1
  0
DICTIONARY
  5
17
102
{ACAD_REACTORS
330
C
102
}
330
C
100
AcDbDictionary
281
     1
  3
Standard
350
18
  0
DICTIONARY
  5
19
102
{ACAD_REACTORS
330
C
102
}
330
C
100
AcDbDictionary
281
     1
  0
ACDBDICTIONARYWDFLT
  5
E
102
{ACAD_REACTORS
330
C
102
}
330
C
100
AcDbDictionary
281
     1
  3
Normal
350
F
100
AcDbDictionaryWithDefault
340
F
  0
DICTIONARY
  5
407
102
{ACAD_REACTORS
330
C
102
}
330
C
100
AcDbDictionary
281
     1
  0
LAYOUT
  5
1E
102
{ACAD_REACTORS
330
1A
102
}
330
1A
100
AcDbPlotSettings
  1

  2
none_device
  4

  6

 40
0.0
 41
0.0
 42
0.0
 43
0.0
 44
0.0
 45
0.0
 46
0.0
 47
0.0
 48
0.0
 49
0.0
140
0.0
141
0.0
142
1.0
143
1.0
 70
   688
 72
     0
 73
     0
 74
     5
  7

 75
    16
 76
     0
 77
     2
 78
   300
147
1.0
148
0.0
149
0.0
100
AcDbLayout
  1
Layout1
 70
     1
 71
     1
 10
0.0
 20
0.0
 11
420.0
 21
297.0
 12
0.0
 22
0.0
 32
0.0
 14
1.0000000000E+20
 24
1.0000000000E+20
 34
1.0000000000E+20
 15
-1.0000000000E+20
 25
-1.0000000000E+20
 35
-1.0000000000E+20
146
0.0
 13
0.0
 23
0.0
 33
0.0
 16
1.0
 26
0.0
 36
0.0
 17
0.0
 27
1.0
 37
0.0
 76
     0
330
1B
  0
LAYOUT
  5
26
102
{ACAD_REACTORS
330
1A
102
}
330
1A
100
AcDbPlotSettings
  1

  2
none_device
  4

  6

 40
0.0
 41
0.0
 42
0.0
 43
0.0
 44
0.0
 45
0.0
 46
0.0
 47
0.0
 48
0.0
 49
0.0
140
0.0
141
0.0
142
1.0
143
1.0
 70
   688
 72
     0
 73
     0
 74
     5
  7

 75
    16
 76
     0
 77
     2
 78
   300
147
1.0
148
0.0
149
0.0
100
AcDbLayout
  1
Layout2
 70
     1
 71
     2
 10
0.0
 20
0.0
 11
0.0
 21
0.0
 12
0.0
 22
0.0
 32
0.0
 14
0.0
 24
0.0
 34
0.0
 15
0.0
 25
0.0
 35
0.0
146
0.0
 13
0.0
 23
0.0
 33
0.0
 16
1.0
 26
0.0
 36
0.0
 17
0.0
 27
1.0
 37
0.0
 76
     0
330
23
  0
LAYOUT
  5
22
102
{ACAD_REACTORS
330
1A
102
}
330
1A
100
AcDbPlotSettings
  1

  2
none_device
  4

  6

 40
0.0
 41
0.0
 42
0.0
 43
0.0
 44
0.0
 45
0.0
 46
0.0
 47
0.0
 48
0.0
 49
0.0
140
0.0
141
0.0
142
1.0
143
1.0
 70
  1712
 72
     0
 73
     0
 74
     0
  7

 75
     0
 76
     0
 77
     2
 78
   300
147
1.0
148
0.0
149
0.0
100
AcDbLayout
  1
Model
 70
     1
 71
     0
 10
0.0
 20
0.0
 11
2376.0
 21
1680.0
 12
0.0
 22
0.0
 32
0.0
 14
0.0
 24
0.0
 34
0.0
 15
2376.0
 25
1680.0
 35
0.0
146
0.0
 13
0.0
 23
0.0
 33
0.0
 16
1.0
 26
0.0
 36
0.0
 17
0.0
 27
1.0
 37
0.0
 76
     0
330
1F
331
29
  0
MATERIAL
  5
3D
102
{ACAD_REACTORS
330
3B
102
}
330
3B
100
AcDbMaterial
  1
ByBlock
  0
MATERIAL
  5
3C
102
{ACAD_REACTORS
330
3B
102
}
330
3B
100
AcDbMaterial
  1
ByLayer
  0
MATERIAL
  5
3E
102
{ACAD_REACTORS
330
3B
102
}
330
3B
100
AcDbMaterial
  1
Global
  0
MLINESTYLE
  5
18
102
{ACAD_REACTORS
330
17
102
}
330
17
100
AcDbMlineStyle
  2
Standard
 70
     0
  3

 62
   256
 51
90.0
 52
90.0
 71
     2
 49
0.5
 62
   256
  6
BYLAYER
 49
-0.5
 62
   256
  6
BYLAYER
  0
ACDBPLACEHOLDER
  5
F
102
{ACAD_REACTORS
330
E
102
}
330
E
  0
ENDSEC
  0
EOF
