  0
SECTION
  2
HEADER
  9
$ACADVER
  1
AC1018
  9
$ACADMAINTVER
 70
     0
  9
$DWGCODEPAGE
  3
ANSI_1252
  9
$INSBASE
 10
0.0
 20
0.0
 30
0.0
  9
$EXTMIN
 10
0.0
 20
0.0
 30
0.0
  9
$EXTMAX
 10
2970.0
 20
2100.0
 30
0.0
  9
$LIMMIN
 10
0.0
 20
0.0
  9
$LIMMAX
 10
2970.0
 20
2100.0
  9
$ORTHOMODE
 70
     0
  9
$REGENMODE
 70
     1
  9
$FILLMODE
 70
     1
  9
$QTEXTMODE
 70
     0
  9
$MIRRTEXT
 70
     1
  9
$LTSCALE
 40
10.0
  9
$ATTMODE
 70
     1
  9
$TEXTSIZE
 40
35.0
  9
$TRACEWID
 40
1.0
  9
$TEXTSTYLE
  7
Standard
  9
$CLAYER
  8
0
  9
$CELTYPE
  6
ByLayer
  9
$CECOLOR
 62
   256
  9
$CELTSCALE
 40
1.0
  9
$DISPSILH
 70
     0
  9
$DIMSCALE
 40
1.0
  9
$DIMASZ
 40
33.02
  9
$DIMEXO
 40
10.0
  9
$DIMDLI
 40
3.75
  9
$DIMRND
 40
0.0
  9
$DIMDLE
 40
0.0
  9
$DIMEXE
 40
10.0
  9
$DIMTP
 40
0.0
  9
$DIMTM
 40
0.0
  9
$DIMTXT
 40
35.0
  9
$DIMCEN
 40
2.5
  9
$DIMTSZ
 40
0.0
  9
$DIMTOL
 70
     0
  9
$DIMLIM
 70
     0
  9
$DIMTIH
 70
     1
  9
$DIMTOH
 70
     1
  9
$DIMSE1
 70
     0
  9
$DIMSE2
 70
     0
  9
$DIMTAD
 70
     1
  9
$DIMZIN
 70
     0
  9
$DIMBLK
  1

  9
$DIMASO
 70
     1
  9
$DIMSHO
 70
     1
  9
$DIMPOST
  1

  9
$DIMAPOST
  1

  9
$DIMALT
 70
     0
  9
$DIMALTD
 70
     3
  9
$DIMALTF
 40
0.0393700787
  9
$DIMLFAC
 40
1.0
  9
$DIMTOFL
 70
     1
  9
$DIMTVP
 40
0.0
  9
$DIMTIX
 70
     0
  9
$DIMSOXD
 70
     0
  9
$DIMSAH
 70
     0
  9
$DIMBLK1
  1

  9
$DIMBLK2
  1

  9
$DIMSTYLE
  2
ISO-25
  9
$DIMCLRD
 70
     0
  9
$DIMCLRE
 70
     0
  9
$DIMCLRT
 70
     0
  9
$DIMTFAC
 40
1.0
  9
$DIMGAP
 40
15.24
  9
$DIMJUST
 70
     0
  9
$DIMSD1
 70
     0
  9
$DIMSD2
 70
     0
  9
$DIMTOLJ
 70
     0
  9
$DIMTZIN
 70
     0
  9
$DIMALTZ
 70
     0
  9
$DIMALTTZ
 70
     0
  9
$DIMUPT
 70
     0
  9
$DIMDEC
 70
     2
  9
$DIMTDEC
 70
     2
  9
$DIMALTU
 70
     2
  9
$DIMALTTD
 70
     3
  9
$DIMTXSTY
  7
Standard
  9
$DIMAUNIT
 70
     0
  9
$DIMADEC
 70
     2
  9
$DIMALTRND
 40
0.0
  9
$DIMAZIN
 70
     0
  9
$DIMDSEP
 70
    44
  9
$DIMATFIT
 70
     3
  9
$DIMFRAC
 70
     0
  9
$DIMLDRBLK
  1

  9
$DIMLUNIT
 70
     2
  9
$DIMLWD
 70
    -2
  9
$DIMLWE
 70
    -2
  9
$DIMTMOVE
 70
     0
  9
$LUNITS
 70
     2
  9
$LUPREC
 70
     2
  9
$SKETCHINC
 40
1.0
  9
$FILLETRAD
 40
10.0
  9
$AUNITS
 70
     0
  9
$AUPREC
 70
     2
  9
$MENU
  1
.
  9
$ELEVATION
 40
0.0
  9
$PELEVATION
 40
0.0
  9
$THICKNESS
 40
0.0
  9
$LIMCHECK
 70
     0
  9
$CHAMFERA
 40
10.0
  9
$CHAMFERB
 40
10.0
  9
$CHAMFERC
 40
20.0
  9
$CHAMFERD
 40
0.0
  9
$SKPOLY
 70
     0
  9
$TDCREATE
 40
2457197.620322245
  9
$TDUCREATE
 40
2457197.578655579
  9
$TDUPDATE
 40
2457197.620323877
  9
$TDUUPDATE
 40
2457197.578657211
  9
$TDINDWG
 40
0.0000000116
  9
$TDUSRTIMER
 40
0.0000000116
  9
$USRTIMER
 70
     1
  9
$ANGBASE
 50
0.0
  9
$ANGDIR
 70
     0
  9
$PDMODE
 70
     0
  9
$PDSIZE
 40
-1.0
  9
$PLINEWID
 40
0.0
  9
$SPLFRAME
 70
     0
  9
$SPLINETYPE
 70
     6
  9
$SPLINESEGS
 70
     8
  9
$HANDSEED
  5
46A
  9
$SURFTAB1
 70
     6
  9
$SURFTAB2
 70
     6
  9
$SURFTYPE
 70
     6
  9
$SURFU
 70
     6
  9
$SURFV
 70
     6
  9
$UCSBASE
  2

  9
$UCSNAME
  2

  9
$UCSORG
 10
0.0
 20
0.0
 30
0.0
  9
$UCSXDIR
 10
1.0
 20
0.0
 30
0.0
  9
$UCSYDIR
 10
0.0
 20
1.0
 30
0.0
  9
$UCSORTHOREF
  2

  9
$UCSORTHOVIEW
 70
     0
  9
$UCSORGTOP
 10
0.0
 20
0.0
 30
0.0
  9
$UCSORGBOTTOM
 10
0.0
 20
0.0
 30
0.0
  9
$UCSORGLEFT
 10
0.0
 20
0.0
 30
0.0
  9
$UCSORGRIGHT
 10
0.0
 20
0.0
 30
0.0
  9
$UCSORGFRONT
 10
0.0
 20
0.0
 30
0.0
  9
$UCSORGBACK
 10
0.0
 20
0.0
 30
0.0
  9
$PUCSBASE
  2

  9
$PUCSNAME
  2

  9
$PUCSORG
 10
0.0
 20
0.0
 30
0.0
  9
$PUCSXDIR
 10
1.0
 20
0.0
 30
0.0
  9
$PUCSYDIR
 10
0.0
 20
1.0
 30
0.0
  9
$PUCSORTHOREF
  2

  9
$PUCSORTHOVIEW
 70
     0
  9
$PUCSORGTOP
 10
0.0
 20
0.0
 30
0.0
  9
$PUCSORGBOTTOM
 10
0.0
 20
0.0
 30
0.0
  9
$PUCSORGLEFT
 10
0.0
 20
0.0
 30
0.0
  9
$PUCSORGRIGHT
 10
0.0
 20
0.0
 30
0.0
  9
$PUCSORGFRONT
 10
0.0
 20
0.0
 30
0.0
  9
$PUCSORGBACK
 10
0.0
 20
0.0
 30
0.0
  9
$USERI1
 70
     0
  9
$USERI2
 70
     0
  9
$USERI3
 70
     0
  9
$USERI4
 70
     0
  9
$USERI5
 70
     0
  9
$USERR1
 40
0.0
  9
$USERR2
 40
0.0
  9
$USERR3
 40
0.0
  9
$USERR4
 40
0.0
  9
$USERR5
 40
0.0
  9
$WORLDVIEW
 70
     1
  9
$SHADEDGE
 70
     3
  9
$SHADEDIF
 70
    70
  9
$TILEMODE
 70
     1
  9
$MAXACTVP
 70
    64
  9
$PINSBASE
 10
0.0
 20
0.0
 30
0.0
  9
$PLIMCHECK
 70
     0
  9
$PEXTMIN
 10
1.0000000000E+20
 20
1.0000000000E+20
 30
1.0000000000E+20
  9
$PEXTMAX
 10
-1.0000000000E+20
 20
-1.0000000000E+20
 30
-1.0000000000E+20
  9
$PLIMMIN
 10
0.0
 20
0.0
  9
$PLIMMAX
 10
420.0
 20
297.0
  9
$UNITMODE
 70
     0
  9
$VISRETAIN
 70
     1
  9
$PLINEGEN
 70
     0
  9
$PSLTSCALE
 70
     1
  9
$TREEDEPTH
 70
  3020
  9
$CMLSTYLE
  2
Standard
  9
$CMLJUST
 70
     0
  9
$CMLSCALE
 40
20.0
  9
$PROXYGRAPHICS
 70
     1
  9
$MEASUREMENT
 70
     1
  9
$CELWEIGHT
370
    -1
  9
$ENDCAPS
280
     0
  9
$JOINSTYLE
280
     0
  9
$LWDISPLAY
290
     1
  9
$INSUNITS
 70
     4
  9
$HYPERLINKBASE
  1

  9
$STYLESHEET
  1

  9
$XEDIT
290
     1
  9
$CEPSNTYPE
380
     0
  9
$PSTYLEMODE
290
     1
  9
$FINGERPRINTGUID
  2
{236EDD4B-1FDE-4C88-8A40-B02B9CD351D5}
  9
$VERSIONGUID
  2
{FAEB1C32-E019-11D5-929B-00C0DF256EC4}
  9
$EXTNAMES
290
     1
  9
$PSVPSCALE
 40
0.0
  9
$OLESTARTUP
290
     0
  9
$SORTENTS
280
   127
  9
$INDEXCTL
280
     0
  9
$HIDETEXT
280
     1
  9
$XCLIPFRAME
290
     0
  9
$HALOGAP
280
     0
  9
$OBSCOLOR
 70
   257
  9
$OBSLTYPE
280
     0
  9
$INTERSECTIONDISPLAY
280
     0
  9
$INTERSECTIONCOLOR
 70
   257
  9
$DIMASSOC
280
     2
  9
$PROJECTNAME
  1

  0
ENDSEC
  0
SECTION
  2
CLASSES
  0
CLASS
  1
ACDBDICTIONARYWDFLT
  2
AcDbDictionaryWithDefault
  3
ObjectDBX Classes
 90
        0
 91
        4
280
     0
281
     0
  0
CLASS
  1
VISUALSTYLE
  2
AcDbVisualStyle
  3
ObjectDBX Classes
 90
     4095
 91
        4
280
     0
281
     0
  0
CLASS
  1
MATERIAL
  2
AcDbMaterial
  3
ObjectDBX Classes
 90
     1153
 91
        4
280
     0
281
     0
  0
ENDSEC
  0
SECTION
  2
TABLES
  0
TABLE
  2
VPORT
  5
8
330
0
100
AcDbSymbolTable
 70
     1
  0
VPORT
  5
29
330
8
100
AcDbSymbolTableRecord
100
AcDbViewportTableRecord
  2
*Active
 70
     0
 10
0.0
 20
0.0
 11
1.0
 21
1.0
 12
1485.0
 22
1050.0
 13
0.0
 23
0.0
 14
10.0
 24
10.0
 15
10.0
 25
10.0
 16
0.0
 26
0.0
 36
1.0
 17
0.0
 27
0.0
 37
0.0
 40
2100.0
 41
1.4142857143
 42
50.0
 43
0.0
 44
0.0
 50
0.0
 51
0.0
 71
     0
 72
  2000
 73
     1
 74
     3
 75
     0
 76
     0
 77
     0
 78
     0
281
     0
 65
     1
110
0.0
120
0.0
130
0.0
111
1.0
121
0.0
131
0.0
112
0.0
122
1.0
132
0.0
 79
     0
146
0.0
  0
ENDTAB
  0
TABLE
  2
LTYPE
  5
5
330
0
100
AcDbSymbolTable
 70
     6
  0
LTYPE
  5
14
330
5
100
AcDbSymbolTableRecord
100
AcDbLinetypeTableRecord
  2
ByBlock
 70
     0
  3

 72
    65
 73
     0
 40
0.0
  0
LTYPE
  5
15
330
5
100
AcDbSymbolTableRecord
100
AcDbLinetypeTableRecord
  2
ByLayer
 70
     0
  3

 72
    65
 73
     0
 40
0.0
  0
LTYPE
  5
16
330
5
100
AcDbSymbolTableRecord
100
AcDbLinetypeTableRecord
  2
Continuous
 70
     0
  3
Solid line
 72
    65
 73
     0
 40
0.0
  0
LTYPE
  5
3F
330
5
100
AcDbSymbolTableRecord
100
AcDbLinetypeTableRecord
  2
HIDDEN
 70
     0
  3
Hidden __ __ __ __ __ __ __ __ __ __ __ __ __ __
 72
    65
 73
     2
 40
1.905
 49
1.27
 74
     0
 49
-0.635
 74
     0
  0
LTYPE
  5
40
330
5
100
AcDbSymbolTableRecord
100
AcDbLinetypeTableRecord
  2
PHANTOM
 70
     0
  3
Phantom ______  __  __  ______  __  __  ______
 72
    65
 73
     6
 40
12.7
 49
6.35
 74
     0
 49
-1.27
 74
     0
 49
1.27
 74
     0
 49
-1.27
 74
     0
 49
1.27
 74
     0
 49
-1.27
 74
     0
  0
LTYPE
  5
41
330
5
100
AcDbSymbolTableRecord
100
AcDbLinetypeTableRecord
  2
CENTER
 70
     0
  3
Center ____ _ ____ _ ____ _ ____ _ ____ _ ____
 72
    65
 73
     4
 40
10.16
 49
6.35
 74
     0
 49
-1.27
 74
     0
 49
1.27
 74
     0
 49
-1.27
 74
     0
  0
LTYPE
  5
42
330
5
100
AcDbSymbolTableRecord
100
AcDbLinetypeTableRecord
  2
CENTERX2
 70
     0
  3
Center (2x) ________  __  ________  __  _____
 72
    65
 73
     4
 40
20.32
 49
12.7
 74
     0
 49
-2.54
 74
     0
 49
2.54
 74
     0
 49
-2.54
 74
     0
  0
LTYPE
  5
43
330
5
100
AcDbSymbolTableRecord
100
AcDbLinetypeTableRecord
  2
DOT2
 70
     0
  3
Dot (.5x) ........................................
 72
    65
 73
     2
 40
0.635
 49
0.0
 74
     0
 49
-0.635
 74
     0
  0
ENDTAB
  0
TABLE
  2
LAYER
  5
2
330
0
100
AcDbSymbolTable
 70
     3
  0
LAYER
  5
10
330
2
100
AcDbSymbolTableRecord
100
AcDbLayerTableRecord
  2
0
 70
     0
 62
     7
  6
Continuous
370
    -3
390
F
  0
LAYER
  5
44
330
2
100
AcDbSymbolTableRecord
100
AcDbLayerTableRecord
  2
MEDIÇÕES
 70
     0
 62
     7
  6
Continuous
370
    -3
390
F
  0
LAYER
  5
45
330
2
100
AcDbSymbolTableRecord
100
AcDbLayerTableRecord
  2
ACABAMENTO
 70
     0
 62
     7
  6
Continuous
370
    80
390
F
  0
ENDTAB
  0
TABLE
  2
STYLE
  5
3
330
0
100
AcDbSymbolTable
 70
     4
  0
STYLE
  5
11
330
3
100
AcDbSymbolTableRecord
100
AcDbTextStyleTableRecord
  2
Standard
 70
     0
 40
0.0
 41
1.0
 50
0.0
 71
     0
 42
35.0
  3
txt
  4

  0
STYLE
  5
111
330
3
100
AcDbSymbolTableRecord
100
AcDbTextStyleTableRecord
  2
SLDTEXTSTYLE0
 70
     0
 40
0.0
 41
0.6875
 50
0.0
 71
     0
 42
0.2
  3
TXT
  4

  0
STYLE
  5
113
330
3
100
AcDbSymbolTableRecord
100
AcDbTextStyleTableRecord
  2
SLDTEXTSTYLE1
 70
     0
 40
0.0
 41
0.75
 50
0.0
 71
     0
 42
0.2
  3
TXT
  4

  0
STYLE
  5
115
330
3
100
AcDbSymbolTableRecord
100
AcDbTextStyleTableRecord
  2
SLDTEXTSTYLE2
 70
     0
 40
0.0
 41
0.605
 50
0.0
 71
     0
 42
0.2
  3
TXT
  4

  0
ENDTAB
  0
TABLE
  2
VIEW
  5
6
330
0
100
AcDbSymbolTable
 70
     0
  0
ENDTAB
  0
TABLE
  2
UCS
  5
7
330
0
100
AcDbSymbolTable
 70
     0
  0
ENDTAB
  0
TABLE
  2
APPID
  5
9
330
0
100
AcDbSymbolTable
 70
     1
  0
APPID
  5
12
330
9
100
AcDbSymbolTableRecord
100
AcDbRegAppTableRecord
  2
ACAD
 70
     0
  0
ENDTAB
  0
TABLE
  2
DIMSTYLE
  5
A
330
0
100
AcDbSymbolTable
 70
     2
100
AcDbDimStyleTable
  0
DIMSTYLE
105
27
330
A
100
AcDbSymbolTableRecord
100
AcDbDimStyleTableRecord
  2
ISO-25
 70
     0
 41
2.5
 42
0.625
 43
3.75
 44
1.25
 73
     0
 74
     0
 77
     1
 78
     8
140
2.5
141
2.5
143
0.0393700787
147
0.625
171
     3
172
     1
178
     0
271
     2
272
     2
274
     3
278
    44
283
     0
284
     8
340
11
  0
DIMSTYLE
105
1FD
102
{ACAD_REACTORS
330
1FC
330
207
330
31A
102
}
330
A
100
AcDbSymbolTableRecord
100
AcDbDimStyleTableRecord
  2
SLDDIMSTYLE0
 70
     0
 41
33.02
 44
0.0
 45
0.000000001
 73
     0
 74
     0
 77
     1
 78
    12
 79
     3
140
35.0
147
8.75
173
     1
178
     0
271
     2
272
     2
276
     2
284
    12
340
113
  0
ENDTAB
  0
TABLE
  2
BLOCK_RECORD
  5
1
330
0
100
AcDbSymbolTable
 70
     5
  0
BLOCK_RECORD
  5
1F
330
1
100
AcDbSymbolTableRecord
100
AcDbBlockTableRecord
  2
*Model_Space
340
22
  0
BLOCK_RECORD
  5
1B
330
1
100
AcDbSymbolTableRecord
100
AcDbBlockTableRecord
  2
*Paper_Space
340
1E
  0
BLOCK_RECORD
  5
23
330
1
100
AcDbSymbolTableRecord
100
AcDbBlockTableRecord
  2
*Paper_Space0
340
26
  0
BLOCK_RECORD
  5
46
330
1
100
AcDbSymbolTableRecord
100
AcDbBlockTableRecord
  2
Logo_Next.V3
340
0
102
{BLKREFS
331
110
102
}
  0
BLOCK_RECORD
  5
1FE
330
1
100
AcDbSymbolTableRecord
100
AcDbBlockTableRecord
  2
_D
340
0
  0
BLOCK_RECORD
  5
208
330
1
100
AcDbSymbolTableRecord
100
AcDbBlockTableRecord
  2
_D_1
340
0
  0
BLOCK_RECORD
  5
31B
330
1
100
AcDbSymbolTableRecord
100
AcDbBlockTableRecord
  2
_D_2
340
0
  0
ENDTAB
  0
ENDSEC
  0
SECTION
  2
BLOCKS
  0
BLOCK
  5
20
330
1F
100
AcDbEntity
  8
0
100
AcDbBlockBegin
  2
*Model_Space
 70
     0
 10
0.0
 20
0.0
 30
0.0
  3
*Model_Space
  1

  0
ENDBLK
  5
21
330
1F
100
AcDbEntity
  8
0
100
AcDbBlockEnd
  0
BLOCK
  5
1C
330
1B
100
AcDbEntity
 67
     1
  8
0
100
AcDbBlockBegin
  2
*Paper_Space
 70
     0
 10
0.0
 20
0.0
 30
0.0
  3
*Paper_Space
  1

  0
ENDBLK
  5
1D
330
1B
100
AcDbEntity
 67
     1
  8
0
100
AcDbBlockEnd
  0
BLOCK
  5
24
330
23
100
AcDbEntity
  8
0
100
AcDbBlockBegin
  2
*Paper_Space0
 70
     0
 10
0.0
 20
0.0
 30
0.0
  3
*Paper_Space0
  1

  0
ENDBLK
  5
25
330
23
100
AcDbEntity
  8
0
100
AcDbBlockEnd
  0
BLOCK
  5
47
330
46
100
AcDbEntity
  8
0
100
AcDbBlockBegin
  2
Logo_Next.V3
 70
     0
 10
0.0
 20
0.0
 30
0.0
  3
Logo_Next.V3
  1

  0
ARC
  5
49
330
46
100
AcDbEntity
  8
0
  6
Continuous
 62
     7
370
     0
100
AcDbCircle
 10
-1587.1800722805
 20
422.6709638731
 30
0.0
 40
35.62761368349867
100
AcDbArc
 50
33.8993301947
 51
90.0
  0
ARC
  5
4A
330
46
100
AcDbEntity
  8
0
  6
Continuous
 62
     7
370
     0
100
AcDbCircle
 10
-1131.6851711632
 20
422.6709638731
 30
0.0
 40
35.6276136834984
100
AcDbArc
 50
90.0
 51
180.0
  0
ARC
  5
4B
330
46
100
AcDbEntity
  8
0
  6
Continuous
 62
     7
370
     0
100
AcDbCircle
 10
-883.6670100843
 20
422.6709638731
 30
0.0
 40
35.62761368349868
100
AcDbArc
 50
0.0
 51
90.0
  0
ARC
  5
4C
330
46
100
AcDbEntity
  8
0
  6
Continuous
 62
     7
370
     0
100
AcDbCircle
 10
-883.6670100843
 20
-422.6709638716
 30
0.0
 40
35.62761368349857
100
AcDbArc
 50
270.0
 51
0.0
  0
ARC
  5
4D
330
46
100
AcDbEntity
  8
0
  6
Continuous
 62
     7
370
     0
100
AcDbCircle
 10
-1213.6286423958
 20
-422.6709638716
 30
0.0
 40
35.62761368349845
100
AcDbArc
 50
215.8239333713
 51
270.0
  0
ARC
  5
4E
330
46
100
AcDbEntity
  8
0
  6
Continuous
 62
     7
370
     0
100
AcDbCircle
 10
-1700.7949027296
 20
-422.6709638716
 30
0.0
 40
35.62761368349834
100
AcDbArc
 50
270.0
 51
0.0
  0
ARC
  5
4F
330
46
100
AcDbEntity
  8
0
  6
Continuous
 62
     7
370
     0
100
AcDbCircle
 10
-1775.2437764562
 20
-437.8290234302
 30
0.0
 40
20.46955412487762
100
AcDbArc
 50
180.0
 51
270.0
  0
ARC
  5
50
330
46
100
AcDbEntity
  8
0
  6
Continuous
 62
     7
370
     0
100
AcDbCircle
 10
-1775.2437764562
 20
437.8290234317
 30
0.0
 40
20.46955412487785
100
AcDbArc
 50
90.0
 51
180.0
  0
ARC
  5
51
330
46
100
AcDbEntity
  8
0
  6
Continuous
 62
     7
370
     0
100
AcDbCircle
 10
273.7504665449
 20
598.8614812289
 30
0.0
 40
35.62761368349846
100
AcDbArc
 50
38.8556584896
 51
105.8183764148
  0
ARC
  5
52
330
46
100
AcDbEntity
  8
0
  6
Continuous
 62
     7
370
     0
100
AcDbCircle
 10
604.2801104592
 20
693.8639124127
 30
0.0
 40
35.62761368349815
100
AcDbArc
 50
106.1668587455
 51
171.8012460536
  0
ARC
  5
53
330
46
100
AcDbEntity
  8
0
  6
Continuous
 62
     7
370
     0
100
AcDbCircle
 10
905.7459044969
 20
781.2587603884
 30
0.0
 40
35.62761368349857
100
AcDbArc
 50
347.4974268902
 51
106.1668587455
  0
ARC
  5
54
330
46
100
AcDbEntity
  8
0
  6
Continuous
 62
     7
370
     0
100
AcDbCircle
 10
978.923471261
 20
291.6141658775
 30
0.0
 40
35.62761368350721
100
AcDbArc
 50
180.0
 51
270.0
  0
ARC
  5
55
330
46
100
AcDbEntity
  8
0
  6
Continuous
 62
     7
370
     0
100
AcDbCircle
 10
978.923471261
 20
422.5043183007
 30
0.0
 40
35.62761368352926
100
AcDbArc
 50
90.0
 51
180.0
  0
ARC
  5
56
330
46
100
AcDbEntity
  8
0
  6
Continuous
 62
     7
370
     0
100
AcDbCircle
 10
1774.8734010732
 20
437.6623778593
 30
0.0
 40
20.46955412487767
100
AcDbArc
 50
0.0
 51
90.0
  0
ARC
  5
57
330
46
100
AcDbEntity
  8
0
  6
Continuous
 62
     7
370
     0
100
AcDbCircle
 10
1774.8734010732
 20
276.8465881355
 30
0.0
 40
20.46955412487756
100
AcDbArc
 50
270.0
 51
0.0
  0
ARC
  5
58
330
46
100
AcDbEntity
  8
0
  6
Continuous
 62
     7
370
     0
100
AcDbCircle
 10
1586.1281146836
 20
-423.5855275187
 30
0.0
 40
35.62761368349857
100
AcDbArc
 50
270.0
 51
0.0
  0
ARC
  5
59
330
46
100
AcDbEntity
  8
0
  6
Continuous
 62
     7
370
     0
100
AcDbCircle
 10
997.8332858737
 20
-580.3602954418
 30
0.0
 40
35.62761368353062
100
AcDbArc
 50
219.5992848036
 51
286.1919412867
  0
ARC
  5
5A
330
46
100
AcDbEntity
  8
0
  6
Continuous
 62
     7
370
     0
100
AcDbCircle
 10
598.2914840963
 20
-693.766887036
 30
0.0
 40
35.62761368349779
100
AcDbArc
 50
286.0985506514
 51
351.7882282766
  0
ARC
  5
5B
330
46
100
AcDbEntity
  8
0
  6
Continuous
 62
     7
370
     0
100
AcDbCircle
 10
278.1330387818
 20
-786.1671005913
 30
0.0
 40
35.62761368352944
100
AcDbArc
 50
166.6872067774
 51
286.0985506513
  0
ARC
  5
5C
330
46
100
AcDbEntity
  8
0
  6
Continuous
 62
     7
370
     0
100
AcDbCircle
 10
63.5912815337
 20
73.5879902946
 30
0.0
 40
35.62761368350465
100
AcDbArc
 50
0.0
 51
90.0
  0
ARC
  5
5D
330
46
100
AcDbEntity
  8
0
  6
Continuous
 62
     7
370
     0
100
AcDbCircle
 10
63.5912815337
 20
-51.5698150553
 30
0.0
 40
35.62761368350699
100
AcDbArc
 50
270.0
 51
0.0
  0
ARC
  5
5E
330
46
100
AcDbEntity
  8
0
  6
Continuous
 62
     7
370
     0
100
AcDbCircle
 10
219.1309173284
 20
-287.598587012
 30
0.0
 40
35.62761368349848
100
AcDbArc
 50
0.0
 51
90.0
  0
ARC
  5
5F
330
46
100
AcDbEntity
  8
0
  6
Continuous
 62
     7
370
     0
100
AcDbCircle
 10
219.1309173284
 20
-423.7014330253
 30
0.0
 40
35.6276136834864
100
AcDbArc
 50
270.0
 51
0.0
  0
ARC
  5
60
330
46
100
AcDbEntity
  8
0
  6
Continuous
 62
     7
370
     0
100
AcDbCircle
 10
-716.7680027826
 20
-423.7014330253
 30
0.0
 40
35.62761368349868
100
AcDbArc
 50
180.0
 51
270.0
  0
ARC
  5
61
330
46
100
AcDbEntity
  8
0
  6
Continuous
 62
     7
370
     0
100
AcDbCircle
 10
-716.7680027826
 20
423.1800330044
 30
0.0
 40
35.62761368351687
100
AcDbArc
 50
90.0
 51
180.0
  0
ARC
  5
62
330
46
100
AcDbEntity
  8
0
  6
Continuous
 62
     7
370
     0
100
AcDbCircle
 10
751.1693702587
 20
84.1572284311
 30
0.0
 40
75.62761368389583
100
AcDbArc
 50
167.4974268903
 51
224.796493861
  0
ARC
  5
63
330
46
100
AcDbEntity
  8
0
  6
Continuous
 62
     7
370
     0
100
AcDbCircle
 10
671.5727689264
 20
-185.9690548709
 30
0.0
 40
75.62761368389594
100
AcDbArc
 50
39.5992848035
 51
171.7882282765
  0
ARC
  5
64
330
46
100
AcDbEntity
  8
0
  6
Continuous
 62
     7
370
     0
100
AcDbCircle
 10
464.4284846463
 20
1.1328478898
 30
0.0
 40
75.62761368391911
100
AcDbArc
 50
346.6872067774
 51
44.28188045
  0
ARC
  5
65
330
46
100
AcDbEntity
  8
0
  6
Continuous
 62
     7
370
     0
100
AcDbCircle
 10
542.5238335845
 20
265.2390096659
 30
0.0
 40
75.62761368389592
100
AcDbArc
 50
218.8556584896
 51
351.8012460535
  0
ARC
  5
66
330
46
100
AcDbEntity
  8
0
  6
Continuous
 62
     7
370
     0
100
AcDbCircle
 10
-883.6670100843
 20
-422.6709638716
 30
0.0
 40
55.6276136836683
100
AcDbArc
 50
270.0
 51
0.0
  0
ARC
  5
67
330
46
100
AcDbEntity
  8
0
  6
Continuous
 62
     7
370
     0
100
AcDbCircle
 10
-1213.6286423958
 20
-422.6709638716
 30
0.0
 40
55.62761368366832
100
AcDbArc
 50
215.8239333713
 51
270.0
  0
ARC
  5
68
330
46
100
AcDbEntity
  8
0
  6
Continuous
 62
     7
370
     0
100
AcDbCircle
 10
-1700.7949027296
 20
-422.6709638716
 30
0.0
 40
55.62761368366824
100
AcDbArc
 50
270.0
 51
0.0
  0
ARC
  5
69
330
46
100
AcDbEntity
  8
0
  6
Continuous
 62
     7
370
     0
100
AcDbCircle
 10
-1775.2437764562
 20
-437.8290234302
 30
0.0
 40
40.46955412504764
100
AcDbArc
 50
180.0
 51
270.0
  0
ARC
  5
6A
330
46
100
AcDbEntity
  8
0
  6
Continuous
 62
     7
370
     0
100
AcDbCircle
 10
-1775.2437764562
 20
437.8290234317
 30
0.0
 40
40.46955412504764
100
AcDbArc
 50
90.0
 51
180.0
  0
ARC
  5
6B
330
46
100
AcDbEntity
  8
0
  6
Continuous
 62
     7
370
     0
100
AcDbCircle
 10
-1587.1800722805
 20
422.6709638731
 30
0.0
 40
55.62761368366836
100
AcDbArc
 50
33.8993301947
 51
90.0
  0
ARC
  5
6C
330
46
100
AcDbEntity
  8
0
  6
Continuous
 62
     7
370
     0
100
AcDbCircle
 10
-1131.6851711632
 20
422.6709638731
 30
0.0
 40
55.6276136836683
100
AcDbArc
 50
90.0
 51
180.0
  0
ARC
  5
6D
330
46
100
AcDbEntity
  8
0
  6
Continuous
 62
     7
370
     0
100
AcDbCircle
 10
-883.6670100843
 20
422.6709638731
 30
0.0
 40
55.62761368366819
100
AcDbArc
 50
0.0
 51
90.0
  0
ARC
  5
6E
330
46
100
AcDbEntity
  8
0
  6
Continuous
 62
     7
370
     0
100
AcDbCircle
 10
751.1693702587
 20
84.1572284311
 30
0.0
 40
55.62761368366852
100
AcDbArc
 50
167.4974268903
 51
224.796493861
  0
ARC
  5
6F
330
46
100
AcDbEntity
  8
0
  6
Continuous
 62
     7
370
     0
100
AcDbCircle
 10
542.5238335845
 20
265.2390096659
 30
0.0
 40
55.62761368366862
100
AcDbArc
 50
218.8556584895
 51
351.8012460535
  0
ARC
  5
70
330
46
100
AcDbEntity
  8
0
  6
Continuous
 62
     7
370
     0
100
AcDbCircle
 10
464.4284846463
 20
1.1328478898
 30
0.0
 40
55.62761368368375
100
AcDbArc
 50
346.6872067774
 51
44.2818804499
  0
ARC
  5
71
330
46
100
AcDbEntity
  8
0
  6
Continuous
 62
     7
370
     0
100
AcDbCircle
 10
671.5727689264
 20
-185.9690548709
 30
0.0
 40
55.62761368366825
100
AcDbArc
 50
39.5992848036
 51
171.7882282766
  0
ARC
  5
72
330
46
100
AcDbEntity
  8
0
  6
Continuous
 62
     7
370
     0
100
AcDbCircle
 10
219.1309173284
 20
-287.598587012
 30
0.0
 40
55.62761368366822
100
AcDbArc
 50
0.0
 51
90.0
  0
ARC
  5
73
330
46
100
AcDbEntity
  8
0
  6
Continuous
 62
     7
370
     0
100
AcDbCircle
 10
63.5912815337
 20
-51.5698150553
 30
0.0
 40
55.62761368370145
100
AcDbArc
 50
270.0
 51
0.0
  0
ARC
  5
74
330
46
100
AcDbEntity
  8
0
  6
Continuous
 62
     7
370
     0
100
AcDbCircle
 10
63.5912815337
 20
73.5879902946
 30
0.0
 40
55.62761368370145
100
AcDbArc
 50
0.0
 51
90.0
  0
ARC
  5
75
330
46
100
AcDbEntity
  8
0
  6
Continuous
 62
     7
370
     0
100
AcDbCircle
 10
278.1330387818
 20
-786.1671005913
 30
0.0
 40
55.6276136836991
100
AcDbArc
 50
166.6872067774
 51
286.0985506513
  0
ARC
  5
76
330
46
100
AcDbEntity
  8
0
  6
Continuous
 62
     7
370
     0
100
AcDbCircle
 10
598.2914840963
 20
-693.766887036
 30
0.0
 40
55.6276136836682
100
AcDbArc
 50
286.0985506514
 51
351.7882282766
  0
ARC
  5
77
330
46
100
AcDbEntity
  8
0
  6
Continuous
 62
     7
370
     0
100
AcDbCircle
 10
997.8332858737
 20
-580.3602954418
 30
0.0
 40
55.62761368370253
100
AcDbArc
 50
219.5992848036
 51
286.1919412867
  0
ARC
  5
78
330
46
100
AcDbEntity
  8
0
  6
Continuous
 62
     7
370
     0
100
AcDbCircle
 10
1586.1281146836
 20
-423.5855275187
 30
0.0
 40
55.62761368366864
100
AcDbArc
 50
270.0
 51
0.0
  0
ARC
  5
79
330
46
100
AcDbEntity
  8
0
  6
Continuous
 62
     7
370
     0
100
AcDbCircle
 10
1774.8734010732
 20
276.8465881355
 30
0.0
 40
40.46955412504767
100
AcDbArc
 50
270.0
 51
0.0
  0
ARC
  5
7A
330
46
100
AcDbEntity
  8
0
  6
Continuous
 62
     7
370
     0
100
AcDbCircle
 10
1774.8734010732
 20
437.6623778593
 30
0.0
 40
40.46955412504775
100
AcDbArc
 50
0.0
 51
90.0
  0
ARC
  5
7B
330
46
100
AcDbEntity
  8
0
  6
Continuous
 62
     7
370
     0
100
AcDbCircle
 10
978.923471261
 20
422.5043183007
 30
0.0
 40
55.62761368369934
100
AcDbArc
 50
90.0
 51
180.0
  0
ARC
  5
7C
330
46
100
AcDbEntity
  8
0
  6
Continuous
 62
     7
370
     0
100
AcDbCircle
 10
978.923471261
 20
291.6141658775
 30
0.0
 40
55.62761368369922
100
AcDbArc
 50
180.0
 51
270.0
  0
ARC
  5
7D
330
46
100
AcDbEntity
  8
0
  6
Continuous
 62
     7
370
     0
100
AcDbCircle
 10
905.7459044969
 20
781.2587603884
 30
0.0
 40
55.62761368366819
100
AcDbArc
 50
347.4974268903
 51
106.1668587455
  0
ARC
  5
7E
330
46
100
AcDbEntity
  8
0
  6
Continuous
 62
     7
370
     0
100
AcDbCircle
 10
604.2801104592
 20
693.8639124127
 30
0.0
 40
55.6276136836683
100
AcDbArc
 50
106.1668587455
 51
171.8012460535
  0
ARC
  5
7F
330
46
100
AcDbEntity
  8
0
  6
Continuous
 62
     7
370
     0
100
AcDbCircle
 10
273.7504665449
 20
598.8614812289
 30
0.0
 40
55.62761368366799
100
AcDbArc
 50
38.8556584895
 51
105.8183764146
  0
ARC
  5
80
330
46
100
AcDbEntity
  8
0
  6
Continuous
 62
     7
370
     0
100
AcDbCircle
 10
-716.7680027826
 20
423.1800330044
 30
0.0
 40
55.62761368369939
100
AcDbArc
 50
90.0
 51
180.0
  0
ARC
  5
81
330
46
100
AcDbEntity
  8
0
  6
Continuous
 62
     7
370
     0
100
AcDbCircle
 10
-716.7680027826
 20
-423.7014330253
 30
0.0
 40
55.62761368366853
100
AcDbArc
 50
180.0
 51
270.0
  0
ARC
  5
82
330
46
100
AcDbEntity
  8
0
  6
Continuous
 62
     7
370
     0
100
AcDbCircle
 10
219.1309173284
 20
-423.7014330253
 30
0.0
 40
55.62761368369945
100
AcDbArc
 50
270.0
 51
0.0
  0
LINE
  5
83
330
46
100
AcDbEntity
  8
0
  6
Continuous
 62
     7
370
     0
100
AcDbLine
 10
-1775.2437764562
 20
458.2985775566
 30
0.0
 11
-1587.1800722805
 21
458.2985775566
 31
0.0
  0
LINE
  5
84
330
46
100
AcDbEntity
  8
0
  6
Continuous
 62
     7
370
     0
100
AcDbLine
 10
-1557.608482937
 20
442.5417454501
 30
0.0
 11
-1167.3127848467
 21
-138.2941950862
 31
0.0
  0
LINE
  5
85
330
46
100
AcDbEntity
  8
0
  6
Continuous
 62
     7
370
     0
100
AcDbLine
 10
-1167.3127848467
 20
422.6709638731
 30
0.0
 11
-1167.3127848467
 21
-138.2941950862
 31
0.0
  0
LINE
  5
86
330
46
100
AcDbEntity
  8
0
  6
Continuous
 62
     7
370
     0
100
AcDbLine
 10
-1131.6851711632
 20
458.2985775566
 30
0.0
 11
-883.6670100843
 21
458.2985775566
 31
0.0
  0
LINE
  5
87
330
46
100
AcDbEntity
  8
0
  6
Continuous
 62
     7
370
     0
100
AcDbLine
 10
-848.0393964008
 20
422.6709638731
 30
0.0
 11
-848.0393964008
 21
-422.6709638716
 31
0.0
  0
LINE
  5
88
330
46
100
AcDbEntity
  8
0
  6
Continuous
 62
     7
370
     0
100
AcDbLine
 10
-883.6670100843
 20
-458.2985775551
 30
0.0
 11
-1213.6286423958
 21
-458.2985775551
 31
0.0
  0
LINE
  5
89
330
46
100
AcDbEntity
  8
0
  6
Continuous
 62
     7
370
     0
100
AcDbLine
 10
-1665.1672890461
 20
141.98084568
 30
0.0
 11
-1242.5162028167
 21
-443.5236785561
 31
0.0
  0
LINE
  5
8A
330
46
100
AcDbEntity
  8
0
  6
Continuous
 62
     7
370
     0
100
AcDbLine
 10
-1665.1672890461
 20
-422.6709638716
 30
0.0
 11
-1665.1672890461
 21
141.98084568
 31
0.0
  0
LINE
  5
8B
330
46
100
AcDbEntity
  8
0
  6
Continuous
 62
     7
370
     0
100
AcDbLine
 10
-1775.2437764562
 20
-458.2985775551
 30
0.0
 11
-1700.7949027296
 21
-458.2985775551
 31
0.0
  0
LINE
  5
8C
330
46
100
AcDbEntity
  8
0
  6
Continuous
 62
     7
370
     0
100
AcDbLine
 10
-1795.713330581
 20
-437.8290234302
 30
0.0
 11
-1795.713330581
 21
437.8290234317
 31
0.0
  0
LINE
  5
8D
330
46
100
AcDbEntity
  8
0
  6
Continuous
 62
     7
370
     0
100
AcDbLine
 10
-716.7680027826
 20
458.8076466879
 30
0.0
 11
-27.5292825723
 21
458.8076466879
 31
0.0
  0
LINE
  5
8E
330
46
100
AcDbEntity
  8
0
  6
Continuous
 62
     7
370
     0
100
AcDbLine
 10
-27.5292825723
 20
458.8076466879
 30
0.0
 11
-99.0477677645
 21
530.2709748739
 31
0.0
  0
LINE
  5
8F
330
46
100
AcDbEntity
  8
0
  6
Continuous
 62
     7
370
     0
100
AcDbLine
 10
-99.0477677645
 20
530.2709748739
 30
0.0
 11
264.0387765096
 21
633.1398991247
 31
0.0
  0
LINE
  5
90
330
46
100
AcDbEntity
  8
0
  6
Continuous
 62
     7
370
     0
100
AcDbLine
 10
301.4947189366
 20
621.2128417246
 30
0.0
 11
518.9301531369
 21
351.3150175393
 31
0.0
  0
LINE
  5
91
330
46
100
AcDbEntity
  8
0
  6
Continuous
 62
     7
370
     0
100
AcDbLine
 10
518.9301531369
 20
351.3150175393
 30
0.0
 11
569.0166347679
 21
698.9446740632
 31
0.0
  0
LINE
  5
92
330
46
100
AcDbEntity
  8
0
  6
Continuous
 62
     7
370
     0
100
AcDbLine
 10
594.3601143785
 20
728.0826285566
 30
0.0
 11
895.8259084162
 21
815.4774765323
 31
0.0
  0
LINE
  5
93
330
46
100
AcDbEntity
  8
0
  6
Continuous
 62
     7
370
     0
100
AcDbLine
 10
940.5286551389
 20
773.5459713626
 30
0.0
 11
790.1659240582
 21
95.4476383795
 31
0.0
  0
LINE
  5
94
330
46
100
AcDbEntity
  8
0
  6
Continuous
 62
     7
370
     0
100
AcDbLine
 10
790.1659240582
 20
95.4476383795
 30
0.0
 11
1290.4292889099
 21
-408.3821318021
 31
0.0
  0
LINE
  5
95
330
46
100
AcDbEntity
  8
0
  6
Continuous
 62
     7
370
     0
100
AcDbLine
 10
1290.4292889099
 20
-408.3821318021
 30
0.0
 11
1290.4292889099
 21
255.986552194
 31
0.0
  0
LINE
  5
96
330
46
100
AcDbEntity
  8
0
  6
Continuous
 62
     7
370
     0
100
AcDbLine
 10
1290.4292889099
 20
255.986552194
 30
0.0
 11
978.923471261
 21
255.986552194
 31
0.0
  0
LINE
  5
97
330
46
100
AcDbEntity
  8
0
  6
Continuous
 62
     7
370
     0
100
AcDbLine
 10
943.2958575775
 20
291.6141658775
 30
0.0
 11
943.2958575775
 21
422.5043183007
 31
0.0
  0
LINE
  5
98
330
46
100
AcDbEntity
  8
0
  6
Continuous
 62
     7
370
     0
100
AcDbLine
 10
978.923471261
 20
458.1319319842
 30
0.0
 11
1774.8734010732
 21
458.1319319842
 31
0.0
  0
LINE
  5
99
330
46
100
AcDbEntity
  8
0
  6
Continuous
 62
     7
370
     0
100
AcDbLine
 10
1795.342955198
 20
437.6623778593
 30
0.0
 11
1795.342955198
 21
276.8465881355
 31
0.0
  0
LINE
  5
9A
330
46
100
AcDbEntity
  8
0
  6
Continuous
 62
     7
370
     0
100
AcDbLine
 10
1774.8734010732
 20
256.3770340107
 30
0.0
 11
1621.7557283671
 21
256.3770340107
 31
0.0
  0
LINE
  5
9B
330
46
100
AcDbEntity
  8
0
  6
Continuous
 62
     7
370
     0
100
AcDbLine
 10
1621.7557283671
 20
256.3770340107
 30
0.0
 11
1621.7557283671
 21
-423.5855275187
 31
0.0
  0
LINE
  5
9C
330
46
100
AcDbEntity
  8
0
  6
Continuous
 62
     7
370
     0
100
AcDbLine
 10
1586.1281146836
 20
-459.2131412022
 30
0.0
 11
1339.6695201832
 21
-459.2131412022
 31
0.0
  0
LINE
  5
9D
330
46
100
AcDbEntity
  8
0
  6
Continuous
 62
     7
370
     0
100
AcDbLine
 10
1339.6695201832
 20
-459.2131412022
 30
0.0
 11
1385.4091054823
 21
-504.9174545962
 31
0.0
  0
LINE
  5
9E
330
46
100
AcDbEntity
  8
0
  6
Continuous
 62
     7
370
     0
100
AcDbLine
 10
1385.4091054823
 20
-504.9174545962
 30
0.0
 11
1007.7682610309
 21
-614.5746656012
 31
0.0
  0
LINE
  5
9F
330
46
100
AcDbEntity
  8
0
  6
Continuous
 62
     7
370
     0
100
AcDbLine
 10
970.3814542472
 20
-603.0698484346
 30
0.0
 11
695.3546099506
 21
-270.611053459
 31
0.0
  0
LINE
  5
A0
330
46
100
AcDbEntity
  8
0
  6
Continuous
 62
     7
370
     0
100
AcDbLine
 10
695.3546099506
 20
-270.611053459
 30
0.0
 11
633.5538045128
 21
-698.8556605253
 31
0.0
  0
LINE
  5
A1
330
46
100
AcDbEntity
  8
0
  6
Continuous
 62
     7
370
     0
100
AcDbLine
 10
608.1706775441
 20
-727.9974054896
 30
0.0
 11
288.0122322296
 21
-820.3976190449
 31
0.0
  0
LINE
  5
A2
330
46
100
AcDbEntity
  8
0
  6
Continuous
 62
     7
370
     0
100
AcDbLine
 10
243.4628287838
 20
-777.9632359241
 30
0.0
 11
425.2486584403
 21
-9.7212981838
 31
0.0
  0
LINE
  5
A3
330
46
100
AcDbEntity
  8
0
  6
Continuous
 62
     7
370
     0
100
AcDbLine
 10
425.2486584403
 20
-9.7212981838
 30
0.0
 11
159.2646243592
 21
263.0151701683
 31
0.0
  0
LINE
  5
A4
330
46
100
AcDbEntity
  8
0
  6
Continuous
 62
     7
370
     0
100
AcDbLine
 10
-419.9767730238
 20
263.0151701683
 30
0.0
 11
159.2646243592
 21
263.0151701683
 31
0.0
  0
LINE
  5
A5
330
46
100
AcDbEntity
  8
0
  6
Continuous
 62
     7
370
     0
100
AcDbLine
 10
-419.9767730238
 20
109.2156039781
 30
0.0
 11
-419.9767730238
 21
263.0151701683
 31
0.0
  0
LINE
  5
A6
330
46
100
AcDbEntity
  8
0
  6
Continuous
 62
     7
370
     0
100
AcDbLine
 10
63.5912815337
 20
109.2156039781
 30
0.0
 11
-419.9767730238
 21
109.2156039781
 31
0.0
  0
LINE
  5
A7
330
46
100
AcDbEntity
  8
0
  6
Continuous
 62
     7
370
     0
100
AcDbLine
 10
99.2188952172
 20
-51.5698150553
 30
0.0
 11
99.2188952172
 21
73.5879902946
 31
0.0
  0
LINE
  5
A8
330
46
100
AcDbEntity
  8
0
  6
Continuous
 62
     7
370
     0
100
AcDbLine
 10
-419.9767730238
 20
-87.1974287388
 30
0.0
 11
63.5912815337
 21
-87.1974287388
 31
0.0
  0
LINE
  5
A9
330
46
100
AcDbEntity
  8
0
  6
Continuous
 62
     7
370
     0
100
AcDbLine
 10
-419.9767730238
 20
-251.9709733285
 30
0.0
 11
-419.9767730238
 21
-87.1974287388
 31
0.0
  0
LINE
  5
AA
330
46
100
AcDbEntity
  8
0
  6
Continuous
 62
     7
370
     0
100
AcDbLine
 10
219.1309173284
 20
-251.9709733285
 30
0.0
 11
-419.9767730238
 21
-251.9709733285
 31
0.0
  0
LINE
  5
AB
330
46
100
AcDbEntity
  8
0
  6
Continuous
 62
     7
370
     0
100
AcDbLine
 10
254.7585310119
 20
-423.7014330253
 30
0.0
 11
254.7585310119
 21
-287.598587012
 31
0.0
  0
LINE
  5
AC
330
46
100
AcDbEntity
  8
0
  6
Continuous
 62
     7
370
     0
100
AcDbLine
 10
-716.7680027826
 20
-459.3290467088
 30
0.0
 11
219.1309173284
 21
-459.3290467088
 31
0.0
  0
LINE
  5
AD
330
46
100
AcDbEntity
  8
0
  6
Continuous
 62
     7
370
     0
100
AcDbLine
 10
-752.3956164661
 20
423.1800330044
 30
0.0
 11
-752.3956164661
 21
-423.7014330253
 31
0.0
  0
LINE
  5
AE
330
46
100
AcDbEntity
  8
0
  6
Continuous
 62
     7
370
     0
100
AcDbLine
 10
804.2998003838
 20
673.1081113756
 30
0.0
 11
677.3351681763
 21
100.5293557941
 31
0.0
  0
LINE
  5
AF
330
46
100
AcDbEntity
  8
0
  6
Continuous
 62
     7
370
     0
100
AcDbLine
 10
697.5029678163
 20
30.8707085559
 30
0.0
 11
1175.1030802751
 21
-450.1342416968
 31
0.0
  0
LINE
  5
B0
330
46
100
AcDbEntity
  8
0
  6
Continuous
 62
     7
370
     0
100
AcDbLine
 10
1175.1030802751
 20
-450.1342416968
 30
0.0
 11
1024.4448801484
 21
-493.8815171312
 31
0.0
  0
LINE
  5
B1
330
46
100
AcDbEntity
  8
0
  6
Continuous
 62
     7
370
     0
100
AcDbLine
 10
1024.4448801484
 20
-493.8815171312
 30
0.0
 11
729.8454485285
 21
-137.7629270083
 31
0.0
  0
LINE
  5
B2
330
46
100
AcDbEntity
  8
0
  6
Continuous
 62
     7
370
     0
100
AcDbLine
 10
596.7205722638
 20
-175.1669899616
 30
0.0
 11
530.4127137476
 21
-634.642924201
 31
0.0
  0
LINE
  5
B3
330
46
100
AcDbEntity
  8
0
  6
Continuous
 62
     7
370
     0
100
AcDbLine
 10
530.4127137476
 20
-634.642924201
 30
0.0
 11
381.5365450752
 21
-677.6097425998
 31
0.0
  0
LINE
  5
B4
330
46
100
AcDbEntity
  8
0
  6
Continuous
 62
     7
370
     0
100
AcDbLine
 10
381.5365450752
 20
-677.6097425998
 30
0.0
 11
538.0237939297
 21
-16.2816978407
 31
0.0
  0
LINE
  5
B5
330
46
100
AcDbEntity
  8
0
  6
Continuous
 62
     7
370
     0
100
AcDbLine
 10
518.5713194598
 20
53.9352094836
 30
0.0
 11
109.2473797304
 21
473.6504984412
 31
0.0
  0
LINE
  5
B6
330
46
100
AcDbEntity
  8
0
  6
Continuous
 62
     7
370
     0
100
AcDbLine
 10
109.2473797304
 20
473.6504984412
 30
0.0
 11
246.2385432832
 21
512.4625498621
 31
0.0
  0
LINE
  5
B7
330
46
100
AcDbEntity
  8
0
  6
Continuous
 62
     7
370
     0
100
AcDbLine
 10
246.2385432832
 20
512.4625498621
 30
0.0
 11
483.6304252168
 21
217.7932258452
 31
0.0
  0
LINE
  5
B8
330
46
100
AcDbEntity
  8
0
  6
Continuous
 62
     7
370
     0
100
AcDbLine
 10
617.3784825774
 20
254.453951684
 30
0.0
 11
672.1796823774
 21
634.8065267316
 31
0.0
  0
LINE
  5
B9
330
46
100
AcDbEntity
  8
0
  6
Continuous
 62
     7
370
     0
100
AcDbLine
 10
672.1796823774
 20
634.8065267316
 30
0.0
 11
804.2998003838
 21
673.1081113756
 31
0.0
  0
LINE
  5
BA
330
46
100
AcDbEntity
  8
0
  6
Continuous
 62
     7
370
     0
100
AcDbLine
 10
1955.2327139547
 20
478.1319319843
 30
0.0
 11
1986.2593721161
 21
478.1319319843
 31
0.0
  0
LINE
  5
BB
330
46
100
AcDbEntity
  8
0
  6
Continuous
 62
     7
370
     0
100
AcDbLine
 10
1986.2593721161
 20
478.1319319843
 30
0.0
 11
1986.2593721161
 21
236.3770340105
 31
0.0
  0
LINE
  5
BC
330
46
100
AcDbEntity
  8
0
  6
Continuous
 62
     7
370
     0
100
AcDbLine
 10
1955.2327139547
 20
236.3770340105
 30
0.0
 11
1986.2593721161
 21
236.3770340105
 31
0.0
  0
LINE
  5
BD
330
46
100
AcDbEntity
  8
0
  6
Continuous
 62
     7
370
     0
100
AcDbLine
 10
1955.2327139547
 20
478.1319319843
 30
0.0
 11
1955.2327139547
 21
236.3770340105
 31
0.0
  0
LINE
  5
BE
330
46
100
AcDbEntity
  8
0
  6
Continuous
 62
     7
370
     0
100
AcDbLine
 10
-1986.2593721163
 20
478.2985775568
 30
0.0
 11
-1986.2593721163
 21
-478.2985775552
 31
0.0
  0
LINE
  5
BF
330
46
100
AcDbEntity
  8
0
  6
Continuous
 62
     7
370
     0
100
AcDbLine
 10
-1955.2327139549
 20
-478.2985775552
 30
0.0
 11
-1986.2593721163
 21
-478.2985775552
 31
0.0
  0
LINE
  5
C0
330
46
100
AcDbEntity
  8
0
  6
Continuous
 62
     7
370
     0
100
AcDbLine
 10
-1955.2327139549
 20
478.2985775568
 30
0.0
 11
-1955.2327139549
 21
-478.2985775552
 31
0.0
  0
LINE
  5
C1
330
46
100
AcDbEntity
  8
0
  6
Continuous
 62
     7
370
     0
100
AcDbLine
 10
-1955.2327139549
 20
478.2985775568
 30
0.0
 11
-1986.2593721163
 21
478.2985775568
 31
0.0
  0
LINE
  5
C2
330
46
100
AcDbEntity
  8
0
  6
Continuous
 62
     7
370
     0
100
AcDbLine
 10
1875.6425908404
 20
478.1319319843
 30
0.0
 11
1875.6425908404
 21
236.3770340105
 31
0.0
  0
LINE
  5
C3
330
46
100
AcDbEntity
  8
0
  6
Continuous
 62
     7
370
     0
100
AcDbLine
 10
1844.2112371367
 20
236.3770340105
 30
0.0
 11
1875.6425908404
 21
236.3770340105
 31
0.0
  0
LINE
  5
C4
330
46
100
AcDbEntity
  8
0
  6
Continuous
 62
     7
370
     0
100
AcDbLine
 10
1844.2112371367
 20
478.1319319843
 30
0.0
 11
1844.2112371367
 21
236.3770340105
 31
0.0
  0
LINE
  5
C5
330
46
100
AcDbEntity
  8
0
  6
Continuous
 62
     7
370
     0
100
AcDbLine
 10
1844.2112371367
 20
478.1319319843
 30
0.0
 11
1875.6425908404
 21
478.1319319843
 31
0.0
  0
LINE
  5
C6
330
46
100
AcDbEntity
  8
0
  6
Continuous
 62
     7
370
     0
100
AcDbLine
 10
1899.9243233154
 20
478.1319319843
 30
0.0
 11
1930.9509814768
 21
478.1319319843
 31
0.0
  0
LINE
  5
C7
330
46
100
AcDbEntity
  8
0
  6
Continuous
 62
     7
370
     0
100
AcDbLine
 10
1930.9509814768
 20
478.1319319843
 30
0.0
 11
1930.9509814768
 21
236.3770340105
 31
0.0
  0
LINE
  5
C8
330
46
100
AcDbEntity
  8
0
  6
Continuous
 62
     7
370
     0
100
AcDbLine
 10
1899.9243233154
 20
236.3770340105
 30
0.0
 11
1930.9509814768
 21
236.3770340105
 31
0.0
  0
LINE
  5
C9
330
46
100
AcDbEntity
  8
0
  6
Continuous
 62
     7
370
     0
100
AcDbLine
 10
1899.9243233154
 20
478.1319319843
 30
0.0
 11
1899.9243233154
 21
236.3770340105
 31
0.0
  0
LINE
  5
CA
330
46
100
AcDbEntity
  8
0
  6
Continuous
 62
     7
370
     0
100
AcDbLine
 10
-828.0393964006
 20
422.6709638731
 30
0.0
 11
-828.0393964006
 21
-422.6709638716
 31
0.0
  0
LINE
  5
CB
330
46
100
AcDbEntity
  8
0
  6
Continuous
 62
     7
370
     0
100
AcDbLine
 10
-883.6670100843
 20
-478.2985775552
 30
0.0
 11
-1213.6286423958
 21
-478.2985775552
 31
0.0
  0
LINE
  5
CC
330
46
100
AcDbEntity
  8
0
  6
Continuous
 62
     7
370
     0
100
AcDbLine
 10
-1645.1672890459
 20
80.1038430154
 30
0.0
 11
-1258.7325908564
 21
-455.2296069238
 31
0.0
  0
LINE
  5
CD
330
46
100
AcDbEntity
  8
0
  6
Continuous
 62
     7
370
     0
100
AcDbLine
 10
-1645.1672890459
 20
-422.6709638716
 30
0.0
 11
-1645.1672890459
 21
80.1038430154
 31
0.0
  0
LINE
  5
CE
330
46
100
AcDbEntity
  8
0
  6
Continuous
 62
     7
370
     0
100
AcDbLine
 10
-1775.2437764562
 20
-478.2985775552
 30
0.0
 11
-1700.7949027296
 21
-478.2985775552
 31
0.0
  0
LINE
  5
CF
330
46
100
AcDbEntity
  8
0
  6
Continuous
 62
     7
370
     0
100
AcDbLine
 10
-1815.7133305812
 20
-437.8290234302
 30
0.0
 11
-1815.7133305812
 21
437.8290234317
 31
0.0
  0
LINE
  5
D0
330
46
100
AcDbEntity
  8
0
  6
Continuous
 62
     7
370
     0
100
AcDbLine
 10
-1775.2437764562
 20
478.2985775568
 30
0.0
 11
-1587.1800722805
 21
478.2985775568
 31
0.0
  0
LINE
  5
D1
330
46
100
AcDbEntity
  8
0
  6
Continuous
 62
     7
370
     0
100
AcDbLine
 10
-1541.0081068318
 20
453.696453567
 30
0.0
 11
-1187.3127848469
 21
-72.6710058069
 31
0.0
  0
LINE
  5
D2
330
46
100
AcDbEntity
  8
0
  6
Continuous
 62
     7
370
     0
100
AcDbLine
 10
-1187.3127848469
 20
422.6709638731
 30
0.0
 11
-1187.3127848469
 21
-72.6710058069
 31
0.0
  0
LINE
  5
D3
330
46
100
AcDbEntity
  8
0
  6
Continuous
 62
     7
370
     0
100
AcDbLine
 10
-1131.6851711632
 20
478.2985775568
 30
0.0
 11
-883.6670100843
 21
478.2985775568
 31
0.0
  0
LINE
  5
D4
330
46
100
AcDbEntity
  8
0
  6
Continuous
 62
     7
370
     0
100
AcDbLine
 10
1017.407346375
 20
-516.7511474419
 30
0.0
 11
714.4350245406
 21
-150.5112144433
 31
0.0
  0
LINE
  5
D5
330
46
100
AcDbEntity
  8
0
  6
Continuous
 62
     7
370
     0
100
AcDbLine
 10
1213.0308279912
 20
-459.9471080694
 30
0.0
 11
1017.407346375
 21
-516.7511474419
 31
0.0
  0
LINE
  5
D6
330
46
100
AcDbEntity
  8
0
  6
Continuous
 62
     7
370
     0
100
AcDbLine
 10
711.6952449037
 20
44.9625243042
 30
0.0
 11
1213.0308279912
 21
-459.9471080694
 31
0.0
  0
LINE
  5
D7
330
46
100
AcDbEntity
  8
0
  6
Continuous
 62
     7
370
     0
100
AcDbLine
 10
831.1275949348
 20
701.7089474319
 30
0.0
 11
696.8608938965
 21
96.1996866255
 31
0.0
  0
LINE
  5
D8
330
46
100
AcDbEntity
  8
0
  6
Continuous
 62
     7
370
     0
100
AcDbLine
 10
654.2233913848
 20
650.4244691219
 30
0.0
 11
831.1275949348
 21
701.7089474319
 31
0.0
  0
LINE
  5
D9
330
46
100
AcDbEntity
  8
0
  6
Continuous
 62
     7
370
     0
100
AcDbLine
 10
597.5828959266
 20
257.3060998497
 30
0.0
 11
654.2233913848
 21
650.4244691219
 31
0.0
  0
LINE
  5
DA
330
46
100
AcDbEntity
  8
0
  6
Continuous
 62
     7
370
     0
100
AcDbLine
 10
253.5141723619
 20
535.311064356
 30
0.0
 11
499.2050032048
 21
230.3404375078
 31
0.0
  0
LINE
  5
DB
330
46
100
AcDbEntity
  8
0
  6
Continuous
 62
     7
370
     0
100
AcDbLine
 10
71.4751101005
 20
483.7361360042
 30
0.0
 11
253.5141723619
 21
535.311064356
 31
0.0
  0
LINE
  5
DC
330
46
100
AcDbEntity
  8
0
  6
Continuous
 62
     7
370
     0
100
AcDbLine
 10
504.2530480834
 20
39.9714311697
 30
0.0
 11
71.4751101005
 21
483.7361360042
 31
0.0
  0
LINE
  5
DD
330
46
100
AcDbEntity
  8
0
  6
Continuous
 62
     7
370
     0
100
AcDbLine
 10
354.1911083338
 20
-706.3181343381
 30
0.0
 11
518.561244287
 21
-11.676357309
 31
0.0
  0
LINE
  5
DE
330
46
100
AcDbEntity
  8
0
  6
Continuous
 62
     7
370
     0
100
AcDbLine
 10
548.3635036894
 20
-650.2784731642
 30
0.0
 11
354.1911083338
 21
-706.3181343381
 31
0.0
  0
LINE
  5
DF
330
46
100
AcDbEntity
  8
0
  6
Continuous
 62
     7
370
     0
100
AcDbLine
 10
616.5155103868
 20
-178.0236356717
 30
0.0
 11
548.3635036894
 21
-650.2784731642
 31
0.0
  0
LINE
  5
E0
330
46
100
AcDbEntity
  8
0
  6
Continuous
 62
     7
370
     0
100
AcDbLine
 10
-1844.615932681
 20
-478.2985775552
 30
0.0
 11
-1875.6425908424
 21
-478.2985775552
 31
0.0
  0
LINE
  5
E1
330
46
100
AcDbEntity
  8
0
  6
Continuous
 62
     7
370
     0
100
AcDbLine
 10
-1875.6425908424
 20
478.2985775568
 30
0.0
 11
-1875.6425908424
 21
-478.2985775552
 31
0.0
  0
LINE
  5
E2
330
46
100
AcDbEntity
  8
0
  6
Continuous
 62
     7
370
     0
100
AcDbLine
 10
-1844.615932681
 20
478.2985775568
 30
0.0
 11
-1875.6425908424
 21
478.2985775568
 31
0.0
  0
LINE
  5
E3
330
46
100
AcDbEntity
  8
0
  6
Continuous
 62
     7
370
     0
100
AcDbLine
 10
-1844.615932681
 20
478.2985775568
 30
0.0
 11
-1844.615932681
 21
-478.2985775552
 31
0.0
  0
LINE
  5
E4
330
46
100
AcDbEntity
  8
0
  6
Continuous
 62
     7
370
     0
100
AcDbLine
 10
-1930.9509814799
 20
478.2985775568
 30
0.0
 11
-1930.9509814799
 21
-478.2985775552
 31
0.0
  0
LINE
  5
E5
330
46
100
AcDbEntity
  8
0
  6
Continuous
 62
     7
370
     0
100
AcDbLine
 10
-1899.9243233185
 20
-478.2985775552
 30
0.0
 11
-1930.9509814799
 21
-478.2985775552
 31
0.0
  0
LINE
  5
E6
330
46
100
AcDbEntity
  8
0
  6
Continuous
 62
     7
370
     0
100
AcDbLine
 10
-1899.9243233185
 20
478.2985775568
 30
0.0
 11
-1899.9243233185
 21
-478.2985775552
 31
0.0
  0
LINE
  5
E7
330
46
100
AcDbEntity
  8
0
  6
Continuous
 62
     7
370
     0
100
AcDbLine
 10
-1899.9243233185
 20
478.2985775568
 30
0.0
 11
-1930.9509814799
 21
478.2985775568
 31
0.0
  0
LINE
  5
E8
330
46
100
AcDbEntity
  8
0
  6
Continuous
 62
     7
370
     0
100
AcDbLine
 10
274.7585310121
 20
-423.7014330253
 30
0.0
 11
274.7585310121
 21
-287.598587012
 31
0.0
  0
LINE
  5
E9
330
46
100
AcDbEntity
  8
0
  6
Continuous
 62
     7
370
     0
100
AcDbLine
 10
219.1309173284
 20
-231.9709733283
 30
0.0
 11
-399.9767730236
 21
-231.9709733283
 31
0.0
  0
LINE
  5
EA
330
46
100
AcDbEntity
  8
0
  6
Continuous
 62
     7
370
     0
100
AcDbLine
 10
-399.9767730236
 20
-231.9709733283
 30
0.0
 11
-399.9767730236
 21
-107.197428739
 31
0.0
  0
LINE
  5
EB
330
46
100
AcDbEntity
  8
0
  6
Continuous
 62
     7
370
     0
100
AcDbLine
 10
-399.9767730236
 20
-107.197428739
 30
0.0
 11
63.5912815337
 21
-107.197428739
 31
0.0
  0
LINE
  5
EC
330
46
100
AcDbEntity
  8
0
  6
Continuous
 62
     7
370
     0
100
AcDbLine
 10
119.2188952174
 20
-51.5698150553
 30
0.0
 11
119.2188952174
 21
73.5879902946
 31
0.0
  0
LINE
  5
ED
330
46
100
AcDbEntity
  8
0
  6
Continuous
 62
     7
370
     0
100
AcDbLine
 10
63.5912815337
 20
129.2156039783
 30
0.0
 11
-399.9767730236
 21
129.2156039783
 31
0.0
  0
LINE
  5
EE
330
46
100
AcDbEntity
  8
0
  6
Continuous
 62
     7
370
     0
100
AcDbLine
 10
-399.9767730236
 20
129.2156039783
 30
0.0
 11
-399.9767730236
 21
243.0151701681
 31
0.0
  0
LINE
  5
EF
330
46
100
AcDbEntity
  8
0
  6
Continuous
 62
     7
370
     0
100
AcDbLine
 10
-399.9767730236
 20
243.0151701681
 30
0.0
 11
150.833129344
 21
243.0151701681
 31
0.0
  0
LINE
  5
F0
330
46
100
AcDbEntity
  8
0
  6
Continuous
 62
     7
370
     0
100
AcDbLine
 10
403.2545801648
 20
-15.8144068439
 30
0.0
 11
150.833129344
 21
243.0151701681
 31
0.0
  0
LINE
  5
F1
330
46
100
AcDbEntity
  8
0
  6
Continuous
 62
     7
370
     0
100
AcDbLine
 10
224.0002791411
 20
-773.3578953924
 30
0.0
 11
403.2545801648
 21
-15.8144068439
 31
0.0
  0
LINE
  5
F2
330
46
100
AcDbEntity
  8
0
  6
Continuous
 62
     7
370
     0
100
AcDbLine
 10
613.7164845329
 20
-747.2131288653
 30
0.0
 11
293.5580392183
 21
-839.6133424205
 31
0.0
  0
LINE
  5
F3
330
46
100
AcDbEntity
  8
0
  6
Continuous
 62
     7
370
     0
100
AcDbLine
 10
708.7048394864
 20
-318.1258824569
 30
0.0
 11
653.3487426358
 21
-701.7123062352
 31
0.0
  0
LINE
  5
F4
330
46
100
AcDbEntity
  8
0
  6
Continuous
 62
     7
370
     0
100
AcDbLine
 10
954.9710302594
 20
-615.8181358695
 30
0.0
 11
708.7048394864
 21
-318.1258824569
 31
0.0
  0
LINE
  5
F5
330
46
100
AcDbEntity
  8
0
  6
Continuous
 62
     7
370
     0
100
AcDbLine
 10
1423.4824283569
 20
-514.6880496767
 30
0.0
 11
1013.3453817697
 21
-633.781323933
 31
0.0
  0
LINE
  5
F6
330
46
100
AcDbEntity
  8
0
  6
Continuous
 62
     7
370
     0
100
AcDbLine
 10
1387.9801424314
 20
-479.2131412023
 30
0.0
 11
1423.4824283569
 21
-514.6880496767
 31
0.0
  0
LINE
  5
F7
330
46
100
AcDbEntity
  8
0
  6
Continuous
 62
     7
370
     0
100
AcDbLine
 10
1586.1281146836
 20
-479.2131412023
 30
0.0
 11
1387.9801424314
 21
-479.2131412023
 31
0.0
  0
LINE
  5
F8
330
46
100
AcDbEntity
  8
0
  6
Continuous
 62
     7
370
     0
100
AcDbLine
 10
1641.7557283673
 20
236.3770340105
 30
0.0
 11
1641.7557283673
 21
-423.5855275187
 31
0.0
  0
LINE
  5
F9
330
46
100
AcDbEntity
  8
0
  6
Continuous
 62
     7
370
     0
100
AcDbLine
 10
1774.8734010732
 20
236.3770340105
 30
0.0
 11
1641.7557283673
 21
236.3770340105
 31
0.0
  0
LINE
  5
FA
330
46
100
AcDbEntity
  8
0
  6
Continuous
 62
     7
370
     0
100
AcDbLine
 10
1815.3429551982
 20
437.6623778593
 30
0.0
 11
1815.3429551982
 21
276.8465881355
 31
0.0
  0
LINE
  5
FB
330
46
100
AcDbEntity
  8
0
  6
Continuous
 62
     7
370
     0
100
AcDbLine
 10
978.923471261
 20
478.1319319843
 30
0.0
 11
1774.8734010732
 21
478.1319319843
 31
0.0
  0
LINE
  5
FC
330
46
100
AcDbEntity
  8
0
  6
Continuous
 62
     7
370
     0
100
AcDbLine
 10
923.2958575773
 20
291.6141658775
 30
0.0
 11
923.2958575773
 21
422.5043183007
 31
0.0
  0
LINE
  5
FD
330
46
100
AcDbEntity
  8
0
  6
Continuous
 62
     7
370
     0
100
AcDbLine
 10
1270.4292889102
 20
235.9865521938
 30
0.0
 11
978.923471261
 21
235.9865521938
 31
0.0
  0
LINE
  5
FE
330
46
100
AcDbEntity
  8
0
  6
Continuous
 62
     7
370
     0
100
AcDbLine
 10
1270.4292889102
 20
-359.8542803228
 30
0.0
 11
1270.4292889102
 21
235.9865521938
 31
0.0
  0
LINE
  5
FF
330
46
100
AcDbEntity
  8
0
  6
Continuous
 62
     7
370
     0
100
AcDbLine
 10
812.0571201107
 20
101.7856491419
 30
0.0
 11
1270.4292889102
 21
-359.8542803228
 31
0.0
  0
LINE
  5
100
330
46
100
AcDbEntity
  8
0
  6
Continuous
 62
     7
370
     0
100
AcDbLine
 10
960.0543808591
 20
769.216302194
 30
0.0
 11
812.0571201107
 21
101.7856491419
 31
0.0
  0
LINE
  5
101
330
46
100
AcDbEntity
  8
0
  6
Continuous
 62
     7
370
     0
100
AcDbLine
 10
588.791402329
 20
747.2917265603
 30
0.0
 11
890.2571963667
 21
834.686574536
 31
0.0
  0
LINE
  5
102
330
46
100
AcDbEntity
  8
0
  6
Continuous
 62
     7
370
     0
100
AcDbLine
 10
505.6855498589
 20
399.6348453204
 30
0.0
 11
549.2210481172
 21
701.7968222288
 31
0.0
  0
LINE
  5
103
330
46
100
AcDbEntity
  8
0
  6
Continuous
 62
     7
370
     0
100
AcDbLine
 10
317.0692969246
 20
633.760053387
 30
0.0
 11
505.6855498589
 21
399.6348453204
 31
0.0
  0
LINE
  5
104
330
46
100
AcDbEntity
  8
0
  6
Continuous
 62
     7
370
     0
100
AcDbLine
 10
-137.3002269205
 20
540.2205661397
 30
0.0
 11
258.5869996259
 21
652.3825114426
 31
0.0
  0
LINE
  5
105
330
46
100
AcDbEntity
  8
0
  6
Continuous
 62
     7
370
     0
100
AcDbLine
 10
-75.8399075956
 20
478.8076466881
 30
0.0
 11
-137.3002269205
 21
540.2205661397
 31
0.0
  0
LINE
  5
106
330
46
100
AcDbEntity
  8
0
  6
Continuous
 62
     7
370
     0
100
AcDbLine
 10
-716.7680027826
 20
478.8076466881
 30
0.0
 11
-75.8399075956
 21
478.8076466881
 31
0.0
  0
LINE
  5
107
330
46
100
AcDbEntity
  8
0
  6
Continuous
 62
     7
370
     0
100
AcDbLine
 10
-772.3956164663
 20
423.1800330044
 30
0.0
 11
-772.3956164663
 21
-423.7014330253
 31
0.0
  0
LINE
  5
108
330
46
100
AcDbEntity
  8
0
  6
Continuous
 62
     7
370
     0
100
AcDbLine
 10
-716.7680027826
 20
-479.3290467089
 30
0.0
 11
219.1309173284
 21
-479.329046709
 31
0.0
  0
ENDBLK
  5
48
330
46
100
AcDbEntity
  8
0
100
AcDbBlockEnd
  0
BLOCK
  5
1FF
330
1FE
100
AcDbEntity
  8
0
100
AcDbBlockBegin
  2
_D
 70
     0
 10
0.0
 20
0.0
 30
0.0
  3
_D
  1

  0
SOLID
  5
201
330
1FE
100
AcDbEntity
  8
MEDIÇÕES
100
AcDbTrace
 10
778.1809266074
 20
366.4559213574
 30
0.0
 11
811.2009266074
 21
361.3759213574
 31
0.0
 12
811.2009266074
 22
371.5359213574
 32
0.0
 13
811.2009266074
 23
371.5359213574
 33
0.0
  0
SOLID
  5
202
330
1FE
100
AcDbEntity
  8
MEDIÇÕES
100
AcDbTrace
 10
1022.1809266074
 20
366.4559213574
 30
0.0
 11
989.1609266074
 21
371.5359213574
 31
0.0
 12
989.1609266074
 22
361.3759213574
 32
0.0
 13
989.1609266074
 23
361.3759213574
 33
0.0
  0
LINE
  5
203
330
1FE
100
AcDbEntity
  8
MEDIÇÕES
100
AcDbLine
 10
778.1809266074
 20
472.4559213576
 30
0.0
 11
778.1809266074
 21
356.4559213574
 31
0.0
  0
LINE
  5
204
330
1FE
100
AcDbEntity
  8
MEDIÇÕES
100
AcDbLine
 10
1022.1809266074
 20
472.4559213576
 30
0.0
 11
1022.1809266074
 21
356.4559213574
 31
0.0
  0
LINE
  5
205
330
1FE
100
AcDbEntity
  8
MEDIÇÕES
100
AcDbLine
 10
778.1809266074
 20
366.4559213574
 30
0.0
 11
1022.1809266074
 21
366.4559213574
 31
0.0
  0
MTEXT
  5
206
330
1FE
100
AcDbEntity
  8
MEDIÇÕES
100
AcDbMText
 10
847.1705113216
 20
411.5732905032
 30
-19.4
 40
35.0
 41
0.0
 71
     1
 72
     1
  1
244
  7
SLDTEXTSTYLE1
 73
     1
 44
1.0
  0
ENDBLK
  5
200
330
1FE
100
AcDbEntity
  8
0
100
AcDbBlockEnd
  0
BLOCK
  5
209
330
208
100
AcDbEntity
  8
0
100
AcDbBlockBegin
  2
_D_1
 70
     0
 10
0.0
 20
0.0
 30
0.0
  3
_D_1
  1

  0
SOLID
  5
20B
330
208
100
AcDbEntity
  8
MEDIÇÕES
100
AcDbTrace
 10
678.1809266074
 20
917.4559213576
 30
0.0
 11
673.1009266074
 21
884.4359213576
 31
0.0
 12
683.2609266074
 22
884.4359213576
 32
0.0
 13
683.2609266074
 23
884.4359213576
 33
0.0
  0
SOLID
  5
20C
330
208
100
AcDbEntity
  8
MEDIÇÕES
100
AcDbTrace
 10
678.1809266074
 20
466.4559213576
 30
0.0
 11
683.2609266074
 21
499.4759213576
 31
0.0
 12
673.1009266074
 22
499.4759213576
 32
0.0
 13
673.1009266074
 23
499.4759213576
 33
0.0
  0
LINE
  5
20D
330
208
100
AcDbEntity
  8
MEDIÇÕES
100
AcDbLine
 10
773.1809266074
 20
917.4559213576
 30
0.0
 11
668.1809266074
 21
917.4559213576
 31
0.0
  0
LINE
  5
20E
330
208
100
AcDbEntity
  8
MEDIÇÕES
100
AcDbLine
 10
813.3969366906
 20
466.4559213576
 30
0.0
 11
668.1809266074
 21
466.4559213576
 31
0.0
  0
LINE
  5
20F
330
208
100
AcDbEntity
  8
MEDIÇÕES
100
AcDbLine
 10
678.1809266074
 20
917.4559213576
 30
0.0
 11
678.1809266074
 21
466.4559213576
 31
0.0
  0
MTEXT
  5
210
330
208
100
AcDbEntity
  8
MEDIÇÕES
100
AcDbMText
 10
633.0635574617
 20
638.9455060718
 30
-19.4
 40
35.0
 41
0.0
 71
     1
 72
     1
  1
451
  7
SLDTEXTSTYLE1
 11
-7.044195017643634E-15
 21
1.0
 31
0.0
 73
     1
 44
1.0
  0
ENDBLK
  5
20A
330
208
100
AcDbEntity
  8
0
100
AcDbBlockEnd
  0
BLOCK
  5
31C
330
31B
100
AcDbEntity
  8
0
100
AcDbBlockBegin
  2
_D_2
 70
     0
 10
0.0
 20
0.0
 30
0.0
  3
_D_2
  1

  0
SOLID
  5
31E
330
31B
100
AcDbEntity
  8
MEDIÇÕES
100
AcDbTrace
 10
678.1809266074
 20
1531.1795305975
 30
0.0
 11
673.1009266074
 21
1498.1595305975
 31
0.0
 12
683.2609266074
 22
1498.1595305975
 32
0.0
 13
683.2609266074
 23
1498.1595305975
 33
0.0
  0
SOLID
  5
31F
330
31B
100
AcDbEntity
  8
MEDIÇÕES
100
AcDbTrace
 10
678.1809266074
 20
1243.1795305975
 30
0.0
 11
683.2609266074
 21
1276.1995305975
 31
0.0
 12
673.1009266074
 22
1276.1995305975
 32
0.0
 13
673.1009266074
 23
1276.1995305975
 33
0.0
  0
LINE
  5
320
330
31B
100
AcDbEntity
  8
MEDIÇÕES
100
AcDbLine
 10
812.1116186555
 20
1531.1795305975
 30
0.0
 11
668.1809266074
 21
1531.1795305975
 31
0.0
  0
LINE
  5
321
330
31B
100
AcDbEntity
  8
MEDIÇÕES
100
AcDbLine
 10
890.1809266074
 20
1243.1795305975
 30
0.0
 11
668.1809266074
 21
1243.1795305975
 31
0.0
  0
LINE
  5
322
330
31B
100
AcDbEntity
  8
MEDIÇÕES
100
AcDbLine
 10
678.1809266074
 20
1531.1795305975
 30
0.0
 11
678.1809266074
 21
1243.1795305975
 31
0.0
  0
MTEXT
  5
323
330
31B
100
AcDbEntity
  8
MEDIÇÕES
100
AcDbMText
 10
633.0635574617
 20
1334.1691153117
 30
1.1000000001
 40
35.0
 41
0.0
 71
     1
 72
     1
  1
288
  7
SLDTEXTSTYLE1
 11
-7.044195017643634E-15
 21
1.0
 31
0.0
 73
     1
 44
1.0
  0
ENDBLK
  5
31D
330
31B
100
AcDbEntity
  8
0
100
AcDbBlockEnd
  0
ENDSEC
  0
SECTION
  2
ENTITIES
  0
LINE
  5
109
330
1F
100
AcDbEntity
  8
0
  6
Continuous
 62
     7
370
     0
100
AcDbLine
 10
73.6486218951
 20
2015.2546462079
 30
0.0
 11
2908.3430426184
 21
2015.2546462079
 31
0.0
  0
LINE
  5
10A
330
1F
100
AcDbEntity
  8
0
  6
Continuous
 62
     7
370
     0
100
AcDbLine
 10
73.6486218951
 20
2015.2546462079
 30
0.0
 11
73.6486218951
 21
52.0062153195
 31
0.0
  0
LINE
  5
10B
330
1F
100
AcDbEntity
  8
0
  6
Continuous
 62
     7
370
     0
100
AcDbLine
 10
73.6486218951
 20
52.0062153195
 30
0.0
 11
2908.3430426184
 21
52.0062153195
 31
0.0
  0
LINE
  5
10C
330
1F
100
AcDbEntity
  8
0
  6
Continuous
 62
     8
420
  8421504
370
    40
100
AcDbLine
 10
2165.3036793829
 20
290.0644618295
 30
0.0
 11
2908.3430426184
 21
290.0644618295
 31
0.0
  0
LINE
  5
10D
330
1F
100
AcDbEntity
  8
0
  6
Continuous
 62
     7
370
     0
100
AcDbLine
 10
2908.3430426184
 20
2015.2546462079
 30
0.0
 11
2908.3430426184
 21
52.0062153195
 31
0.0
  0
LINE
  5
10E
330
1F
100
AcDbEntity
  8
0
  6
Continuous
 62
     8
420
  8421504
370
    40
100
AcDbLine
 10
2165.3036793829
 20
239.6160692475
 30
0.0
 11
2908.3430426184
 21
239.6160692475
 31
0.0
  0
LINE
  5
10F
330
1F
100
AcDbEntity
  8
0
  6
Continuous
 62
     8
420
  8421504
370
    40
100
AcDbLine
 10
2165.3036793829
 20
101.7882070587
 30
0.0
 11
2908.3430426184
 21
101.7882070587
 31
0.0
  0
INSERT
  5
110
330
1F
100
AcDbEntity
  8
0
  6
Continuous
 62
     7
100
AcDbBlockReference
  2
Logo_Next.V3
 10
2533.2833433192
 20
385.1362543806
 30
0.0
 41
0.088
 42
0.088
 43
0.088
  0
MTEXT
  5
112
330
1F
100
AcDbEntity
  8
0
  6
Continuous
 62
     7
370
     0
100
AcDbMText
 10
2785.0
 20
84.3360149091
 30
0.0
 40
15.0
 41
0.0
 71
     1
 72
     1
  1
SHEET 1 OF 1
  7
SLDTEXTSTYLE0
 73
     1
 44
1.0
  0
MTEXT
  5
114
330
1F
100
AcDbEntity
  8
0
  6
Continuous
 62
     7
370
     0
100
AcDbMText
 10
2175.0
 20
269.4144030073
 30
0.0
 40
13.2291666667
 41
0.0
 71
     1
 72
     1
  1
TITLE:
  7
SLDTEXTSTYLE1
 73
     1
 44
1.0
  0
MTEXT
  5
116
330
1F
100
AcDbEntity
  8
0
  6
Continuous
 62
     7
370
     0
100
AcDbMText
 10
2278.3258518969
 20
186.4031371449
 30
0.0
 40
26.4583333333
 41
0.0
 71
     1
 72
     1
  1
NC00008
  7
SLDTEXTSTYLE2
 73
     1
 44
1.0
  0
MTEXT
  5
117
330
1F
100
AcDbEntity
  8
0
  6
Continuous
 62
     7
370
     0
100
AcDbMText
 10
2760.0378578924
 20
132.5666195236
 30
0.0
 40
21.1666666667
 41
0.0
 71
     1
 72
     1
  1
23-06-2015
  7
SLDTEXTSTYLE2
 73
     1
 44
1.0
  0
MTEXT
  5
118
330
1F
100
AcDbEntity
  8
0
  6
Continuous
 62
     7
370
     0
100
AcDbMText
 10
2172.2420661319
 20
172.9511179359
 30
0.0
 40
13.2291666667
 41
0.0
 71
     1
 72
     1
  1
Reference :
  7
SLDTEXTSTYLE1
 73
     1
 44
1.0
  0
MTEXT
  5
119
330
1F
100
AcDbEntity
  8
0
  6
Continuous
 62
     7
370
     0
100
AcDbMText
 10
2725.0566539417
 20
124.4366111594
 30
0.0
 40
13.2291666667
 41
0.0
 71
     2
 72
     1
  1
Date:
  7
SLDTEXTSTYLE1
 73
     1
 44
1.0
  0
MTEXT
  5
11A
330
1F
100
AcDbEntity
  8
0
  6
Continuous
 62
     7
370
     0
100
AcDbMText
 10
2175.0
 20
225.9144030073
 30
0.0
 40
13.2291666667
 41
0.0
 71
     1
 72
     1
  1
REVISION:
  7
SLDTEXTSTYLE1
 73
     1
 44
1.0
  0
MTEXT
  5
11B
330
1F
100
AcDbEntity
  8
0
  6
Continuous
 62
     7
370
     0
100
AcDbMText
 10
2268.3278299843
 20
234.0630452774
 30
0.0
 40
21.1666666667
 41
0.0
 71
     1
 72
     1
  1
V1.0
  7
SLDTEXTSTYLE1
 73
     1
 44
1.0
  0
MTEXT
  5
11C
330
1F
100
AcDbEntity
  8
0
  6
Continuous
 62
     7
370
     0
100
AcDbMText
 10
2553.2947383529
 20
277.3092268101
 30
0.0
 40
21.1666666667
 41
0.0
 71
     2
 72
     1
  1
NEXT HFA108 - 500W Active 2-Way Speaker (8"+1")
  7
SLDTEXTSTYLE1
 73
     1
 44
1.0
  0
MTEXT
  5
11D
330
1F
100
AcDbEntity
  8
MEDIÇÕES
100
AcDbMText
 10
2437.3466424987
 20
84.9563102753
 30
0.0
 40
15.875
 41
0.0
 71
     1
 72
     1
  1
All dimensions in mm
  7
SLDTEXTSTYLE1
 73
     1
 44
1.0
  0
MTEXT
  5
11E
330
1F
100
AcDbEntity
  8
0
  6
Continuous
 62
     7
370
     0
100
AcDbMText
 10
2356.2250577519
 20
341.3159263744
 30
0.0
 40
32.0
 41
0.0
 71
     1
 72
     1
  1
proaudio
  7
SLDTEXTSTYLE1
 73
     1
 44
1.0
  0
LINE
  5
11F
330
1F
100
AcDbEntity
  8
0
  6
Continuous
 62
     7
370
    15
100
AcDbLine
 10
789.6627840265
 20
468.4559208807
 30
0.0
 11
790.161518441
 21
466.5308398661
 31
0.0
  0
LINE
  5
120
330
1F
100
AcDbEntity
  8
0
  6
Continuous
 62
     7
370
    15
100
AcDbLine
 10
806.2003385885
 20
466.5308398661
 30
0.0
 11
806.6990730031
 21
468.4559208807
 31
0.0
  0
ARC
  5
121
330
1F
100
AcDbEntity
  8
0
  6
Continuous
 62
     7
370
    15
100
AcDbCircle
 10
806.1035324281
 20
466.5559213576
 30
0.0
 40
0.1000000000000007
100
AcDbArc
 50
270.0
 51
345.475570922
  0
ARC
  5
122
330
1F
100
AcDbEntity
  8
0
  6
Continuous
 62
     7
370
    15
100
AcDbCircle
 10
790.2583207868
 20
466.5559213576
 30
0.0
 40
0.1000000000000007
100
AcDbArc
 50
194.524429078
 51
270.0
  0
LINE
  5
123
330
1F
100
AcDbEntity
  8
0
  6
Continuous
 62
     7
370
    15
100
AcDbLine
 10
960.5241660639
 20
468.4559208807
 30
0.0
 11
961.0229004784
 21
466.5308398661
 31
0.0
  0
LINE
  5
124
330
1F
100
AcDbEntity
  8
0
  6
Continuous
 62
     7
370
    15
100
AcDbLine
 10
977.0617169007
 20
466.5308398661
 30
0.0
 11
977.5604587658
 21
468.4559208807
 31
0.0
  0
ARC
  5
125
330
1F
100
AcDbEntity
  8
0
  6
Continuous
 62
     7
370
    15
100
AcDbCircle
 10
976.9649165243
 20
466.5559213574
 30
0.0
 40
0.1000000000000007
100
AcDbArc
 50
270.0
 51
345.475570922
  0
ARC
  5
126
330
1F
100
AcDbEntity
  8
0
  6
Continuous
 62
     7
370
    15
100
AcDbCircle
 10
961.119704883
 20
466.5559213574
 30
0.0
 40
0.1000000000000007
100
AcDbArc
 50
194.524429078
 51
270.0
  0
LINE
  5
127
330
1F
100
AcDbEntity
  8
0
  6
Continuous
 62
     7
370
    15
100
AcDbLine
 10
993.6627802118
 20
468.4559208807
 30
0.0
 11
994.1615146263
 21
466.5308398661
 31
0.0
  0
LINE
  5
128
330
1F
100
AcDbEntity
  8
0
  6
Continuous
 62
     7
370
    15
100
AcDbLine
 10
1010.2003347739
 20
466.5308398661
 30
0.0
 11
1010.6990691884
 21
468.4559208807
 31
0.0
  0
ARC
  5
129
330
1F
100
AcDbEntity
  8
0
  6
Continuous
 62
     7
370
    15
100
AcDbCircle
 10
1010.1035324281
 20
466.5559213577
 30
0.0
 40
0.1000000000000227
100
AcDbArc
 50
270.0
 51
345.475570922
  0
ARC
  5
12A
330
1F
100
AcDbEntity
  8
0
  6
Continuous
 62
     7
370
    15
100
AcDbCircle
 10
994.2583207868
 20
466.5559213577
 30
0.0
 40
0.1000000000000227
100
AcDbArc
 50
194.524429078
 51
270.0
  0
LINE
  5
12B
330
1F
100
AcDbEntity
  8
0
  6
Continuous
 62
     7
370
    15
100
AcDbLine
 10
822.8013944491
 20
468.4559208807
 30
0.0
 11
823.3001363142
 21
466.5308398661
 31
0.0
  0
LINE
  5
12C
330
1F
100
AcDbEntity
  8
0
  6
Continuous
 62
     7
370
    15
100
AcDbLine
 10
839.3389527365
 20
466.5308398661
 30
0.0
 11
839.837687151
 21
468.4559208807
 31
0.0
  0
ARC
  5
12D
330
1F
100
AcDbEntity
  8
0
  6
Continuous
 62
     7
370
    15
100
AcDbCircle
 10
839.2421483319
 20
466.5559213576
 30
0.0
 40
0.1000000000000227
100
AcDbArc
 50
270.0
 51
345.475570922
  0
ARC
  5
12E
330
1F
100
AcDbEntity
  8
0
  6
Continuous
 62
     7
370
    15
100
AcDbCircle
 10
823.3969366906
 20
466.5559213576
 30
0.0
 40
0.1000000000001108
100
AcDbArc
 50
194.524429078
 51
270.0
  0
LINE
  5
12F
330
1F
100
AcDbEntity
  8
0
  6
Continuous
 62
     7
370
    15
100
AcDbLine
 10
900.1809266074
 20
500.7249516901
 30
0.0
 11
899.6508374722
 21
500.5611581263
 31
0.0
  0
LINE
  5
130
330
1F
100
AcDbEntity
  8
0
  6
Continuous
 62
     7
370
    15
100
AcDbLine
 10
903.5484588849
 20
501.7627430615
 30
0.0
 11
899.6494238991
 21
500.5611581263
 31
0.0
  0
LINE
  5
131
330
1F
100
AcDbEntity
  8
0
  6
Continuous
 62
     7
370
    15
100
AcDbLine
 10
915.7474386184
 20
497.2404641566
 30
0.0
 11
915.7474386184
 21
491.4074940142
 31
0.0
  0
LINE
  5
132
330
1F
100
AcDbEntity
  8
0
  6
Continuous
 62
     7
370
    15
100
AcDbLine
 10
915.7474386184
 20
491.4074940142
 30
0.0
 11
918.6060783132
 21
488.5041070637
 31
0.0
  0
LINE
  5
133
330
1F
100
AcDbEntity
  8
0
  6
Continuous
 62
     7
370
    15
100
AcDbLine
 10
918.6060783132
 20
488.5041070637
 30
0.0
 11
919.6023587747
 21
488.5041070637
 31
0.0
  0
SPLINE
  5
134
330
1F
100
AcDbEntity
  8
0
  6
Continuous
 62
     7
370
    15
100
AcDbSpline
210
0.0
220
0.0
230
1.0
 70
     8
 71
     3
 72
    12
 73
     8
 74
     0
 42
0.00000001
 43
0.00000001
 12
1.0
 22
0.0
 32
0.0
 13
1.0
 23
0.0
 33
0.0
 40
0.0
 40
0.0
 40
0.0
 40
0.0
 40
0.2327226807028138
 40
0.3431219138938026
 40
0.4553335318134535
 40
0.7016328200507386
 40
1.0
 40
1.0
 40
1.0
 40
1.0
 10
919.6023587747353
 20
488.5041070637183
 30
0.0
 10
919.6841752469801
 20
488.5117764655049
 30
0.0
 10
919.8048039044875
 20
488.523084086281
 30
0.0
 10
919.9464161874257
 20
488.5989546091611
 30
0.0
 10
920.0729672693456
 20
488.7033971985412
 30
0.0
 10
920.2028099868024
 20
488.8990744840212
 30
0.0
 10
920.2535209952516
 20
489.0829004985001
 30
0.0
 10
920.2813003822105
 20
489.1836000141578
 30
0.0
  0
LINE
  5
135
330
1F
100
AcDbEntity
  8
0
  6
Continuous
 62
     7
370
    15
100
AcDbLine
 10
920.2813003822
 20
489.1836000142
 30
0.0
 11
920.2813003822
 21
497.2452325282
 31
0.0
  0
LINE
  5
136
330
1F
100
AcDbEntity
  8
0
  6
Continuous
 62
     7
370
    15
100
AcDbLine
 10
920.2813003822
 20
497.2452325282
 30
0.0
 11
923.8046017154
 21
497.2452325282
 31
0.0
  0
SPLINE
  5
137
330
1F
100
AcDbEntity
  8
0
  6
Continuous
 62
     7
370
    15
100
AcDbSpline
210
0.0
220
0.0
230
1.0
 70
     8
 71
     3
 72
    12
 73
     8
 74
     0
 42
0.00000001
 43
0.00000001
 12
1.0
 22
0.0
 32
0.0
 13
1.0
 23
0.0
 33
0.0
 40
0.0
 40
0.0
 40
0.0
 40
0.0
 40
0.3017152879166478
 40
0.4121241011532514
 40
0.4987022543095777
 40
0.6962974779830058
 40
0.9999999999999999
 40
0.9999999999999999
 40
0.9999999999999999
 40
0.9999999999999999
 10
923.8046017153995
 20
497.2452325281578
 30
0.0
 10
923.8969523668818
 20
497.2680314944586
 30
0.0
 10
924.0230975466499
 20
497.2991734480496
 30
0.0
 10
924.1652416433952
 20
497.3662939845582
 30
0.0
 10
924.2661794710237
 20
497.441297856362
 30
0.0
 10
924.3501446801405
 20
497.613636000072
 30
0.0
 10
924.3908277114633
 20
497.7653250470448
 30
0.0
 10
924.4154748185413
 20
497.8572232183891
 30
0.0
  0
LINE
  5
138
330
1F
100
AcDbEntity
  8
0
  6
Continuous
 62
     7
370
    15
100
AcDbLine
 10
924.4154748185
 20
497.8572232184
 30
0.0
 11
924.4154748185
 21
499.5863390622
 31
0.0
  0
SPLINE
  5
139
330
1F
100
AcDbEntity
  8
0
  6
Continuous
 62
     7
370
    15
100
AcDbSpline
210
0.0
220
0.0
230
1.0
 70
     8
 71
     3
 72
    12
 73
     8
 74
     0
 42
0.00000001
 43
0.00000001
 12
1.0
 22
0.0
 32
0.0
 13
1.0
 23
0.0
 33
0.0
 40
0.0
 40
0.0
 40
0.0
 40
0.0
 40
0.3010958708598263
 40
0.4113333351826433
 40
0.4978374056389583
 40
0.6956840528534859
 40
1.0
 40
1.0
 40
1.0
 40
1.0
 10
924.4154748185413
 20
499.586339062162
 30
0.0
 10
924.3927707427808
 20
499.6787831862785
 30
0.0
 10
924.361754232398
 20
499.8050730280565
 30
0.0
 10
924.2948500407829
 20
499.9473712887668
 30
0.0
 10
924.2200021659121
 20
500.0485712486953
 30
0.0
 10
924.0478745712622
 20
500.13270920169
 30
0.0
 10
923.8963980940218
 20
500.1735685479572
 30
0.0
 10
923.8046017153995
 20
500.1983297523934
 30
0.0
  0
LINE
  5
13A
330
1F
100
AcDbEntity
  8
0
  6
Continuous
 62
     7
370
    15
100
AcDbLine
 10
923.8046017154
 20
500.1983297524
 30
0.0
 11
912.1856419979
 21
500.1983297524
 31
0.0
  0
SPLINE
  5
13B
330
1F
100
AcDbEntity
  8
0
  6
Continuous
 62
     7
370
    15
100
AcDbSpline
210
0.0
220
0.0
230
1.0
 70
     8
 71
     3
 72
    12
 73
     8
 74
     0
 42
0.00000001
 43
0.00000001
 12
1.0
 22
0.0
 32
0.0
 13
1.0
 23
0.0
 33
0.0
 40
0.0
 40
0.0
 40
0.0
 40
0.0
 40
0.2327246396662473
 40
0.3431164574066385
 40
0.4553368204286256
 40
0.7016219764575649
 40
1.0
 40
1.0
 40
1.0
 40
1.0
 10
912.185641997947
 20
500.1983297523934
 30
0.0
 10
912.1037199581801
 20
500.1906497188228
 30
0.0
 10
911.982938591374
 20
500.1793266981268
 30
0.0
 10
911.8411088872238
 20
500.1034859664498
 30
0.0
 10
911.714400530632
 20
499.999019556128
 30
0.0
 10
911.5843397418888
 20
499.8033608919241
 30
0.0
 10
911.5335601792582
 20
499.6195289379825
 30
0.0
 10
911.5057420595424
 20
499.5188219007926
 30
0.0
  0
LINE
  5
13C
330
1F
100
AcDbEntity
  8
0
  6
Continuous
 62
     7
370
    15
100
AcDbLine
 10
911.5057420595
 20
499.5188219008
 30
0.0
 11
911.5057420595
 21
497.9199720082
 31
0.0
  0
SPLINE
  5
13D
330
1F
100
AcDbEntity
  8
0
  6
Continuous
 62
     7
370
    15
100
AcDbSpline
210
0.0
220
0.0
230
1.0
 70
     8
 71
     3
 72
    12
 73
     8
 74
     0
 42
0.00000001
 43
0.00000001
 12
1.0
 22
0.0
 32
0.0
 13
1.0
 23
0.0
 33
0.0
 40
0.0
 40
0.0
 40
0.0
 40
0.0
 40
0.2325197984905596
 40
0.3428949766480678
 40
0.4551283667660719
 40
0.7015142830498332
 40
0.9999999999999999
 40
0.9999999999999999
 40
0.9999999999999999
 40
0.9999999999999999
 10
911.5057420595424
 20
497.9199720081764
 30
0.0
 10
911.5135530895435
 20
497.8380912605029
 30
0.0
 10
911.5250719493017
 20
497.7173424157008
 30
0.0
 10
911.6010569178877
 20
497.5756427259274
 30
0.0
 10
911.705627403607
 20
497.449000690741
 30
0.0
 10
911.9012756396529
 20
497.3190455701717
 30
0.0
 10
912.0849974771951
 20
497.2682761268765
 30
0.0
 10
912.185641997947
 20
497.2404641565757
 30
0.0
  0
LINE
  5
13E
330
1F
100
AcDbEntity
  8
0
  6
Continuous
 62
     7
370
    15
100
AcDbLine
 10
912.1856419979
 20
497.2404641566
 30
0.0
 11
915.7474386184
 21
497.2404641566
 31
0.0
  0
LINE
  5
13F
330
1F
100
AcDbEntity
  8
0
  6
Continuous
 62
     7
370
    15
100
AcDbLine
 10
895.2546511455
 20
497.3945570645
 30
0.0
 11
900.6807339638
 21
497.3945570645
 31
0.0
  0
LINE
  5
140
330
1F
100
AcDbEntity
  8
0
  6
Continuous
 62
     7
370
    15
100
AcDbLine
 10
900.6807339638
 20
497.3945570645
 30
0.0
 11
897.9081959142
 21
500.2748174128
 31
0.0
  0
LINE
  5
141
330
1F
100
AcDbEntity
  8
0
  6
Continuous
 62
     7
370
    15
100
AcDbLine
 10
897.9081959142
 20
500.2748174128
 30
0.0
 11
892.0617169379
 21
500.2748174128
 31
0.0
  0
SPLINE
  5
142
330
1F
100
AcDbEntity
  8
0
  6
Continuous
 62
     7
370
    15
100
AcDbSpline
210
0.0
220
0.0
230
1.0
 70
     8
 71
     3
 72
    12
 73
     8
 74
     0
 42
0.00000001
 43
0.00000001
 12
1.0
 22
0.0
 32
0.0
 13
1.0
 23
0.0
 33
0.0
 40
0.0
 40
0.0
 40
0.0
 40
0.0
 40
0.3017134897743732
 40
0.4121217830575694
 40
0.4986892152280653
 40
0.6962984690383842
 40
0.9999999999999999
 40
0.9999999999999999
 40
0.9999999999999999
 40
0.9999999999999999
 10
892.0617169379132
 20
500.2748174128013
 30
0.0
 10
891.9691117294366
 20
500.2520196913794
 30
0.0
 10
891.8426187984566
 20
500.2208794277835
 30
0.0
 10
891.7000862348362
 20
500.1537538622568
 30
0.0
 10
891.598849244367
 20
500.0787693100352
 30
0.0
 10
891.5146655717889
 20
499.906412175107
 30
0.0
 10
891.473861825145
 20
499.7547225524966
 30
0.0
 10
891.4491423084276
 20
499.66282672257
 30
0.0
  0
LINE
  5
143
330
1F
100
AcDbEntity
  8
0
  6
Continuous
 62
     7
370
    15
100
AcDbLine
 10
891.4491423084
 20
499.6628267226
 30
0.0
 11
891.4491423084
 21
489.1829294619
 31
0.0
  0
SPLINE
  5
144
330
1F
100
AcDbEntity
  8
0
  6
Continuous
 62
     7
370
    15
100
AcDbSpline
210
0.0
220
0.0
230
1.0
 70
     8
 71
     3
 72
    12
 73
     8
 74
     0
 42
0.00000001
 43
0.00000001
 12
1.0
 22
0.0
 32
0.0
 13
1.0
 23
0.0
 33
0.0
 40
0.0
 40
0.0
 40
0.0
 40
0.0
 40
0.3011080160844754
 40
0.4113450303101041
 40
0.4978355973500861
 40
0.6956876925321723
 40
1.0
 40
1.0
 40
1.0
 40
1.0
 10
891.4491423084276
 20
489.1829294619041
 30
0.0
 10
891.4719106843677
 20
489.0904809061634
 30
0.0
 10
891.5030146662975
 20
488.9641865136799
 30
0.0
 10
891.5701036509361
 20
488.8218834288062
 30
0.0
 10
891.6451800089177
 20
488.7206991578344
 30
0.0
 10
891.8177661656208
 20
488.636536429925
 30
0.0
 10
891.9696656467928
 20
488.5956818196296
 30
0.0
 10
892.0617169379132
 20
488.5709238705116
 30
0.0
  0
LINE
  5
145
330
1F
100
AcDbEntity
  8
0
  6
Continuous
 62
     7
370
    15
100
AcDbLine
 10
892.0617169379
 20
488.5709238705
 30
0.0
 11
902.506824411
 21
488.5709238705
 31
0.0
  0
SPLINE
  5
146
330
1F
100
AcDbEntity
  8
0
  6
Continuous
 62
     7
370
    15
100
AcDbSpline
210
0.0
220
0.0
230
1.0
 70
     8
 71
     3
 72
    12
 73
     8
 74
     0
 42
0.00000001
 43
0.00000001
 12
1.0
 22
0.0
 32
0.0
 13
1.0
 23
0.0
 33
0.0
 40
0.0
 40
0.0
 40
0.0
 40
0.0
 40
0.2348512362216101
 40
0.3459027842943394
 40
0.4583928565108491
 40
0.7039280219582394
 40
1.0
 40
1.0
 40
1.0
 40
1.0
 10
902.5068244109736
 20
488.5709238705116
 30
0.0
 10
902.5931528240963
 20
488.5797541187801
 30
0.0
 10
902.7203024143784
 20
488.5927598304435
 30
0.0
 10
902.8693910361429
 20
488.6727624661177
 30
0.0
 10
903.0019196110013
 20
488.7819430334823
 30
0.0
 10
903.13751951948
 20
488.9854565543043
 30
0.0
 10
903.1895839424946
 20
489.1766924570033
 30
0.0
 10
903.2180451932238
 20
489.2812324222999
 30
0.0
  0
LINE
  5
147
330
1F
100
AcDbEntity
  8
0
  6
Continuous
 62
     7
370
    15
100
AcDbLine
 10
903.2180451932
 20
489.2812324223
 30
0.0
 11
903.2180451932
 21
490.9437549767
 31
0.0
  0
SPLINE
  5
148
330
1F
100
AcDbEntity
  8
0
  6
Continuous
 62
     7
370
    15
100
AcDbSpline
210
0.0
220
0.0
230
1.0
 70
     8
 71
     3
 72
    11
 73
     7
 74
     0
 42
0.00000001
 43
0.00000001
 12
1.0
 22
0.0
 32
0.0
 13
1.0
 23
0.0
 33
0.0
 40
0.0
 40
0.0
 40
0.0
 40
0.0
 40
0.3026709382178578
 40
0.4992097344264647
 40
0.696459745119577
 40
1.0
 40
1.0
 40
1.0
 40
1.0
 10
903.2180451932238
 20
490.9437549766975
 30
0.0
 10
903.1932282894829
 20
491.0411496516218
 30
0.0
 10
903.1522965766508
 20
491.2017873728706
 30
0.0
 10
903.0431179914344
 20
491.4176324169925
 30
0.0
 10
902.8266299587258
 20
491.5260586488398
 30
0.0
 10
902.6656706738036
 20
491.5676531162794
 30
0.0
 10
902.5681096273349
 20
491.5928644594627
 30
0.0
  0
LINE
  5
149
330
1F
100
AcDbEntity
  8
0
  6
Continuous
 62
     7
370
    15
100
AcDbLine
 10
902.5681096273
 20
491.5928644595
 30
0.0
 11
895.2546511455
 21
491.5928644595
 31
0.0
  0
LINE
  5
14A
330
1F
100
AcDbEntity
  8
0
  6
Continuous
 62
     7
370
    15
100
AcDbLine
 10
895.2546511455
 20
491.5928644595
 30
0.0
 11
895.2546511455
 21
493.1162250695
 31
0.0
  0
LINE
  5
14B
330
1F
100
AcDbEntity
  8
0
  6
Continuous
 62
     7
370
    15
100
AcDbLine
 10
895.2546511455
 20
493.1162250695
 30
0.0
 11
900.604165453
 21
493.1162250695
 31
0.0
  0
SPLINE
  5
14C
330
1F
100
AcDbEntity
  8
0
  6
Continuous
 62
     7
370
    15
100
AcDbSpline
210
0.0
220
0.0
230
1.0
 70
     8
 71
     3
 72
    12
 73
     8
 74
     0
 42
0.00000001
 43
0.00000001
 12
1.0
 22
0.0
 32
0.0
 13
1.0
 23
0.0
 33
0.0
 40
0.0
 40
0.0
 40
0.0
 40
0.0
 40
0.2348672836463955
 40
0.3459224697691849
 40
0.4584110102353633
 40
0.7039476124809335
 40
1.0
 40
1.0
 40
1.0
 40
1.0
 10
900.6041654529856
 20
493.1162250694709
 30
0.0
 10
900.690523439584
 20
493.1250646375692
 30
0.0
 10
900.8177151350155
 20
493.1380839273603
 30
0.0
 10
900.9668537013838
 20
493.2181070360961
 30
0.0
 10
901.099429470235
 20
493.3273087210468
 30
0.0
 10
901.2350595565651
 20
493.530874717527
 30
0.0
 10
901.2871374248961
 20
493.7221528169505
 30
0.0
 10
901.3156050960408
 20
493.8267124351936
 30
0.0
  0
LINE
  5
14D
330
1F
100
AcDbEntity
  8
0
  6
Continuous
 62
     7
370
    15
100
AcDbLine
 10
901.315605096
 20
493.8267124352
 30
0.0
 11
901.315605096
 21
495.3555566725
 31
0.0
  0
SPLINE
  5
14E
330
1F
100
AcDbEntity
  8
0
  6
Continuous
 62
     7
370
    15
100
AcDbSpline
210
0.0
220
0.0
230
1.0
 70
     8
 71
     3
 72
    11
 73
     7
 74
     0
 42
0.00000001
 43
0.00000001
 12
1.0
 22
0.0
 32
0.0
 13
1.0
 23
0.0
 33
0.0
 40
0.0
 40
0.0
 40
0.0
 40
0.0
 40
0.3026588322206074
 40
0.4991904011497256
 40
0.6964535894745644
 40
1.0
 40
1.0
 40
1.0
 40
1.0
 10
901.3156050960408
 20
495.3555566725212
 30
0.0
 10
901.2908126978139
 20
495.4528878091832
 30
0.0
 10
901.2499213511925
 20
495.6134209375185
 30
0.0
 10
901.1407919313108
 20
495.8291147211062
 30
0.0
 10
900.9244335754541
 20
495.9374735699423
 30
0.0
 10
900.7635655032226
 20
495.9790400835631
 30
0.0
 10
900.6660615296444
 20
496.0042340216117
 30
0.0
  0
LINE
  5
14F
330
1F
100
AcDbEntity
  8
0
  6
Continuous
 62
     7
370
    15
100
AcDbLine
 10
900.6660615296
 20
496.0042340216
 30
0.0
 11
895.2546511455
 21
496.0042340216
 31
0.0
  0
LINE
  5
150
330
1F
100
AcDbEntity
  8
0
  6
Continuous
 62
     7
370
    15
100
AcDbLine
 10
895.2546511455
 20
496.0042340216
 30
0.0
 11
895.2546511455
 21
497.3945570645
 31
0.0
  0
SPLINE
  5
151
330
1F
100
AcDbEntity
  8
0
  6
Continuous
 62
     7
370
    15
100
AcDbSpline
210
0.0
220
0.0
230
1.0
 70
     8
 71
     3
 72
    15
 73
    11
 74
     0
 42
0.00000001
 43
0.00000001
 12
1.0
 22
0.0
 32
0.0
 13
1.0
 23
0.0
 33
0.0
 40
0.0
 40
0.0
 40
0.0
 40
0.0
 40
0.1320410968941035
 40
0.2563254019009544
 40
0.3772546674065191
 40
0.4995909847889783
 40
0.6217006517594198
 40
0.7427172127161308
 40
0.8673702170019668
 40
1.0
 40
1.0
 40
1.0
 40
1.0
 10
870.602259473397
 20
493.2059151586967
 30
0.0
 10
870.6858914849566
 20
494.2409560999
 30
0.0
 10
870.8482425217101
 20
496.2502342070839
 30
0.0
 10
871.7282118144229
 20
499.1003173752611
 30
0.0
 10
873.0875631815436
 20
501.6597514297291
 30
0.0
 10
874.9270759330863
 20
503.8762917763167
 30
0.0
 10
877.1425459471996
 20
505.7164787783014
 30
0.0
 10
879.701034007675
 20
507.0746141717351
 30
0.0
 10
882.5542649394955
 20
507.9559078101298
 30
0.0
 10
884.5681853867836
 20
508.1208748969481
 30
0.0
 10
885.6063653393525
 20
508.2059157547432
 30
0.0
  0
LINE
  5
152
330
1F
100
AcDbEntity
  8
0
  6
Continuous
 62
     7
370
    15
100
AcDbLine
 10
885.6063653394
 20
508.2059157547
 30
0.0
 11
914.7554878755
 21
508.2059157547
 31
0.0
  0
SPLINE
  5
153
330
1F
100
AcDbEntity
  8
0
  6
Continuous
 62
     7
370
    15
100
AcDbSpline
210
0.0
220
0.0
230
1.0
 70
     8
 71
     3
 72
    15
 73
    11
 74
     0
 42
0.00000001
 43
0.00000001
 12
1.0
 22
0.0
 32
0.0
 13
1.0
 23
0.0
 33
0.0
 40
0.0
 40
0.0
 40
0.0
 40
0.0
 40
0.1324053751750061
 40
0.2569748962870538
 40
0.3780736292841083
 40
0.5004380667410373
 40
0.6226046805297614
 40
0.743475373009681
 40
0.8678109901962827
 40
1.0
 40
1.0
 40
1.0
 40
1.0
 10
914.7554878755349
 20
508.2059157547432
 30
0.0
 10
915.7920551992996
 20
508.1222193026294
 30
0.0
 10
917.803844978732
 20
507.9597796201535
 30
0.0
 10
920.6557474782713
 20
507.0792515917988
 30
0.0
 10
923.2155843596902
 20
505.7193739523498
 30
0.0
 10
925.4323776728913
 20
503.878683581522
 30
0.0
 10
927.2726611754147
 20
501.6624160491488
 30
0.0
 10
928.6309473014834
 20
499.1038510269192
 30
0.0
 10
929.5113351001161
 20
496.2528095019177
 30
0.0
 10
929.6751689596659
 20
494.2420659599106
 30
0.0
 10
929.7595937414901
 20
493.2059151586967
 30
0.0
  0
LINE
  5
154
330
1F
100
AcDbEntity
  8
0
  6
Continuous
 62
     7
370
    15
100
AcDbLine
 10
929.7595937415
 20
493.2059151587
 30
0.0
 11
929.7595937415
 21
480.4559153971
 31
0.0
  0
LINE
  5
155
330
1F
100
AcDbEntity
  8
0
  6
Continuous
 62
     7
370
    15
100
AcDbLine
 10
870.6022594734
 20
480.4559153971
 30
0.0
 11
870.6022594734
 21
493.2059151587
 31
0.0
  0
LINE
  5
156
330
1F
100
AcDbEntity
  8
0
  6
Continuous
 62
     7
370
    15
100
AcDbLine
 10
909.5913191005
 20
495.4407019076
 30
0.0
 11
911.3994632526
 21
503.5889399704
 31
0.0
  0
SPLINE
  5
157
330
1F
100
AcDbEntity
  8
0
  6
Continuous
 62
     7
370
    15
100
AcDbSpline
210
0.0
220
0.0
230
1.0
 70
     8
 71
     3
 72
    13
 73
     9
 74
     0
 42
0.00000001
 43
0.00000001
 12
1.0
 22
0.0
 32
0.0
 13
1.0
 23
0.0
 33
0.0
 40
0.0
 40
0.0
 40
0.0
 40
0.0
 40
0.3057780714726849
 40
0.4125927849553118
 40
0.4938756723253959
 40
0.5766339964514381
 40
0.6866470615247539
 40
1.0
 40
1.0
 40
1.0
 40
1.0
 10
911.3994632526176
 20
503.5889399704415
 30
0.0
 10
911.3918615645374
 20
503.6585062014437
 30
0.0
 10
911.3816044468824
 20
503.7523733805056
 30
0.0
 10
911.3426094944692
 20
503.8583180515151
 30
0.0
 10
911.3063429236537
 20
503.9100192704188
 30
0.0
 10
911.250466099196
 20
503.9405955051053
 30
0.0
 10
911.1403171268564
 20
503.974533459404
 30
0.0
 10
911.0439226790812
 20
503.9829018883261
 30
0.0
 10
910.9725766493815
 20
503.9890957531409
 30
0.0
  0
LINE
  5
158
330
1F
100
AcDbEntity
  8
0
  6
Continuous
 62
     7
370
    15
100
AcDbLine
 10
910.9725757181
 20
503.9890957531
 30
0.0
 11
907.5764534674
 21
503.0054253993
 31
0.0
  0
LINE
  5
159
330
1F
100
AcDbEntity
  8
0
  6
Continuous
 62
     7
370
    15
100
AcDbLine
 10
907.5764534674
 20
503.0054253993
 30
0.0
 11
907.4311890318
 21
502.8385770974
 31
0.0
  0
LINE
  5
15A
330
1F
100
AcDbEntity
  8
0
  6
Continuous
 62
     7
370
    15
100
AcDbLine
 10
907.4311890318
 20
502.8385770974
 30
0.0
 11
906.7356363549
 21
498.016188806
 31
0.0
  0
LINE
  5
15B
330
1F
100
AcDbEntity
  8
0
  6
Continuous
 62
     7
370
    15
100
AcDbLine
 10
906.7356363549
 20
498.016188806
 30
0.0
 11
903.7677483312
 21
501.6957921442
 31
0.0
  0
LINE
  5
15C
330
1F
100
AcDbEntity
  8
0
  6
Continuous
 62
     7
370
    15
100
AcDbLine
 10
903.7677483312
 20
501.6957921442
 30
0.0
 11
903.5484588849
 21
501.7627430615
 31
0.0
  0
LINE
  5
15D
330
1F
100
AcDbEntity
  8
0
  6
Continuous
 62
     7
370
    15
100
AcDbLine
 10
899.6494238991
 20
500.5611581263
 30
0.0
 11
902.4242326296
 21
497.6785284934
 31
0.0
  0
LINE
  5
15E
330
1F
100
AcDbEntity
  8
0
  6
Continuous
 62
     7
370
    15
100
AcDbLine
 10
902.4242326296
 20
497.6785284934
 30
0.0
 11
905.704756794
 21
494.3188977894
 31
0.0
  0
LINE
  5
15F
330
1F
100
AcDbEntity
  8
0
  6
Continuous
 62
     7
370
    15
100
AcDbLine
 10
905.704756794
 20
494.3188977894
 30
0.0
 11
903.5141077503
 21
485.0723249373
 31
0.0
  0
SPLINE
  5
160
330
1F
100
AcDbEntity
  8
0
  6
Continuous
 62
     7
370
    15
100
AcDbSpline
210
0.0
220
0.0
230
1.0
 70
     8
 71
     3
 72
    13
 73
     9
 74
     0
 42
0.00000001
 43
0.00000001
 12
1.0
 22
0.0
 32
0.0
 13
1.0
 23
0.0
 33
0.0
 40
0.0
 40
0.0
 40
0.0
 40
0.0
 40
0.3064282796803046
 40
0.4132888750357452
 40
0.4944319120710037
 40
0.5769668181686068
 40
0.686764646258324
 40
1.0
 40
1.0
 40
1.0
 40
1.0
 10
903.5141077502507
 20
485.0723249372917
 30
0.0
 10
903.5211132646203
 20
485.0021331948029
 30
0.0
 10
903.5305618088474
 20
484.9074635177084
 30
0.0
 10
903.5687091969094
 20
484.8003832889265
 30
0.0
 10
903.6045546976513
 20
484.7479960059513
 30
0.0
 10
903.6604603769242
 20
484.7168465325438
 30
0.0
 10
903.7710778435581
 20
484.6823096270617
 30
0.0
 10
903.8680108712587
 20
484.6737264229689
 30
0.0
 10
903.9397850311237
 20
484.6673709806877
 30
0.0
  0
LINE
  5
161
330
1F
100
AcDbEntity
  8
0
  6
Continuous
 62
     7
370
    15
100
AcDbLine
 10
903.9397864281
 20
484.6673709807
 30
0.0
 11
907.5613176129
 21
485.7113612351
 31
0.0
  0
LINE
  5
162
330
1F
100
AcDbEntity
  8
0
  6
Continuous
 62
     7
370
    15
100
AcDbLine
 10
907.5613176129
 20
485.7113612351
 30
0.0
 11
907.7068074285
 21
485.8782244381
 31
0.0
  0
LINE
  5
163
330
1F
100
AcDbEntity
  8
0
  6
Continuous
 62
     7
370
    15
100
AcDbLine
 10
907.7068074285
 20
485.8782244381
 30
0.0
 11
908.5441334783
 21
491.6747314391
 31
0.0
  0
LINE
  5
164
330
1F
100
AcDbEntity
  8
0
  6
Continuous
 62
     7
370
    15
100
AcDbLine
 10
908.5441334783
 20
491.6747314391
 30
0.0
 11
912.2703336789
 21
487.1737760958
 31
0.0
  0
LINE
  5
165
330
1F
100
AcDbEntity
  8
0
  6
Continuous
 62
     7
370
    15
100
AcDbLine
 10
912.2703336789
 20
487.1737760958
 30
0.0
 11
912.4845155193
 21
487.1078980622
 31
0.0
  0
LINE
  5
166
330
1F
100
AcDbEntity
  8
0
  6
Continuous
 62
     7
370
    15
100
AcDbLine
 10
912.4845155193
 20
487.1078980622
 30
0.0
 11
916.6551773115
 21
488.3187366185
 31
0.0
  0
LINE
  5
167
330
1F
100
AcDbEntity
  8
0
  6
Continuous
 62
     7
370
    15
100
AcDbLine
 10
916.6551773115
 20
488.3187366185
 30
0.0
 11
915.3874060749
 21
489.6060777363
 31
0.0
  0
LINE
  5
168
330
1F
100
AcDbEntity
  8
0
  6
Continuous
 62
     7
370
    15
100
AcDbLine
 10
915.3874060749
 20
489.6060777363
 30
0.0
 11
909.5913191005
 21
495.4407019076
 31
0.0
  0
LINE
  5
169
330
1F
100
AcDbEntity
  8
0
  6
Continuous
 62
     7
370
    15
100
AcDbLine
 10
889.7312852233
 20
489.2940176186
 30
0.0
 11
889.7312852233
 21
499.5750737843
 31
0.0
  0
SPLINE
  5
16A
330
1F
100
AcDbEntity
  8
0
  6
Continuous
 62
     7
370
    15
100
AcDbSpline
210
0.0
220
0.0
230
1.0
 70
     8
 71
     3
 72
    12
 73
     8
 74
     0
 42
0.00000001
 43
0.00000001
 12
1.0
 22
0.0
 32
0.0
 13
1.0
 23
0.0
 33
0.0
 40
0.0
 40
0.0
 40
0.0
 40
0.0
 40
0.2984282174337137
 40
0.4080669810042601
 40
0.4948229027430309
 40
0.6939963457835843
 40
1.0
 40
1.0
 40
1.0
 40
1.0
 10
889.7312852232592
 20
499.5750737842994
 30
0.0
 10
889.7116637219542
 20
499.6586903042456
 30
0.0
 10
889.6848335285189
 20
499.7730264791219
 30
0.0
 10
889.6239838677693
 20
499.9017978681933
 30
0.0
 10
889.5540712932582
 20
499.9930180163673
 30
0.0
 10
889.3962634495578
 20
500.0691970282526
 30
0.0
 10
889.2577501150828
 20
500.1083858414985
 30
0.0
 10
889.1738476841587
 20
500.132123893209
 30
0.0
  0
LINE
  5
16B
330
1F
100
AcDbEntity
  8
0
  6
Continuous
 62
     7
370
    15
100
AcDbLine
 10
889.1738476842
 20
500.1321238932
 30
0.0
 11
886.3094328581
 21
500.1321238932
 31
0.0
  0
SPLINE
  5
16C
330
1F
100
AcDbEntity
  8
0
  6
Continuous
 62
     7
370
    15
100
AcDbSpline
210
0.0
220
0.0
230
1.0
 70
     8
 71
     3
 72
    12
 73
     8
 74
     0
 42
0.00000001
 43
0.00000001
 12
1.0
 22
0.0
 32
0.0
 13
1.0
 23
0.0
 33
0.0
 40
0.0
 40
0.0
 40
0.0
 40
0.0
 40
0.2327200212177327
 40
0.3431173933279699
 40
0.4553277718846372
 40
0.7016239533625093
 40
1.0
 40
1.0
 40
1.0
 40
1.0
 10
886.309432858123
 20
500.132123893209
 30
0.0
 10
886.2275317968106
 20
500.124454597484
 30
0.0
 10
886.1067786337552
 20
500.1131471528383
 30
0.0
 10
885.9650183993715
 20
500.0372761186787
 30
0.0
 10
885.8383353267127
 20
499.9328339009757
 30
0.0
 10
885.7083502131704
 20
499.737153066596
 30
0.0
 10
885.6575890026676
 20
499.5533208709525
 30
0.0
 10
885.6297815828459
 20
499.4526160416084
 30
0.0
  0
LINE
  5
16D
330
1F
100
AcDbEntity
  8
0
  6
Continuous
 62
     7
370
    15
100
AcDbLine
 10
885.6297815828
 20
499.4526160416
 30
0.0
 11
885.6297815828
 21
493.4018803296
 31
0.0
  0
LINE
  5
16E
330
1F
100
AcDbEntity
  8
0
  6
Continuous
 62
     7
370
    15
100
AcDbLine
 10
885.6297815828
 20
493.4018803296
 30
0.0
 11
881.3102637096
 21
499.8316121754
 31
0.0
  0
SPLINE
  5
16F
330
1F
100
AcDbEntity
  8
0
  6
Continuous
 62
     7
370
    15
100
AcDbSpline
210
0.0
220
0.0
230
1.0
 70
     8
 71
     3
 72
    10
 73
     6
 74
     0
 42
0.00000001
 43
0.00000001
 12
1.0
 22
0.0
 32
0.0
 13
1.0
 23
0.0
 33
0.0
 40
0.0
 40
0.0
 40
0.0
 40
0.0
 40
0.2114422658406661
 40
0.4431646443778009
 40
1.0
 40
1.0
 40
1.0
 40
1.0
 10
881.3102637096183
 20
499.8316121754128
 30
0.0
 10
881.2798050673042
 20
499.8661619874552
 30
0.0
 10
881.215966395619
 20
499.9385753959393
 30
0.0
 10
881.0301702638433
 20
500.0560692973706
 30
0.0
 10
880.8639972868582
 20
500.1006461873682
 30
0.0
 10
880.7466552271383
 20
500.132123893209
 30
0.0
  0
LINE
  5
170
330
1F
100
AcDbEntity
  8
0
  6
Continuous
 62
     7
370
    15
100
AcDbLine
 10
880.7466552271
 20
500.1321238932
 30
0.0
 11
876.5572514995
 21
500.1321238932
 31
0.0
  0
SPLINE
  5
171
330
1F
100
AcDbEntity
  8
0
  6
Continuous
 62
     7
370
    15
100
AcDbSpline
210
0.0
220
0.0
230
1.0
 70
     8
 71
     3
 72
    12
 73
     8
 74
     0
 42
0.00000001
 43
0.00000001
 12
1.0
 22
0.0
 32
0.0
 13
1.0
 23
0.0
 33
0.0
 40
0.0
 40
0.0
 40
0.0
 40
0.0
 40
0.3017141083621554
 40
0.4121224899560254
 40
0.4986906739558902
 40
0.6962986653065805
 40
1.0
 40
1.0
 40
1.0
 40
1.0
 10
876.5572514994876
 20
500.132123893209
 30
0.0
 10
876.4648997782497
 20
500.1093262701586
 30
0.0
 10
876.3387531372625
 20
500.0781861513635
 30
0.0
 10
876.1966172629504
 20
500.0110600332874
 30
0.0
 10
876.095661749384
 20
499.9360767328957
 30
0.0
 10
876.0117173911601
 20
499.763717586203
 30
0.0
 10
875.9710284300664
 20
499.6120287590294
 30
0.0
 10
875.9463783963458
 20
499.5201332029777
 30
0.0
  0
LINE
  5
172
330
1F
100
AcDbEntity
  8
0
  6
Continuous
 62
     7
370
    15
100
AcDbLine
 10
875.9463783963
 20
499.520133203
 30
0.0
 11
875.9463783963
 21
489.195506042
 31
0.0
  0
SPLINE
  5
173
330
1F
100
AcDbEntity
  8
0
  6
Continuous
 62
     7
370
    15
100
AcDbSpline
210
0.0
220
0.0
230
1.0
 70
     8
 71
     3
 72
    12
 73
     8
 74
     0
 42
0.00000001
 43
0.00000001
 12
1.0
 22
0.0
 32
0.0
 13
1.0
 23
0.0
 33
0.0
 40
0.0
 40
0.0
 40
0.0
 40
0.0
 40
0.3010958708598263
 40
0.4113333351826433
 40
0.4978374056389583
 40
0.6956840528534859
 40
1.0
 40
1.0
 40
1.0
 40
1.0
 10
875.9463783963458
 20
489.1955060419517
 30
0.0
 10
875.9690824721063
 20
489.1030619178352
 30
0.0
 10
876.0000989824891
 20
488.9767720760573
 30
0.0
 10
876.0670031741042
 20
488.8344738153469
 30
0.0
 10
876.141851048975
 20
488.7332738554184
 30
0.0
 10
876.3139786436249
 20
488.6491359024235
 30
0.0
 10
876.4654551208655
 20
488.6082765561564
 30
0.0
 10
876.5572514994876
 20
488.5835153517204
 30
0.0
  0
LINE
  5
174
330
1F
100
AcDbEntity
  8
0
  6
Continuous
 62
     7
370
    15
100
AcDbLine
 10
876.5572514995
 20
488.5835153517
 30
0.0
 11
879.3600872769
 21
488.5835153517
 31
0.0
  0
SPLINE
  5
175
330
1F
100
AcDbEntity
  8
0
  6
Continuous
 62
     7
370
    15
100
AcDbSpline
210
0.0
220
0.0
230
1.0
 70
     8
 71
     3
 72
    12
 73
     8
 74
     0
 42
0.00000001
 43
0.00000001
 12
1.0
 22
0.0
 32
0.0
 13
1.0
 23
0.0
 33
0.0
 40
0.0
 40
0.0
 40
0.0
 40
0.0
 40
0.232719225105445
 40
0.3431173417307828
 40
0.4553274842549507
 40
0.7016230641357013
 40
1.0
 40
1.0
 40
1.0
 40
1.0
 10
879.3600872768897
 20
488.5835153517204
 30
0.0
 10
879.4418810826984
 20
488.5911848340228
 30
0.0
 10
879.5624765049566
 20
488.6024925907364
 30
0.0
 10
879.7040634765576
 20
488.6783627859646
 30
0.0
 10
879.8305963951684
 20
488.7828053616647
 30
0.0
 10
879.9604338566461
 20
488.978487005767
 30
0.0
 10
880.011141076757
 20
489.1623185072838
 30
0.0
 10
880.0389189883011
 20
489.263023203321
 30
0.0
  0
LINE
  5
176
330
1F
100
AcDbEntity
  8
0
  6
Continuous
 62
     7
370
    15
100
AcDbLine
 10
880.0389189883
 20
489.2630232033
 30
0.0
 11
880.0389189883
 21
495.4045516905
 31
0.0
  0
LINE
  5
177
330
1F
100
AcDbEntity
  8
0
  6
Continuous
 62
     7
370
    15
100
AcDbLine
 10
880.0389189883
 20
495.4045516905
 30
0.0
 11
884.7572934492
 21
488.8653112111
 31
0.0
  0
SPLINE
  5
178
330
1F
100
AcDbEntity
  8
0
  6
Continuous
 62
     7
370
    15
100
AcDbSpline
210
0.0
220
0.0
230
1.0
 70
     8
 71
     3
 72
    10
 73
     6
 74
     0
 42
0.00000001
 43
0.00000001
 12
1.0
 22
0.0
 32
0.0
 13
1.0
 23
0.0
 33
0.0
 40
0.0
 40
0.0
 40
0.0
 40
0.0
 40
0.2074420024761037
 40
0.4382227030700066
 40
1.0
 40
1.0
 40
1.0
 40
1.0
 10
884.7572934492366
 20
488.8653112110572
 30
0.0
 10
884.7870481806884
 20
488.8333020268798
 30
0.0
 10
884.8499052621389
 20
488.7656823980394
 30
0.0
 10
885.032011669879
 20
488.6561891766979
 30
0.0
 10
885.1936861115795
 20
488.6136604015618
 30
0.0
 10
885.3082834421533
 20
488.5835153517204
 30
0.0
  0
LINE
  5
179
330
1F
100
AcDbEntity
  8
0
  6
Continuous
 62
     7
370
    15
100
AcDbLine
 10
885.3082834422
 20
488.5835153517
 30
0.0
 11
889.0202949433
 21
488.5835153517
 31
0.0
  0
SPLINE
  5
17A
330
1F
100
AcDbEntity
  8
0
  6
Continuous
 62
     7
370
    15
100
AcDbSpline
210
0.0
220
0.0
230
1.0
 70
     8
 71
     3
 72
    12
 73
     8
 74
     0
 42
0.00000001
 43
0.00000001
 12
1.0
 22
0.0
 32
0.0
 13
1.0
 23
0.0
 33
0.0
 40
0.0
 40
0.0
 40
0.0
 40
0.0
 40
0.2348652407598158
 40
0.3459195697894479
 40
0.4584069953513419
 40
0.7039399454971889
 40
1.0
 40
1.0
 40
1.0
 40
1.0
 10
889.0202949433462
 20
488.5835153517204
 30
0.0
 10
889.1065953176509
 20
488.5923549418255
 30
0.0
 10
889.2337021992632
 20
488.6053742681268
 30
0.0
 10
889.382745591107
 20
488.6853972449643
 30
0.0
 10
889.5152391570881
 20
488.7945986398797
 30
0.0
 10
889.6507905656869
 20
488.9981684386972
 30
0.0
 10
889.7028351955925
 20
489.1894526995474
 30
0.0
 10
889.7312852232592
 20
489.2940176186042
 30
0.0
  0
LINE
  5
17B
330
1F
100
AcDbEntity
  8
0
  6
Continuous
 62
     7
370
    15
100
AcDbLine
 10
899.6508374722
 20
500.5611581263
 30
0.0
 11
900.2440854338
 21
499.9432069716
 31
0.0
  0
LINE
  5
17C
330
1F
100
AcDbEntity
  8
0
  6
Continuous
 62
     7
370
    15
100
AcDbLine
 10
900.6794046755
 20
497.3945570645
 30
0.0
 11
900.103872812
 21
497.9940456805
 31
0.0
  0
LINE
  5
17D
330
1F
100
AcDbEntity
  8
0
  6
Continuous
 62
     7
370
    15
100
AcDbLine
 10
901.315605096
 20
493.8267124352
 30
0.0
 11
901.3125873781
 21
493.8267124352
 31
0.0
  0
SPLINE
  5
17E
330
1F
100
AcDbEntity
  8
0
  6
Continuous
 62
     7
370
    15
100
AcDbSpline
210
0.0
220
0.0
230
1.0
 70
     8
 71
     3
 72
    11
 73
     7
 74
     0
 42
0.00000001
 43
0.00000001
 12
1.0
 22
0.0
 32
0.0
 13
1.0
 23
0.0
 33
0.0
 40
0.0
 40
0.0
 40
0.0
 40
0.0
 40
0.3029942089923107
 40
0.4996480800313409
 40
0.6967881010069666
 40
1.0
 40
1.0
 40
1.0
 40
1.0
 10
901.3125873780685
 20
495.3555566725212
 30
0.0
 10
901.287858911597
 20
495.4528775651304
 30
0.0
 10
901.2470808028812
 20
495.6133631311777
 30
0.0
 10
901.1383376975219
 20
495.829016219327
 30
0.0
 10
900.9225128477017
 20
495.9374714225536
 30
0.0
 10
900.7620259319281
 20
495.9790422273019
 30
0.0
 10
900.6647712986327
 20
496.0042340216117
 30
0.0
  0
LINE
  5
17F
330
1F
100
AcDbEntity
  8
0
  6
Continuous
 62
     7
370
    15
100
AcDbLine
 10
901.315605096
 20
495.3555566725
 30
0.0
 11
901.3125873781
 21
495.3555566725
 31
0.0
  0
LINE
  5
180
330
1F
100
AcDbEntity
  8
0
  6
Continuous
 62
     7
370
    15
100
AcDbLine
 10
901.3125873781
 20
493.8267124352
 30
0.0
 11
901.3125873781
 21
495.3555566725
 31
0.0
  0
LINE
  5
181
330
1F
100
AcDbEntity
  8
0
  6
Continuous
 62
     7
370
    15
100
AcDbLine
 10
903.2180451932
 20
489.2812324223
 30
0.0
 11
903.2099678325
 21
489.2812324223
 31
0.0
  0
SPLINE
  5
182
330
1F
100
AcDbEntity
  8
0
  6
Continuous
 62
     7
370
    15
100
AcDbSpline
210
0.0
220
0.0
230
1.0
 70
     8
 71
     3
 72
    11
 73
     7
 74
     0
 42
0.00000001
 43
0.00000001
 12
1.0
 22
0.0
 32
0.0
 13
1.0
 23
0.0
 33
0.0
 40
0.0
 40
0.0
 40
0.0
 40
0.0
 40
0.3030063417347658
 40
0.4996674035861911
 40
0.6967943112279898
 40
1.0
 40
1.0
 40
1.0
 40
1.0
 10
903.2099678325342
 20
490.9437549766975
 30
0.0
 10
903.1852147836818
 20
491.0411393904025
 30
0.0
 10
903.1443961936149
 20
491.2017294852075
 30
0.0
 10
903.0356046424756
 20
491.4175338968085
 30
0.0
 10
902.8196500638844
 20
491.5260564604888
 30
0.0
 10
902.6590722710237
 20
491.5676552494999
 30
0.0
 10
902.5617608013438
 20
491.5928644594627
 30
0.0
  0
LINE
  5
183
330
1F
100
AcDbEntity
  8
0
  6
Continuous
 62
     7
370
    15
100
AcDbLine
 10
903.2180451932
 20
490.9437549767
 30
0.0
 11
903.2099678325
 21
490.9437549767
 31
0.0
  0
LINE
  5
184
330
1F
100
AcDbEntity
  8
0
  6
Continuous
 62
     7
370
    15
100
AcDbLine
 10
903.2099678325
 20
489.2812324223
 30
0.0
 11
903.2099678325
 21
490.9437549767
 31
0.0
  0
LINE
  5
185
330
1F
100
AcDbEntity
  8
0
  6
Continuous
 62
     7
370
    15
100
AcDbLine
 10
903.758208794
 20
501.6957921442
 30
0.0
 11
903.5395025886
 21
501.7627430615
 31
0.0
  0
LINE
  5
186
330
1F
100
AcDbEntity
  8
0
  6
Continuous
 62
     7
370
    15
100
AcDbLine
 10
903.7677483312
 20
501.6957921442
 30
0.0
 11
903.758208794
 21
501.6957921442
 31
0.0
  0
LINE
  5
187
330
1F
100
AcDbEntity
  8
0
  6
Continuous
 62
     7
370
    15
100
AcDbLine
 10
906.7182038589
 20
498.016188806
 30
0.0
 11
903.758208794
 21
501.6957921442
 31
0.0
  0
LINE
  5
188
330
1F
100
AcDbEntity
  8
0
  6
Continuous
 62
     7
370
    15
100
AcDbLine
 10
906.7356363549
 20
498.016188806
 30
0.0
 11
906.7182038589
 21
498.016188806
 31
0.0
  0
LINE
  5
189
330
1F
100
AcDbEntity
  8
0
  6
Continuous
 62
     7
370
    15
100
AcDbLine
 10
903.9297893788
 20
484.6673709807
 30
0.0
 11
907.5416890583
 21
485.7113612351
 31
0.0
  0
LINE
  5
18A
330
1F
100
AcDbEntity
  8
0
  6
Continuous
 62
     7
370
    15
100
AcDbLine
 10
907.5613176129
 20
485.7113612351
 30
0.0
 11
907.5416890583
 21
485.7113612351
 31
0.0
  0
LINE
  5
18B
330
1F
100
AcDbEntity
  8
0
  6
Continuous
 62
     7
370
    15
100
AcDbLine
 10
907.5416890583
 20
485.7113612351
 30
0.0
 11
907.6867919094
 21
485.8782244381
 31
0.0
  0
LINE
  5
18C
330
1F
100
AcDbEntity
  8
0
  6
Continuous
 62
     7
370
    15
100
AcDbLine
 10
907.7068074285
 20
485.8782244381
 30
0.0
 11
907.6867919094
 21
485.8782244381
 31
0.0
  0
LINE
  5
18D
330
1F
100
AcDbEntity
  8
0
  6
Continuous
 62
     7
370
    15
100
AcDbLine
 10
907.6867919094
 20
485.8782244381
 30
0.0
 11
908.5218907012
 21
491.6747314391
 31
0.0
  0
LINE
  5
18E
330
1F
100
AcDbEntity
  8
0
  6
Continuous
 62
     7
370
    15
100
AcDbLine
 10
908.5441334783
 20
491.6747314391
 30
0.0
 11
908.5218907012
 21
491.6747314391
 31
0.0
  0
LINE
  5
18F
330
1F
100
AcDbEntity
  8
0
  6
Continuous
 62
     7
370
    15
100
AcDbLine
 10
891.4491423084
 20
499.6628267226
 30
0.0
 11
891.4723657681
 21
499.6628267226
 31
0.0
  0
SPLINE
  5
190
330
1F
100
AcDbEntity
  8
0
  6
Continuous
 62
     7
370
    15
100
AcDbSpline
210
0.0
220
0.0
230
1.0
 70
     8
 71
     3
 72
    12
 73
     8
 74
     0
 42
0.00000001
 43
0.00000001
 12
1.0
 22
0.0
 32
0.0
 13
1.0
 23
0.0
 33
0.0
 40
0.0
 40
0.0
 40
0.0
 40
0.0
 40
0.3014449554767822
 40
0.4117715930481269
 40
0.4982916078848393
 40
0.6960198416733827
 40
0.9999999999999999
 40
0.9999999999999999
 40
0.9999999999999999
 40
0.9999999999999999
 10
891.4723657681483
 20
489.1829294619041
 30
0.0
 10
891.4950700248279
 20
489.0904875428336
 30
0.0
 10
891.5260838725377
 20
488.9642125609885
 30
0.0
 10
891.5929952133458
 20
488.8219034830788
 30
0.0
 10
891.6678288664768
 20
488.7207509584467
 30
0.0
 10
891.8399614034362
 20
488.6365403589521
 30
0.0
 10
891.9914967896582
 20
488.5956804722209
 30
0.0
 10
892.0833105831283
 20
488.5709238705116
 30
0.0
  0
LINE
  5
191
330
1F
100
AcDbEntity
  8
0
  6
Continuous
 62
     7
370
    15
100
AcDbLine
 10
891.4491423084
 20
489.1829294619
 30
0.0
 11
891.4723657681
 21
489.1829294619
 31
0.0
  0
LINE
  5
192
330
1F
100
AcDbEntity
  8
0
  6
Continuous
 62
     7
370
    15
100
AcDbLine
 10
891.4723657681
 20
499.6628267226
 30
0.0
 11
891.4723657681
 21
489.1829294619
 31
0.0
  0
LINE
  5
193
330
1F
100
AcDbEntity
  8
0
  6
Continuous
 62
     7
370
    15
100
AcDbLine
 10
915.3469633921
 20
489.6060777363
 30
0.0
 11
909.5662907376
 21
495.4407019076
 31
0.0
  0
LINE
  5
194
330
1F
100
AcDbEntity
  8
0
  6
Continuous
 62
     7
370
    15
100
AcDbLine
 10
909.5913191005
 20
495.4407019076
 30
0.0
 11
909.5662907376
 21
495.4407019076
 31
0.0
  0
LINE
  5
195
330
1F
100
AcDbEntity
  8
0
  6
Continuous
 62
     7
370
    15
100
AcDbLine
 10
915.3874060749
 20
489.6060777363
 30
0.0
 11
915.3469633921
 21
489.6060777363
 31
0.0
  0
LINE
  5
196
330
1F
100
AcDbEntity
  8
0
  6
Continuous
 62
     7
370
    15
100
AcDbLine
 10
909.5662907376
 20
495.4407019076
 30
0.0
 11
911.3696264713
 21
503.5889399704
 31
0.0
  0
LINE
  5
197
330
1F
100
AcDbEntity
  8
0
  6
Continuous
 62
     7
370
    15
100
AcDbLine
 10
911.3994632526
 20
503.5889399704
 30
0.0
 11
911.3696264713
 21
503.5889399704
 31
0.0
  0
SPLINE
  5
198
330
1F
100
AcDbEntity
  8
0
  6
Continuous
 62
     7
370
    15
100
AcDbSpline
210
0.0
220
0.0
230
1.0
 70
     8
 71
     3
 72
    13
 73
     9
 74
     0
 42
0.00000001
 43
0.00000001
 12
1.0
 22
0.0
 32
0.0
 13
1.0
 23
0.0
 33
0.0
 40
0.0
 40
0.0
 40
0.0
 40
0.0
 40
0.306178012615595
 40
0.4131008226824939
 40
0.4944177232493805
 40
0.5771278726248243
 40
0.6870312535113127
 40
1.0
 40
1.0
 40
1.0
 40
1.0
 10
911.3696264712946
 20
503.5889399704415
 30
0.0
 10
911.3620462187507
 20
503.6585018051452
 30
0.0
 10
911.3518188071371
 20
503.752355870295
 30
0.0
 10
911.312931509745
 20
503.8583004061355
 30
0.0
 10
911.2767761402439
 20
503.9099985912819
 30
0.0
 10
911.2210394985927
 20
503.940593040618
 30
0.0
 10
911.1111822711379
 20
503.9745286524274
 30
0.0
 10
911.01503388571
 20
503.9829000559294
 30
0.0
 10
910.9438742189543
 20
503.9890957531409
 30
0.0
  0
LINE
  5
199
330
1F
100
AcDbEntity
  8
0
  6
Continuous
 62
     7
370
    15
100
AcDbLine
 10
912.4517935007
 20
487.1078980622
 30
0.0
 11
916.6113623096
 21
488.3187366185
 31
0.0
  0
LINE
  5
19A
330
1F
100
AcDbEntity
  8
0
  6
Continuous
 62
     7
370
    15
100
AcDbLine
 10
916.6551773115
 20
488.3187366185
 30
0.0
 11
916.6113623096
 21
488.3187366185
 31
0.0
  0
LINE
  5
19B
330
1F
100
AcDbEntity
  8
0
  6
Continuous
 62
     7
370
    15
100
AcDbLine
 10
885.6297815828
 20
499.4526160416
 30
0.0
 11
885.6684817611
 21
499.4526160416
 31
0.0
  0
LINE
  5
19C
330
1F
100
AcDbEntity
  8
0
  6
Continuous
 62
     7
370
    15
100
AcDbLine
 10
885.6684817611
 20
499.4526160416
 30
0.0
 11
885.6684817611
 21
493.4018803296
 31
0.0
  0
LINE
  5
19D
330
1F
100
AcDbEntity
  8
0
  6
Continuous
 62
     7
370
    15
100
AcDbLine
 10
885.6297815828
 20
493.4018803296
 30
0.0
 11
885.6684817611
 21
493.4018803296
 31
0.0
  0
SPLINE
  5
19E
330
1F
100
AcDbEntity
  8
0
  6
Continuous
 62
     7
370
    15
100
AcDbSpline
210
0.0
220
0.0
230
1.0
 70
     8
 71
     3
 72
    10
 73
     6
 74
     0
 42
0.00000001
 43
0.00000001
 12
1.0
 22
0.0
 32
0.0
 13
1.0
 23
0.0
 33
0.0
 40
0.0
 40
0.0
 40
0.0
 40
0.0
 40
0.2075899126722869
 40
0.4384081694362817
 40
1.0
 40
1.0
 40
1.0
 40
1.0
 10
884.7983135520356
 20
488.8653112110572
 30
0.0
 10
884.827984515897
 20
488.833304798555
 30
0.0
 10
884.8906464862423
 20
488.7657106051054
 30
0.0
 10
885.0722447551336
 20
488.6562111910014
 30
0.0
 10
885.2335320617608
 20
488.6136669998951
 30
0.0
 10
885.3478385745423
 20
488.5835153517204
 30
0.0
  0
LINE
  5
19F
330
1F
100
AcDbEntity
  8
0
  6
Continuous
 62
     7
370
    15
100
AcDbLine
 10
884.7572934492
 20
488.8653112111
 30
0.0
 11
884.798313552
 21
488.8653112111
 31
0.0
  0
LINE
  5
1A0
330
1F
100
AcDbEntity
  8
0
  6
Continuous
 62
     7
370
    15
100
AcDbLine
 10
916.6113623096
 20
488.3187366185
 30
0.0
 11
915.3469633921
 21
489.6060777363
 31
0.0
  0
LINE
  5
1A1
330
1F
100
AcDbEntity
  8
0
  6
Continuous
 62
     7
370
    15
100
AcDbLine
 10
880.0924868001
 20
495.4045516905
 30
0.0
 11
884.798313552
 21
488.8653112111
 31
0.0
  0
LINE
  5
1A2
330
1F
100
AcDbEntity
  8
0
  6
Continuous
 62
     7
370
    15
100
AcDbLine
 10
880.0389189883
 20
495.4045516905
 30
0.0
 11
880.0924868001
 21
495.4045516905
 31
0.0
  0
LINE
  5
1A3
330
1F
100
AcDbEntity
  8
0
  6
Continuous
 62
     7
370
    15
100
AcDbLine
 10
920.2813003822
 20
489.1836000142
 30
0.0
 11
920.2278406038
 21
489.1836000142
 31
0.0
  0
LINE
  5
1A4
330
1F
100
AcDbEntity
  8
0
  6
Continuous
 62
     7
370
    15
100
AcDbLine
 10
920.2278406038
 20
489.1836000142
 30
0.0
 11
920.2278406038
 21
497.2452325282
 31
0.0
  0
LINE
  5
1A5
330
1F
100
AcDbEntity
  8
0
  6
Continuous
 62
     7
370
    15
100
AcDbLine
 10
920.2813003822
 20
497.2452325282
 30
0.0
 11
920.2278406038
 21
497.2452325282
 31
0.0
  0
LINE
  5
1A6
330
1F
100
AcDbEntity
  8
0
  6
Continuous
 62
     7
370
    15
100
AcDbLine
 10
875.9463783963
 20
499.520133203
 30
0.0
 11
876.0108315064
 21
499.520133203
 31
0.0
  0
LINE
  5
1A7
330
1F
100
AcDbEntity
  8
0
  6
Continuous
 62
     7
370
    15
100
AcDbLine
 10
875.9463783963
 20
489.195506042
 30
0.0
 11
876.0108315064
 21
489.195506042
 31
0.0
  0
SPLINE
  5
1A8
330
1F
100
AcDbEntity
  8
0
  6
Continuous
 62
     7
370
    15
100
AcDbSpline
210
0.0
220
0.0
230
1.0
 70
     8
 71
     3
 72
    12
 73
     8
 74
     0
 42
0.00000001
 43
0.00000001
 12
1.0
 22
0.0
 32
0.0
 13
1.0
 23
0.0
 33
0.0
 40
0.0
 40
0.0
 40
0.0
 40
0.0
 40
0.3014331125250941
 40
0.4117613162725824
 40
0.4982949972709578
 40
0.6960172009996903
 40
0.9999999999999999
 40
0.9999999999999999
 40
0.9999999999999999
 40
0.9999999999999999
 10
876.0108315064447
 20
489.1955060419517
 30
0.0
 10
876.0334713958883
 20
489.1030681899619
 30
0.0
 10
876.0643977616069
 20
488.976796954231
 30
0.0
 10
876.1311270048005
 20
488.8344942876127
 30
0.0
 10
876.2057337920587
 20
488.7333258292856
 30
0.0
 10
876.3774067717862
 20
488.6491397818111
 30
0.0
 10
876.5285205959291
 20
488.6082751878491
 30
0.0
 10
876.6200803830164
 20
488.5835153517204
 30
0.0
  0
LINE
  5
1A9
330
1F
100
AcDbEntity
  8
0
  6
Continuous
 62
     7
370
    15
100
AcDbLine
 10
924.4154748185
 20
497.8572232184
 30
0.0
 11
924.3510217084
 21
497.8572232184
 31
0.0
  0
LINE
  5
1AA
330
1F
100
AcDbEntity
  8
0
  6
Continuous
 62
     7
370
    15
100
AcDbLine
 10
924.4154748185
 20
499.5863390622
 30
0.0
 11
924.3510217084
 21
499.5863390622
 31
0.0
  0
SPLINE
  5
1AB
330
1F
100
AcDbEntity
  8
0
  6
Continuous
 62
     7
370
    15
100
AcDbSpline
210
0.0
220
0.0
230
1.0
 70
     8
 71
     3
 72
    12
 73
     8
 74
     0
 42
0.00000001
 43
0.00000001
 12
1.0
 22
0.0
 32
0.0
 13
1.0
 23
0.0
 33
0.0
 40
0.0
 40
0.0
 40
0.0
 40
0.0
 40
0.3014331125250941
 40
0.4117613162725824
 40
0.4982949972709578
 40
0.6960172009996903
 40
0.9999999999999999
 40
0.9999999999999999
 40
0.9999999999999999
 40
0.9999999999999999
 10
924.3510217084424
 20
499.586339062162
 30
0.0
 10
924.3283818189988
 20
499.6787769141519
 30
0.0
 10
924.2974554532802
 20
499.8050481498827
 30
0.0
 10
924.2307262100867
 20
499.9473508165008
 30
0.0
 10
924.1561194228286
 20
500.0485192748283
 30
0.0
 10
923.9844464431009
 20
500.1327053223025
 30
0.0
 10
923.8333326189583
 20
500.1735699162645
 30
0.0
 10
923.7417728318709
 20
500.1983297523934
 30
0.0
  0
LINE
  5
1AC
330
1F
100
AcDbEntity
  8
0
  6
Continuous
 62
     7
370
    15
100
AcDbLine
 10
876.0108315064
 20
499.520133203
 30
0.0
 11
876.0108315064
 21
489.195506042
 31
0.0
  0
LINE
  5
1AD
330
1F
100
AcDbEntity
  8
0
  6
Continuous
 62
     7
370
    15
100
AcDbLine
 10
924.3510217084
 20
497.8572232184
 30
0.0
 11
924.3510217084
 21
499.5863390622
 31
0.0
  0
LINE
  5
1AE
330
1F
100
AcDbEntity
  8
0
  6
Continuous
 62
     7
370
    15
100
AcDbLine
 10
806.1035331949
 20
466.4559168276
 30
0.0
 11
790.2583238347
 21
466.4559168276
 31
0.0
  0
LINE
  5
1AF
330
1F
100
AcDbEntity
  8
0
  6
Continuous
 62
     7
370
    15
100
AcDbLine
 10
976.9649189575
 20
466.4559168276
 30
0.0
 11
961.1197058721
 21
466.4559168276
 31
0.0
  0
LINE
  5
1B0
330
1F
100
AcDbEntity
  8
0
  6
Continuous
 62
     7
370
    15
100
AcDbLine
 10
1010.1035293802
 20
466.4559168276
 30
0.0
 11
994.25832002
 21
466.4559168276
 31
0.0
  0
LINE
  5
1B1
330
1F
100
AcDbEntity
  8
0
  6
Continuous
 62
     7
370
    15
100
AcDbLine
 10
839.2421473428
 20
466.4559168276
 30
0.0
 11
823.3969342573
 21
466.4559168276
 31
0.0
  0
LINE
  5
1B2
330
1F
100
AcDbEntity
  8
0
  6
Continuous
 62
     7
370
    15
100
AcDbLine
 10
1016.1809232696
 20
905.455927318
 30
0.0
 11
1016.1809232696
 21
480.4559153971
 31
0.0
  0
LINE
  5
1B3
330
1F
100
AcDbEntity
  8
0
  6
Continuous
 62
     7
370
    15
100
AcDbLine
 10
784.1809299453
 20
905.455927318
 30
0.0
 11
784.1809299453
 21
480.4559153971
 31
0.0
  0
LINE
  5
1B4
330
1F
100
AcDbEntity
  8
0
  6
Continuous
 62
     7
370
    15
100
AcDbLine
 10
783.1809279187
 20
903.4559232649
 30
0.0
 11
778.1809252365
 21
903.4559232649
 31
0.0
  0
ARC
  5
1B5
330
1F
100
AcDbEntity
  8
0
  6
Continuous
 62
     7
370
    15
100
AcDbCircle
 10
780.1809266074
 20
903.4559213576
 30
0.0
 40
2.0
100
AcDbArc
 50
90.0
 51
180.0
  0
LINE
  5
1B6
330
1F
100
AcDbEntity
  8
0
  6
Continuous
 62
     7
370
    15
100
AcDbLine
 10
783.1809279187
 20
482.4559194502
 30
0.0
 11
783.1809279187
 21
480.4559153971
 31
0.0
  0
LINE
  5
1B7
330
1F
100
AcDbEntity
  8
0
  6
Continuous
 62
     7
370
    15
100
AcDbLine
 10
783.1809279187
 20
903.4559232649
 30
0.0
 11
783.1809279187
 21
482.4559194502
 31
0.0
  0
LINE
  5
1B8
330
1F
100
AcDbEntity
  8
0
  6
Continuous
 62
     7
370
    15
100
AcDbLine
 10
783.1809279187
 20
903.4559232649
 30
0.0
 11
783.1809279187
 21
905.455927318
 31
0.0
  0
LINE
  5
1B9
330
1F
100
AcDbEntity
  8
0
  6
Continuous
 62
     7
370
    15
100
AcDbLine
 10
778.1809252365
 20
482.4559194502
 30
0.0
 11
783.1809279187
 21
482.4559194502
 31
0.0
  0
LINE
  5
1BA
330
1F
100
AcDbEntity
  8
0
  6
Continuous
 62
     7
370
    15
100
AcDbLine
 10
778.1809252365
 20
482.4559194502
 30
0.0
 11
778.1809252365
 21
903.4559232649
 31
0.0
  0
LINE
  5
1BB
330
1F
100
AcDbEntity
  8
0
  6
Continuous
 62
     7
370
    15
100
AcDbLine
 10
781.1809238656
 20
480.4559153971
 30
0.0
 11
780.1809292897
 21
480.4559153971
 31
0.0
  0
ARC
  5
1BC
330
1F
100
AcDbEntity
  8
0
  6
Continuous
 62
     7
370
    15
100
AcDbCircle
 10
780.1809266074
 20
482.4559213576
 30
0.0
 40
2.000000000000057
100
AcDbArc
 50
180.0
 51
270.0
  0
LINE
  5
1BD
330
1F
100
AcDbEntity
  8
0
  6
Continuous
 62
     7
370
    15
100
AcDbLine
 10
1017.1809252961
 20
903.4559232649
 30
0.0
 11
1017.1809252961
 21
905.455927318
 31
0.0
  0
LINE
  5
1BE
330
1F
100
AcDbEntity
  8
0
  6
Continuous
 62
     7
370
    15
100
AcDbLine
 10
1017.1809252961
 20
482.4559194502
 30
0.0
 11
1017.1809252961
 21
903.4559232649
 31
0.0
  0
LINE
  5
1BF
330
1F
100
AcDbEntity
  8
0
  6
Continuous
 62
     7
370
    15
100
AcDbLine
 10
1017.1809252961
 20
480.4559153971
 30
0.0
 11
1017.1809252961
 21
482.4559194502
 31
0.0
  0
LINE
  5
1C0
330
1F
100
AcDbEntity
  8
0
  6
Continuous
 62
     7
370
    15
100
AcDbLine
 10
1017.1809252961
 20
482.4559194502
 30
0.0
 11
1022.1809279784
 21
482.4559194502
 31
0.0
  0
LINE
  5
1C1
330
1F
100
AcDbEntity
  8
0
  6
Continuous
 62
     7
370
    15
100
AcDbLine
 10
1022.1809279784
 20
903.4559232649
 30
0.0
 11
1017.1809252961
 21
903.4559232649
 31
0.0
  0
LINE
  5
1C2
330
1F
100
AcDbEntity
  8
0
  6
Continuous
 62
     7
370
    15
100
AcDbLine
 10
1022.1809279784
 20
903.4559232649
 30
0.0
 11
1022.1809279784
 21
482.4559194502
 31
0.0
  0
ARC
  5
1C3
330
1F
100
AcDbEntity
  8
0
  6
Continuous
 62
     7
370
    15
100
AcDbCircle
 10
1020.1809266074
 20
482.4559213576
 30
0.0
 40
2.000000000000114
100
AcDbArc
 50
270.0
 51
0.0
  0
LINE
  5
1C4
330
1F
100
AcDbEntity
  8
0
  6
Continuous
 62
     7
370
    15
100
AcDbLine
 10
1020.1809239252
 20
480.4559153971
 30
0.0
 11
1019.1809293493
 21
480.4559153971
 31
0.0
  0
ARC
  5
1C5
330
1F
100
AcDbEntity
  8
0
  6
Continuous
 62
     7
370
    15
100
AcDbCircle
 10
1020.1809266074
 20
903.4559213576
 30
0.0
 40
2.000000000000114
100
AcDbArc
 50
0.0
 51
90.0
  0
LINE
  5
1C6
330
1F
100
AcDbEntity
  8
0
  6
Continuous
 62
     7
370
    15
100
AcDbLine
 10
1001.0369029506
 20
912.4559266028
 30
0.0
 11
799.3249502643
 21
912.4559266028
 31
0.0
  0
LINE
  5
1C7
330
1F
100
AcDbEntity
  8
0
  6
Continuous
 62
     7
370
    15
100
AcDbLine
 10
1001.0369029506
 20
912.4559266028
 30
0.0
 11
1001.0369029506
 21
907.45591647
 31
0.0
  0
LINE
  5
1C8
330
1F
100
AcDbEntity
  8
0
  6
Continuous
 62
     7
370
    15
100
AcDbLine
 10
799.3249502643
 20
907.45591647
 30
0.0
 11
1001.0369029506
 21
907.45591647
 31
0.0
  0
LINE
  5
1C9
330
1F
100
AcDbEntity
  8
0
  6
Continuous
 62
     7
370
    15
100
AcDbLine
 10
799.3249502643
 20
912.4559266028
 30
0.0
 11
799.3249502643
 21
907.45591647
 31
0.0
  0
LINE
  5
1CA
330
1F
100
AcDbEntity
  8
0
  6
Continuous
 62
     7
370
    15
100
AcDbLine
 10
1000.8364003762
 20
905.455927318
 30
0.0
 11
799.5254528387
 21
905.455927318
 31
0.0
  0
ARC
  5
1CB
330
1F
100
AcDbEntity
  8
0
  6
Continuous
 62
     7
370
    15
100
AcDbCircle
 10
804.4625314301
 20
906.9609234377
 30
0.0
 40
5.161371749591637
100
AcDbArc
 50
174.4966825053
 51
196.9530750426
  0
ARC
  5
1CC
330
1F
100
AcDbEntity
  8
0
  6
Continuous
 62
     7
370
    15
100
AcDbCircle
 10
995.8993217848
 20
906.9609234377
 30
0.0
 40
5.16137174957461
100
AcDbArc
 50
343.0469249574
 51
5.5033174947
  0
LINE
  5
1CD
330
1F
100
AcDbEntity
  8
0
  6
Continuous
 62
     7
370
    15
100
AcDbLine
 10
799.8262178763
 20
917.4559218344
 30
0.0
 11
1000.5356353386
 21
917.4559218344
 31
0.0
  0
ARC
  5
1CE
330
1F
100
AcDbEntity
  8
0
  6
Continuous
 62
     7
370
    15
100
AcDbCircle
 10
988.1927605127
 20
913.6933794149
 30
0.0
 40
12.90361516885541
100
AcDbArc
 50
354.4968947844
 51
16.9530655028
  0
ARC
  5
1CF
330
1F
100
AcDbEntity
  8
0
  6
Continuous
 62
     7
370
    15
100
AcDbCircle
 10
812.1690927021
 20
913.6933794149
 30
0.0
 40
12.90361516885844
100
AcDbArc
 50
163.0469344972
 51
185.5031052156
  0
ARC
  5
1D0
330
1F
100
AcDbEntity
  8
0
  6
Continuous
 62
     7
370
    15
100
AcDbCircle
 10
1017.1809266074
 20
912.4559213576
 30
0.0
 40
5.0
100
AcDbArc
 50
0.0
 51
90.0
  0
LINE
  5
1D1
330
1F
100
AcDbEntity
  8
0
  6
Continuous
 62
     7
370
    15
100
AcDbLine
 10
1022.1809279784
 20
912.4559266028
 30
0.0
 11
1001.0369029506
 21
912.4559266028
 31
0.0
  0
LINE
  5
1D2
330
1F
100
AcDbEntity
  8
0
  6
Continuous
 62
     7
370
    15
100
AcDbLine
 10
1000.5356353386
 20
917.4559218344
 30
0.0
 11
1017.1809252961
 21
917.4559218344
 31
0.0
  0
LINE
  5
1D3
330
1F
100
AcDbEntity
  8
0
  6
Continuous
 62
     7
370
    15
100
AcDbLine
 10
1001.0369029506
 20
907.45591647
 30
0.0
 11
1022.1809279784
 21
907.45591647
 31
0.0
  0
ARC
  5
1D4
330
1F
100
AcDbEntity
  8
0
  6
Continuous
 62
     7
370
    15
100
AcDbCircle
 10
1020.1809266074
 20
907.4559213576
 30
0.0
 40
2.0
100
AcDbArc
 50
270.0
 51
0.0
  0
LINE
  5
1D5
330
1F
100
AcDbEntity
  8
0
  6
Continuous
 62
     7
370
    15
100
AcDbLine
 10
1020.1809239252
 20
905.455927318
 30
0.0
 11
1000.8364003762
 21
905.455927318
 31
0.0
  0
LINE
  5
1D6
330
1F
100
AcDbEntity
  8
0
  6
Continuous
 62
     7
370
    15
100
AcDbLine
 10
778.1809252365
 20
907.45591647
 30
0.0
 11
799.3249502643
 21
907.45591647
 31
0.0
  0
ARC
  5
1D7
330
1F
100
AcDbEntity
  8
0
  6
Continuous
 62
     7
370
    15
100
AcDbCircle
 10
780.1809266074
 20
907.4559213576
 30
0.0
 40
2.0
100
AcDbArc
 50
180.0
 51
270.0
  0
LINE
  5
1D8
330
1F
100
AcDbEntity
  8
0
  6
Continuous
 62
     7
370
    15
100
AcDbLine
 10
799.5254528387
 20
905.455927318
 30
0.0
 11
780.1809292897
 21
905.455927318
 31
0.0
  0
LINE
  5
1D9
330
1F
100
AcDbEntity
  8
0
  6
Continuous
 62
     7
370
    15
100
AcDbLine
 10
1022.1809279784
 20
912.4559266028
 30
0.0
 11
1022.1809279784
 21
907.45591647
 31
0.0
  0
LINE
  5
1DA
330
1F
100
AcDbEntity
  8
0
  6
Continuous
 62
     7
370
    15
100
AcDbLine
 10
799.3249502643
 20
912.4559266028
 30
0.0
 11
778.1809252365
 21
912.4559266028
 31
0.0
  0
ARC
  5
1DB
330
1F
100
AcDbEntity
  8
0
  6
Continuous
 62
     7
370
    15
100
AcDbCircle
 10
783.1809266074
 20
912.4559213576
 30
0.0
 40
5.0
100
AcDbArc
 50
90.0
 51
180.0
  0
LINE
  5
1DC
330
1F
100
AcDbEntity
  8
0
  6
Continuous
 62
     7
370
    15
100
AcDbLine
 10
783.1809279187
 20
917.4559218344
 30
0.0
 11
799.8262178763
 21
917.4559218344
 31
0.0
  0
LINE
  5
1DD
330
1F
100
AcDbEntity
  8
0
  6
Continuous
 62
     7
370
    15
100
AcDbLine
 10
778.1809252365
 20
912.4559266028
 30
0.0
 11
778.1809252365
 21
907.45591647
 31
0.0
  0
LINE
  5
1DE
330
1F
100
AcDbEntity
  8
0
  6
Continuous
 62
     7
370
    15
100
AcDbLine
 10
799.3249502643
 20
473.4559161124
 30
0.0
 11
1001.0369029506
 21
473.4559161124
 31
0.0
  0
ARC
  5
1DF
330
1F
100
AcDbEntity
  8
0
  6
Continuous
 62
     7
370
    15
100
AcDbCircle
 10
988.1927605127
 20
472.2184633003
 30
0.0
 40
12.90361516885564
100
AcDbArc
 50
343.0469344972
 51
5.5031052156
  0
LINE
  5
1E0
330
1F
100
AcDbEntity
  8
0
  6
Continuous
 62
     7
370
    15
100
AcDbLine
 10
1000.5356353386
 20
468.4559208807
 30
0.0
 11
799.8262178763
 21
468.4559208807
 31
0.0
  0
ARC
  5
1E1
330
1F
100
AcDbEntity
  8
0
  6
Continuous
 62
     7
370
    15
100
AcDbCircle
 10
812.1690927021
 20
472.2184633003
 30
0.0
 40
12.90361516885856
100
AcDbArc
 50
174.4968947844
 51
196.9530655028
  0
LINE
  5
1E2
330
1F
100
AcDbEntity
  8
0
  6
Continuous
 62
     7
370
    15
100
AcDbLine
 10
799.3249502643
 20
473.4559161124
 30
0.0
 11
799.3249502643
 21
477.4559242186
 31
0.0
  0
LINE
  5
1E3
330
1F
100
AcDbEntity
  8
0
  6
Continuous
 62
     7
370
    15
100
AcDbLine
 10
1001.0369029506
 20
477.4559242186
 30
0.0
 11
799.3249502643
 21
477.4559242186
 31
0.0
  0
LINE
  5
1E4
330
1F
100
AcDbEntity
  8
0
  6
Continuous
 62
     7
370
    15
100
AcDbLine
 10
1001.0369029506
 20
473.4559161124
 30
0.0
 11
1001.0369029506
 21
477.4559242186
 31
0.0
  0
ARC
  5
1E5
330
1F
100
AcDbEntity
  8
0
  6
Continuous
 62
     7
370
    15
100
AcDbCircle
 10
807.0312923986
 20
478.1984131466
 30
0.0
 40
7.742028086967522
100
AcDbArc
 50
163.0467958769
 51
185.5033339421
  0
LINE
  5
1E6
330
1F
100
AcDbEntity
  8
0
  6
Continuous
 62
     7
370
    15
100
AcDbLine
 10
799.6257078512
 20
480.4559153971
 30
0.0
 11
1000.7361453636
 21
480.4559153971
 31
0.0
  0
ARC
  5
1E7
330
1F
100
AcDbEntity
  8
0
  6
Continuous
 62
     7
370
    15
100
AcDbCircle
 10
993.3305608163
 20
478.1984131466
 30
0.0
 40
7.742028086962737
100
AcDbArc
 50
354.4966660579
 51
16.9532041231
  0
LINE
  5
1E8
330
1F
100
AcDbEntity
  8
0
  6
Continuous
 62
     7
370
    15
100
AcDbLine
 10
1001.0369029506
 20
473.4559161124
 30
0.0
 11
1022.1809279784
 21
473.4559161124
 31
0.0
  0
ARC
  5
1E9
330
1F
100
AcDbEntity
  8
0
  6
Continuous
 62
     7
370
    15
100
AcDbCircle
 10
1017.1809266074
 20
473.4559213576
 30
0.0
 40
5.000000000000057
100
AcDbArc
 50
270.0
 51
0.0
  0
LINE
  5
1EA
330
1F
100
AcDbEntity
  8
0
  6
Continuous
 62
     7
370
    15
100
AcDbLine
 10
1017.1809252961
 20
468.4559208807
 30
0.0
 11
1000.5356353386
 21
468.4559208807
 31
0.0
  0
LINE
  5
1EB
330
1F
100
AcDbEntity
  8
0
  6
Continuous
 62
     7
370
    15
100
AcDbLine
 10
778.1809252365
 20
473.4559161124
 30
0.0
 11
799.3249502643
 21
473.4559161124
 31
0.0
  0
LINE
  5
1EC
330
1F
100
AcDbEntity
  8
0
  6
Continuous
 62
     7
370
    15
100
AcDbLine
 10
778.1809252365
 20
473.4559161124
 30
0.0
 11
778.1809252365
 21
477.4559242186
 31
0.0
  0
LINE
  5
1ED
330
1F
100
AcDbEntity
  8
0
  6
Continuous
 62
     7
370
    15
100
AcDbLine
 10
799.3249502643
 20
477.4559242186
 30
0.0
 11
778.1809252365
 21
477.4559242186
 31
0.0
  0
ARC
  5
1EE
330
1F
100
AcDbEntity
  8
0
  6
Continuous
 62
     7
370
    15
100
AcDbCircle
 10
783.1809266074
 20
473.4559213576
 30
0.0
 40
5.000000000000057
100
AcDbArc
 50
180.0
 51
270.0
  0
LINE
  5
1EF
330
1F
100
AcDbEntity
  8
0
  6
Continuous
 62
     7
370
    15
100
AcDbLine
 10
799.8262178763
 20
468.4559208807
 30
0.0
 11
783.1809279187
 21
468.4559208807
 31
0.0
  0
LINE
  5
1F0
330
1F
100
AcDbEntity
  8
0
  6
Continuous
 62
     7
370
    15
100
AcDbLine
 10
1022.1809279784
 20
477.4559242186
 30
0.0
 11
1001.0369029506
 21
477.4559242186
 31
0.0
  0
LINE
  5
1F1
330
1F
100
AcDbEntity
  8
0
  6
Continuous
 62
     7
370
    15
100
AcDbLine
 10
1022.1809279784
 20
473.4559161124
 30
0.0
 11
1022.1809279784
 21
477.4559242186
 31
0.0
  0
ARC
  5
1F2
330
1F
100
AcDbEntity
  8
0
  6
Continuous
 62
     7
370
    15
100
AcDbCircle
 10
781.1809266074
 20
477.4559213576
 30
0.0
 40
3.000000000000114
100
AcDbArc
 50
90.0
 51
180.0
  0
LINE
  5
1F3
330
1F
100
AcDbEntity
  8
0
  6
Continuous
 62
     7
370
    15
100
AcDbLine
 10
781.1809238656
 20
480.4559153971
 30
0.0
 11
799.6257078512
 21
480.4559153971
 31
0.0
  0
ARC
  5
1F4
330
1F
100
AcDbEntity
  8
0
  6
Continuous
 62
     7
370
    15
100
AcDbCircle
 10
1019.1809266074
 20
477.4559213576
 30
0.0
 40
2.999999999999943
100
AcDbArc
 50
0.0
 51
90.0
  0
LINE
  5
1F5
330
1F
100
AcDbEntity
  8
0
  6
Continuous
 62
     7
370
    15
100
AcDbLine
 10
1000.7361453636
 20
480.4559153971
 30
0.0
 11
1019.1809293493
 21
480.4559153971
 31
0.0
  0
LINE
  5
1F6
330
1F
100
AcDbEntity
  8
0
  6
Continuous
 62
     8
370
    15
100
AcDbLine
 10
790.161518441
 20
466.5308398661
 30
0.0
 11
806.2003385885
 21
466.5308398661
 31
0.0
  0
LINE
  5
1F7
330
1F
100
AcDbEntity
  8
0
  6
Continuous
 62
     8
370
    15
100
AcDbLine
 10
961.0229004784
 20
466.5308398661
 30
0.0
 11
977.0617169007
 21
466.5308398661
 31
0.0
  0
LINE
  5
1F8
330
1F
100
AcDbEntity
  8
0
  6
Continuous
 62
     8
370
    15
100
AcDbLine
 10
994.1615146263
 20
466.5308398661
 30
0.0
 11
1010.2003347739
 21
466.5308398661
 31
0.0
  0
LINE
  5
1F9
330
1F
100
AcDbEntity
  8
0
  6
Continuous
 62
     8
370
    15
100
AcDbLine
 10
823.3001363142
 20
466.5308398661
 30
0.0
 11
839.3389527365
 21
466.5308398661
 31
0.0
  0
LINE
  5
1FA
330
1F
100
AcDbEntity
  8
0
  6
Continuous
 62
     8
370
    15
100
AcDbLine
 10
799.9264728888
 20
905.455927318
 30
0.0
 11
799.9264728888
 21
480.4559153971
 31
0.0
  0
LINE
  5
1FB
330
1F
100
AcDbEntity
  8
0
  6
Continuous
 62
     8
370
    15
100
AcDbLine
 10
1000.4353803261
 20
905.455927318
 30
0.0
 11
1000.4353803261
 21
480.4559153971
 31
0.0
  0
DIMENSION
  5
1FC
330
1F
100
AcDbEntity
  8
MEDIÇÕES
100
AcDbDimension
  2
_D
 10
1022.1809266074
 20
366.4559213574
 30
0.0
 11
900.1809266074
 21
366.4559213574
 31
0.0
 70
   160
  1
<>
 71
     2
 42
-1.0
  3
SLDDIMSTYLE0
100
AcDbAlignedDimension
 13
778.1809266074
 23
482.4559213576
 33
0.0
 14
1022.1809266074
 24
482.4559213576
 34
0.0
100
AcDbRotatedDimension
  0
DIMENSION
  5
207
330
1F
100
AcDbEntity
  8
MEDIÇÕES
100
AcDbDimension
  2
_D_1
 10
678.1809266074
 20
466.4559213576
 30
0.0
 11
678.1809266074
 21
691.9559213576
 31
0.0
 70
   160
  1
<>
 71
     2
 42
-1.0
  3
SLDDIMSTYLE0
100
AcDbAlignedDimension
 13
783.1809266074
 23
917.4559213576
 33
0.0
 14
823.3969366906
 24
466.4559213576
 34
0.0
 50
90.0
100
AcDbRotatedDimension
  0
LINE
  5
211
330
1F
100
AcDbEntity
  8
0
  6
Continuous
 62
     7
370
    15
100
AcDbLine
 10
1465.4617792518
 20
488.5709238705
 30
0.0
 11
1465.4617792518
 21
480.4559153971
 31
0.0
  0
LINE
  5
212
330
1F
100
AcDbEntity
  8
0
  6
Continuous
 62
     7
370
    15
100
AcDbLine
 10
1465.4617792518
 20
493.1162250695
 30
0.0
 11
1465.4617792518
 21
491.5928644595
 31
0.0
  0
LINE
  5
213
330
1F
100
AcDbEntity
  8
0
  6
Continuous
 62
     7
370
    15
100
AcDbLine
 10
1465.4617792518
 20
497.3945570645
 30
0.0
 11
1465.4617792518
 21
496.0042340216
 31
0.0
  0
LINE
  5
214
330
1F
100
AcDbEntity
  8
0
  6
Continuous
 62
     7
370
    15
100
AcDbLine
 10
1465.4617792518
 20
500.0090104994
 30
0.0
 11
1465.4617792518
 21
497.9137731251
 31
0.0
  0
LINE
  5
215
330
1F
100
AcDbEntity
  8
0
  6
Continuous
 62
     7
370
    15
100
AcDbLine
 10
1465.4617792518
 20
508.2059157547
 30
0.0
 11
1465.4617792518
 21
500.7249516901
 31
0.0
  0
LINE
  5
216
330
1F
100
AcDbEntity
  8
0
  6
Continuous
 62
     7
370
    15
100
AcDbLine
 10
1721.1036792547
 20
468.4559208807
 30
0.0
 11
1721.6024136693
 21
466.5308398661
 31
0.0
  0
LINE
  5
217
330
1F
100
AcDbEntity
  8
0
  6
Continuous
 62
     7
370
    15
100
AcDbLine
 10
1737.6412338168
 20
466.5308398661
 30
0.0
 11
1738.1399682314
 21
468.4559208807
 31
0.0
  0
ARC
  5
218
330
1F
100
AcDbEntity
  8
0
  6
Continuous
 62
     7
370
    15
100
AcDbCircle
 10
1737.5444264047
 20
466.5559213574
 30
0.0
 40
0.1000000000001108
100
AcDbArc
 50
270.0
 51
345.475570922
  0
ARC
  5
219
330
1F
100
AcDbEntity
  8
0
  6
Continuous
 62
     7
370
    15
100
AcDbCircle
 10
1721.6992147634
 20
466.5559213574
 30
0.0
 40
0.1000000000001108
100
AcDbArc
 50
194.524429078
 51
270.0
  0
LINE
  5
21A
330
1F
100
AcDbEntity
  8
0
  6
Continuous
 62
     7
370
    15
100
AcDbLine
 10
1478.3937221915
 20
468.4559208807
 30
0.0
 11
1478.8924640567
 21
466.5308398661
 31
0.0
  0
LINE
  5
21B
330
1F
100
AcDbEntity
  8
0
  6
Continuous
 62
     7
370
    15
100
AcDbLine
 10
1494.9312842042
 20
466.5308398661
 30
0.0
 11
1495.4300260694
 21
468.4559208807
 31
0.0
  0
ARC
  5
21C
330
1F
100
AcDbEntity
  8
0
  6
Continuous
 62
     7
370
    15
100
AcDbCircle
 10
1494.8344794785
 20
466.5559213577
 30
0.0
 40
0.1000000000001108
100
AcDbArc
 50
270.0
 51
345.475570922
  0
ARC
  5
21D
330
1F
100
AcDbEntity
  8
0
  6
Continuous
 62
     7
370
    15
100
AcDbCircle
 10
1478.9892678372
 20
466.5559213577
 30
0.0
 40
0.1000000000001108
100
AcDbArc
 50
194.524429078
 51
270.0
  0
LINE
  5
21E
330
1F
100
AcDbEntity
  8
0
  6
Continuous
 62
     7
370
    15
100
AcDbLine
 10
1467.6218217761
 20
905.455927318
 30
0.0
 11
1467.6218217761
 21
498.2698661742
 31
0.0
  0
ARC
  5
21F
330
1F
100
AcDbEntity
  8
0
  6
Continuous
 62
     7
370
    15
100
AcDbCircle
 10
1463.621820584
 20
907.4559213576
 30
0.0
 40
2.0
100
AcDbArc
 50
180.0
 51
270.0
  0
ARC
  5
220
330
1F
100
AcDbEntity
  8
0
  6
Continuous
 62
     7
370
    15
100
AcDbCircle
 10
1466.621820584
 20
912.4559213576
 30
0.0
 40
5.0
100
AcDbArc
 50
90.0
 51
180.0
  0
LINE
  5
221
330
1F
100
AcDbEntity
  8
0
  6
Continuous
 62
     7
370
    15
100
AcDbLine
 10
1461.6218245179
 20
912.4559266028
 30
0.0
 11
1461.6218245179
 21
907.45591647
 31
0.0
  0
ARC
  5
222
330
1F
100
AcDbEntity
  8
0
  6
Continuous
 62
     7
370
    15
100
AcDbCircle
 10
1466.621820584
 20
473.4559213576
 30
0.0
 40
5.000000000000057
100
AcDbArc
 50
180.0
 51
270.0
  0
ARC
  5
223
330
1F
100
AcDbEntity
  8
0
  6
Continuous
 62
     7
370
    15
100
AcDbCircle
 10
1464.621820584
 20
477.4559213576
 30
0.0
 40
3.0
100
AcDbArc
 50
90.0
 51
180.0
  0
LINE
  5
224
330
1F
100
AcDbEntity
  8
0
  6
Continuous
 62
     7
370
    15
100
AcDbLine
 10
1461.6218245179
 20
477.4559242186
 30
0.0
 11
1461.6218245179
 21
473.4559161124
 31
0.0
  0
SPLINE
  5
225
330
1F
100
AcDbEntity
  8
0
  6
Continuous
 62
     7
370
    15
100
AcDbSpline
210
0.0
220
0.0
230
1.0
 70
     8
 71
     3
 72
    15
 73
    11
 74
     0
 42
0.00000001
 43
0.00000001
 12
1.0
 22
0.0
 32
0.0
 13
1.0
 23
0.0
 33
0.0
 40
0.0
 40
0.0
 40
0.0
 40
0.0
 40
0.1322342760045626
 40
0.2566663994648078
 40
0.3776757488700557
 40
0.5000090921316068
 40
0.6222065635856586
 40
0.7431665420300996
 40
0.8676396293580504
 40
0.9999999999999999
 40
0.9999999999999999
 40
0.9999999999999999
 40
0.9999999999999999
 10
1466.614145651541
 20
508.2059157547432
 30
0.0
 10
1466.667419466422
 20
508.1222111733395
 30
0.0
 10
1466.770823808053
 20
507.9597407898903
 30
0.0
 10
1466.953921604946
 20
507.0790543285443
 30
0.0
 10
1467.139487522709
 20
505.7189830417536
 30
0.0
 10
1467.318470856618
 20
503.8781646361887
 30
0.0
 10
1467.479638361645
 20
501.6618245023982
 30
0.0
 10
1467.605990854062
 20
499.1033494785199
 30
0.0
 10
1467.691209540915
 20
496.2525256339769
 30
0.0
 10
1467.707390142369
 20
494.2420325430551
 30
0.0
 10
1467.715728893957
 20
493.2059151586967
 30
0.0
  0
LINE
  5
226
330
1F
100
AcDbEntity
  8
0
  6
Continuous
 62
     7
370
    15
100
AcDbLine
 10
1466.9196045549
 20
493.2059151587
 30
0.0
 11
1467.715728894
 21
493.2059151587
 31
0.0
  0
SPLINE
  5
227
330
1F
100
AcDbEntity
  8
0
  6
Continuous
 62
     7
370
    15
100
AcDbSpline
210
0.0
220
0.0
230
1.0
 70
     8
 71
     3
 72
    15
 73
    11
 74
     0
 42
0.00000001
 43
0.00000001
 12
1.0
 22
0.0
 32
0.0
 13
1.0
 23
0.0
 33
0.0
 40
0.0
 40
0.0
 40
0.0
 40
0.0
 40
0.1324053751750061
 40
0.2569748962870538
 40
0.3780736292841083
 40
0.5004380667410373
 40
0.6226046805297614
 40
0.743475373009681
 40
0.8678109901962827
 40
1.0
 40
1.0
 40
1.0
 40
1.0
 10
1465.815070882521
 20
508.2059157547432
 30
0.0
 10
1465.868486507236
 20
508.1222193026294
 30
0.0
 10
1465.972156578057
 20
507.9597796201535
 30
0.0
 10
1466.155732232653
 20
507.0792515917988
 30
0.0
 10
1466.341769640863
 20
505.7193739523498
 30
0.0
 10
1466.52123596188
 20
503.878683581522
 30
0.0
 10
1466.682854423872
 20
501.6624160491488
 30
0.0
 10
1466.809559080922
 20
499.1038510269192
 30
0.0
 10
1466.895002710095
 20
496.2528095019177
 30
0.0
 10
1466.911238258459
 20
494.2420659599106
 30
0.0
 10
1466.919604554854
 20
493.2059151586967
 30
0.0
  0
LINE
  5
228
330
1F
100
AcDbEntity
  8
0
  6
Continuous
 62
     7
370
    15
100
AcDbLine
 10
1465.8150708825
 20
508.2059157547
 30
0.0
 11
1466.6141456515
 21
508.2059157547
 31
0.0
  0
LINE
  5
229
330
1F
100
AcDbEntity
  8
0
  6
Continuous
 62
     7
370
    15
100
AcDbLine
 10
1467.715728894
 20
493.2059151587
 30
0.0
 11
1467.715728894
 21
480.4559153971
 31
0.0
  0
LINE
  5
22A
330
1F
100
AcDbEntity
  8
0
  6
Continuous
 62
     7
370
    15
100
AcDbLine
 10
1466.9196045549
 20
493.2059151587
 30
0.0
 11
1466.9196045549
 21
480.4559153971
 31
0.0
  0
LINE
  5
22B
330
1F
100
AcDbEntity
  8
0
  6
Continuous
 62
     7
370
    15
100
AcDbLine
 10
1465.8648407609
 20
497.2404641566
 30
0.0
 11
1465.8648407609
 21
491.4074940142
 31
0.0
  0
LINE
  5
22C
330
1F
100
AcDbEntity
  8
0
  6
Continuous
 62
     7
370
    15
100
AcDbLine
 10
1465.8648407609
 20
491.4074940142
 30
0.0
 11
1466.026622668
 21
488.5041070637
 31
0.0
  0
LINE
  5
22D
330
1F
100
AcDbEntity
  8
0
  6
Continuous
 62
     7
370
    15
100
AcDbLine
 10
1466.026622668
 20
488.5041070637
 30
0.0
 11
1466.0894161613
 21
488.5041070637
 31
0.0
  0
SPLINE
  5
22E
330
1F
100
AcDbEntity
  8
0
  6
Continuous
 62
     7
370
    15
100
AcDbSpline
210
0.0
220
0.0
230
1.0
 70
     8
 71
     3
 72
    12
 73
     8
 74
     0
 42
0.00000001
 43
0.00000001
 12
1.0
 22
0.0
 32
0.0
 13
1.0
 23
0.0
 33
0.0
 40
0.0
 40
0.0
 40
0.0
 40
0.0
 40
0.2327226807028138
 40
0.3431219138938026
 40
0.4553335318134535
 40
0.7016328200507386
 40
1.0
 40
1.0
 40
1.0
 40
1.0
 10
1466.089416161261
 20
488.5041070637183
 30
0.0
 10
1466.094734766807
 20
488.5117764655049
 30
0.0
 10
1466.102576418119
 20
488.523084086281
 30
0.0
 10
1466.111874512625
 20
488.5989546091611
 30
0.0
 10
1466.12021564804
 20
488.7033971985412
 30
0.0
 10
1466.128876381325
 20
488.8990744840212
 30
0.0
 10
1466.132263944595
 20
489.0829004985001
 30
0.0
 10
1466.134119644842
 20
489.1836000141578
 30
0.0
  0
LINE
  5
22F
330
1F
100
AcDbEntity
  8
0
  6
Continuous
 62
     7
370
    15
100
AcDbLine
 10
1466.1341196448
 20
489.1836000142
 30
0.0
 11
1466.1341196448
 21
497.2452325282
 31
0.0
  0
LINE
  5
230
330
1F
100
AcDbEntity
  8
0
  6
Continuous
 62
     7
370
    15
100
AcDbLine
 10
1466.1341196448
 20
497.2452325282
 30
0.0
 11
1466.3908666522
 21
497.2452325282
 31
0.0
  0
SPLINE
  5
231
330
1F
100
AcDbEntity
  8
0
  6
Continuous
 62
     7
370
    15
100
AcDbSpline
210
0.0
220
0.0
230
1.0
 70
     8
 71
     3
 72
    12
 73
     8
 74
     0
 42
0.00000001
 43
0.00000001
 12
1.0
 22
0.0
 32
0.0
 13
1.0
 23
0.0
 33
0.0
 40
0.0
 40
0.0
 40
0.0
 40
0.0
 40
0.3017152879166478
 40
0.4121241011532514
 40
0.4987022543095777
 40
0.6962974779830058
 40
0.9999999999999999
 40
0.9999999999999999
 40
0.9999999999999999
 40
0.9999999999999999
 10
1466.390866652212
 20
497.2452325281578
 30
0.0
 10
1466.398166263883
 20
497.2680314944586
 30
0.0
 10
1466.408137074177
 20
497.2991734480496
 30
0.0
 10
1466.419509285222
 20
497.3662939845582
 30
0.0
 10
1466.427590943991
 20
497.441297856362
 30
0.0
 10
1466.434340105666
 20
497.613636000072
 30
0.0
 10
1466.437630078691
 20
497.7653250470448
 30
0.0
 10
1466.439623251639
 20
497.8572232183891
 30
0.0
  0
LINE
  5
232
330
1F
100
AcDbEntity
  8
0
  6
Continuous
 62
     7
370
    15
100
AcDbLine
 10
1466.4396232516
 20
497.8572232184
 30
0.0
 11
1466.4396232516
 21
499.5863390622
 31
0.0
  0
SPLINE
  5
233
330
1F
100
AcDbEntity
  8
0
  6
Continuous
 62
     7
370
    15
100
AcDbSpline
210
0.0
220
0.0
230
1.0
 70
     8
 71
     3
 72
    12
 73
     8
 74
     0
 42
0.00000001
 43
0.00000001
 12
1.0
 22
0.0
 32
0.0
 13
1.0
 23
0.0
 33
0.0
 40
0.0
 40
0.0
 40
0.0
 40
0.0
 40
0.3010958708598263
 40
0.4113333351826433
 40
0.4978374056389583
 40
0.6956840528534859
 40
1.0
 40
1.0
 40
1.0
 40
1.0
 10
1466.439623251639
 20
499.586339062162
 30
0.0
 10
1466.437788894903
 20
499.6787831862785
 30
0.0
 10
1466.435282941992
 20
499.8050730280565
 30
0.0
 10
1466.429904162073
 20
499.9473712887668
 30
0.0
 10
1466.423874650432
 20
500.0485712486953
 30
0.0
 10
1466.410110800091
 20
500.13270920169
 30
0.0
 10
1466.398128223088
 20
500.1735685479572
 30
0.0
 10
1466.390866652212
 20
500.1983297523934
 30
0.0
  0
LINE
  5
234
330
1F
100
AcDbEntity
  8
0
  6
Continuous
 62
     7
370
    15
100
AcDbLine
 10
1466.3908666522
 20
500.1983297524
 30
0.0
 11
1465.7014346273
 21
500.1983297524
 31
0.0
  0
SPLINE
  5
235
330
1F
100
AcDbEntity
  8
0
  6
Continuous
 62
     7
370
    15
100
AcDbSpline
210
0.0
220
0.0
230
1.0
 70
     8
 71
     3
 72
    12
 73
     8
 74
     0
 42
0.00000001
 43
0.00000001
 12
1.0
 22
0.0
 32
0.0
 13
1.0
 23
0.0
 33
0.0
 40
0.0
 40
0.0
 40
0.0
 40
0.0
 40
0.2327246396662473
 40
0.3431164574066385
 40
0.4553368204286256
 40
0.7016219764575649
 40
1.0
 40
1.0
 40
1.0
 40
1.0
 10
1465.701434627257
 20
500.1983297523934
 30
0.0
 10
1465.698172962943
 20
500.1906497188228
 30
0.0
 10
1465.69336414379
 20
500.1793266981268
 30
0.0
 10
1465.687870587532
 20
500.1034859664498
 30
0.0
 10
1465.68295203036
 20
499.999019556128
 30
0.0
 10
1465.678004212982
 20
499.8033608919241
 30
0.0
 10
1465.676092143135
 20
499.6195289379825
 30
0.0
 10
1465.675044670782
 20
499.5188219007926
 30
0.0
  0
LINE
  5
236
330
1F
100
AcDbEntity
  8
0
  6
Continuous
 62
     7
370
    15
100
AcDbLine
 10
1465.6750446708
 20
499.5188219008
 30
0.0
 11
1465.6750446708
 21
497.9199720082
 31
0.0
  0
SPLINE
  5
237
330
1F
100
AcDbEntity
  8
0
  6
Continuous
 62
     7
370
    15
100
AcDbSpline
210
0.0
220
0.0
230
1.0
 70
     8
 71
     3
 72
    12
 73
     8
 74
     0
 42
0.00000001
 43
0.00000001
 12
1.0
 22
0.0
 32
0.0
 13
1.0
 23
0.0
 33
0.0
 40
0.0
 40
0.0
 40
0.0
 40
0.0
 40
0.2325197984905596
 40
0.3428949766480678
 40
0.4551283667660719
 40
0.7015142830498332
 40
0.9999999999999999
 40
0.9999999999999999
 40
0.9999999999999999
 40
0.9999999999999999
 10
1465.675044670782
 20
497.9199720081764
 30
0.0
 10
1465.675331602648
 20
497.8380912605029
 30
0.0
 10
1465.67575473864
 20
497.7173424157008
 30
0.0
 10
1465.678649071198
 20
497.5756427259274
 30
0.0
 10
1465.682641146595
 20
497.449000690741
 30
0.0
 10
1465.690141492887
 20
497.3190455701717
 30
0.0
 10
1465.697437698424
 20
497.2682761268765
 30
0.0
 10
1465.701434627257
 20
497.2404641565757
 30
0.0
  0
LINE
  5
238
330
1F
100
AcDbEntity
  8
0
  6
Continuous
 62
     7
370
    15
100
AcDbLine
 10
1465.7014346273
 20
497.2404641566
 30
0.0
 11
1465.8648407609
 21
497.2404641566
 31
0.0
  0
LINE
  5
239
330
1F
100
AcDbEntity
  8
0
  6
Continuous
 62
     7
370
    15
100
AcDbLine
 10
1465.4617792518
 20
497.3945570645
 30
0.0
 11
1465.4621964843
 21
497.3945570645
 31
0.0
  0
LINE
  5
23A
330
1F
100
AcDbEntity
  8
0
  6
Continuous
 62
     7
370
    15
100
AcDbLine
 10
1465.4621964843
 20
497.3945570645
 30
0.0
 11
1465.4636716992
 21
497.9137731251
 31
0.0
  0
LINE
  5
23B
330
1F
100
AcDbEntity
  8
0
  6
Continuous
 62
     7
370
    15
100
AcDbLine
 10
1465.4617792518
 20
488.5709238705
 30
0.0
 11
1465.4707795531
 21
488.5709238705
 31
0.0
  0
SPLINE
  5
23C
330
1F
100
AcDbEntity
  8
0
  6
Continuous
 62
     7
370
    15
100
AcDbSpline
210
0.0
220
0.0
230
1.0
 70
     8
 71
     3
 72
    12
 73
     8
 74
     0
 42
0.00000001
 43
0.00000001
 12
1.0
 22
0.0
 32
0.0
 13
1.0
 23
0.0
 33
0.0
 40
0.0
 40
0.0
 40
0.0
 40
0.0
 40
0.2348512362216101
 40
0.3459027842943394
 40
0.4583928565108491
 40
0.7039280219582394
 40
1.0
 40
1.0
 40
1.0
 40
1.0
 10
1465.470779553137
 20
488.5709238705116
 30
0.0
 10
1465.471469382409
 20
488.5797541187801
 30
0.0
 10
1465.472485403741
 20
488.5927598304435
 30
0.0
 10
1465.473794103498
 20
488.6727624661177
 30
0.0
 10
1465.475003130286
 20
488.7819430334823
 30
0.0
 10
1465.476295626583
 20
488.9854565543043
 30
0.0
 10
1465.476823811815
 20
489.1766924570033
 30
0.0
 10
1465.477112546644
 20
489.2812324222999
 30
0.0
  0
LINE
  5
23D
330
1F
100
AcDbEntity
  8
0
  6
Continuous
 62
     7
370
    15
100
AcDbLine
 10
1465.4771125466
 20
489.2812324223
 30
0.0
 11
1465.4771125466
 21
490.9437549767
 31
0.0
  0
SPLINE
  5
23E
330
1F
100
AcDbEntity
  8
0
  6
Continuous
 62
     7
370
    15
100
AcDbSpline
210
0.0
220
0.0
230
1.0
 70
     8
 71
     3
 72
    11
 73
     7
 74
     0
 42
0.00000001
 43
0.00000001
 12
1.0
 22
0.0
 32
0.0
 13
1.0
 23
0.0
 33
0.0
 40
0.0
 40
0.0
 40
0.0
 40
0.0
 40
0.3026709382178578
 40
0.4992097344264647
 40
0.696459745119577
 40
1.0
 40
1.0
 40
1.0
 40
1.0
 10
1465.477112546644
 20
490.9437549766975
 30
0.0
 10
1465.476859516528
 20
491.0411496516218
 30
0.0
 10
1465.476442181789
 20
491.2017873728706
 30
0.0
 10
1465.475404224121
 20
491.4176324169925
 30
0.0
 10
1465.473366297641
 20
491.5260586488398
 30
0.0
 10
1465.472052632384
 20
491.5676531162794
 30
0.0
 10
1465.471256390295
 20
491.5928644594627
 30
0.0
  0
LINE
  5
23F
330
1F
100
AcDbEntity
  8
0
  6
Continuous
 62
     7
370
    15
100
AcDbLine
 10
1465.4617792518
 20
493.1162250695
 30
0.0
 11
1465.462077275
 21
493.1162250695
 31
0.0
  0
SPLINE
  5
240
330
1F
100
AcDbEntity
  8
0
  6
Continuous
 62
     7
370
    15
100
AcDbSpline
210
0.0
220
0.0
230
1.0
 70
     8
 71
     3
 72
    12
 73
     8
 74
     0
 42
0.00000001
 43
0.00000001
 12
1.0
 22
0.0
 32
0.0
 13
1.0
 23
0.0
 33
0.0
 40
0.0
 40
0.0
 40
0.0
 40
0.0
 40
0.2348672836463955
 40
0.3459224697691849
 40
0.4584110102353633
 40
0.7039476124809335
 40
1.0
 40
1.0
 40
1.0
 40
1.0
 10
1465.462077275
 20
493.1162250694709
 30
0.0
 10
1465.462217741843
 20
493.1250646375692
 30
0.0
 10
1465.462424627349
 20
493.1380839273603
 30
0.0
 10
1465.46281531507
 20
493.2181070360961
 30
0.0
 10
1465.463158457758
 20
493.3273087210468
 30
0.0
 10
1465.463629925191
 20
493.530874717527
 30
0.0
 10
1465.463820722298
 20
493.7221528169505
 30
0.0
 10
1465.463925018988
 20
493.8267124351936
 30
0.0
  0
LINE
  5
241
330
1F
100
AcDbEntity
  8
0
  6
Continuous
 62
     7
370
    15
100
AcDbLine
 10
1465.463925019
 20
493.8267124352
 30
0.0
 11
1465.463925019
 21
495.3555566725
 31
0.0
  0
SPLINE
  5
242
330
1F
100
AcDbEntity
  8
0
  6
Continuous
 62
     7
370
    15
100
AcDbSpline
210
0.0
220
0.0
230
1.0
 70
     8
 71
     3
 72
    11
 73
     7
 74
     0
 42
0.00000001
 43
0.00000001
 12
1.0
 22
0.0
 32
0.0
 13
1.0
 23
0.0
 33
0.0
 40
0.0
 40
0.0
 40
0.0
 40
0.0
 40
0.3026588322206074
 40
0.4991904011497256
 40
0.6964535894745644
 40
1.0
 40
1.0
 40
1.0
 40
1.0
 10
1465.463925018988
 20
495.3555566725212
 30
0.0
 10
1465.463826824973
 20
495.4528878091832
 30
0.0
 10
1465.463664868656
 20
495.6134209375185
 30
0.0
 10
1465.463312741987
 20
495.8291147211062
 30
0.0
 10
1465.462649160344
 20
495.9374735699423
 30
0.0
 10
1465.462348758781
 20
495.9790400835631
 30
0.0
 10
1465.462166681967
 20
496.0042340216117
 30
0.0
  0
LINE
  5
243
330
1F
100
AcDbEntity
  8
0
  6
Continuous
 62
     7
370
    15
100
AcDbLine
 10
1465.462166682
 20
496.0042340216
 30
0.0
 11
1465.4617792518
 21
496.0042340216
 31
0.0
  0
LINE
  5
244
330
1F
100
AcDbEntity
  8
0
  6
Continuous
 62
     7
370
    15
100
AcDbLine
 10
1465.6090176255
 20
495.4407019076
 30
0.0
 11
1465.6710511596
 21
503.5889399704
 31
0.0
  0
SPLINE
  5
245
330
1F
100
AcDbEntity
  8
0
  6
Continuous
 62
     7
370
    15
100
AcDbSpline
210
0.0
220
0.0
230
1.0
 70
     8
 71
     3
 72
    13
 73
     9
 74
     0
 42
0.00000001
 43
0.00000001
 12
1.0
 22
0.0
 32
0.0
 13
1.0
 23
0.0
 33
0.0
 40
0.0
 40
0.0
 40
0.0
 40
0.0
 40
0.3057780714726849
 40
0.4125927849553118
 40
0.4938756723253959
 40
0.5766339964514381
 40
0.6866470615247539
 40
1.0
 40
1.0
 40
1.0
 40
1.0
 10
1465.671051159582
 20
503.5889399704415
 30
0.0
 10
1465.670775907895
 20
503.6585062014437
 30
0.0
 10
1465.670404505002
 20
503.7523733805056
 30
0.0
 10
1465.668934232497
 20
503.8583180515151
 30
0.0
 10
1465.667606582482
 20
503.9100192704188
 30
0.0
 10
1465.665520679029
 20
503.9405955051053
 30
0.0
 10
1465.66150348357
 20
503.974533459404
 30
0.0
 10
1465.658015995407
 20
503.9829018883261
 30
0.0
 10
1465.655434742651
 20
503.9890957531409
 30
0.0
  0
LINE
  5
246
330
1F
100
AcDbEntity
  8
0
  6
Continuous
 62
     7
370
    15
100
AcDbLine
 10
1465.6554347427
 20
503.9890957531
 30
0.0
 11
1465.5527061374
 21
503.0054253993
 31
0.0
  0
LINE
  5
247
330
1F
100
AcDbEntity
  8
0
  6
Continuous
 62
     7
370
    15
100
AcDbLine
 10
1465.5527061374
 20
503.0054253993
 30
0.0
 11
1465.5491745622
 21
502.8385770974
 31
0.0
  0
LINE
  5
248
330
1F
100
AcDbEntity
  8
0
  6
Continuous
 62
     7
370
    15
100
AcDbLine
 10
1465.5491745622
 20
502.8385770974
 30
0.0
 11
1465.5332005174
 21
498.016188806
 31
0.0
  0
LINE
  5
249
330
1F
100
AcDbEntity
  8
0
  6
Continuous
 62
     7
370
    15
100
AcDbLine
 10
1465.5332005174
 20
498.016188806
 30
0.0
 11
1465.4831624181
 21
501.6957921442
 31
0.0
  0
LINE
  5
24A
330
1F
100
AcDbEntity
  8
0
  6
Continuous
 62
     7
370
    15
100
AcDbLine
 10
1465.4831624181
 20
501.6957921442
 30
0.0
 11
1465.4806292207
 21
501.7627430615
 31
0.0
  0
LINE
  5
24B
330
1F
100
AcDbEntity
  8
0
  6
Continuous
 62
     7
370
    15
100
AcDbLine
 10
1465.4806292207
 20
501.7627430615
 30
0.0
 11
1465.464759484
 21
500.7249516901
 31
0.0
  0
LINE
  5
24C
330
1F
100
AcDbEntity
  8
0
  6
Continuous
 62
     7
370
    15
100
AcDbLine
 10
1465.4622560889
 20
500.5611581263
 30
0.0
 11
1465.4701537044
 21
497.6785284934
 31
0.0
  0
LINE
  5
24D
330
1F
100
AcDbEntity
  8
0
  6
Continuous
 62
     7
370
    15
100
AcDbLine
 10
1465.4701537044
 20
497.6785284934
 30
0.0
 11
1465.5125028045
 21
494.3188977894
 31
0.0
  0
LINE
  5
24E
330
1F
100
AcDbEntity
  8
0
  6
Continuous
 62
     7
370
    15
100
AcDbLine
 10
1465.5125028045
 20
494.3188977894
 30
0.0
 11
1465.4802566917
 21
485.0723249373
 31
0.0
  0
SPLINE
  5
24F
330
1F
100
AcDbEntity
  8
0
  6
Continuous
 62
     7
370
    15
100
AcDbSpline
210
0.0
220
0.0
230
1.0
 70
     8
 71
     3
 72
    13
 73
     9
 74
     0
 42
0.00000001
 43
0.00000001
 12
1.0
 22
0.0
 32
0.0
 13
1.0
 23
0.0
 33
0.0
 40
0.0
 40
0.0
 40
0.0
 40
0.0
 40
0.3064282796803046
 40
0.4132888750357452
 40
0.4944319120710037
 40
0.5769668181686068
 40
0.686764646258324
 40
1.0
 40
1.0
 40
1.0
 40
1.0
 10
1465.480256691656
 20
485.0723249372917
 30
0.0
 10
1465.480334344488
 20
485.0021331948029
 30
0.0
 10
1465.480439077155
 20
484.9074635177084
 30
0.0
 10
1465.480868108504
 20
484.8003832889265
 30
0.0
 10
1465.481266860129
 20
484.7479960059513
 30
0.0
 10
1465.481907642253
 20
484.7168465325438
 30
0.0
 10
1465.4831972076
 20
484.6823096270617
 30
0.0
 10
1465.484384413782
 20
484.6737264229689
 30
0.0
 10
1465.485263481817
 20
484.6673709806877
 30
0.0
  0
LINE
  5
250
330
1F
100
AcDbEntity
  8
0
  6
Continuous
 62
     7
370
    15
100
AcDbLine
 10
1465.4852634818
 20
484.6673709807
 30
0.0
 11
1465.5523336084
 21
485.7113612351
 31
0.0
  0
LINE
  5
251
330
1F
100
AcDbEntity
  8
0
  6
Continuous
 62
     7
370
    15
100
AcDbLine
 10
1465.5523336084
 20
485.7113612351
 30
0.0
 11
1465.5559396894
 21
485.8782244381
 31
0.0
  0
LINE
  5
252
330
1F
100
AcDbEntity
  8
0
  6
Continuous
 62
     7
370
    15
100
AcDbLine
 10
1465.5559396894
 20
485.8782244381
 30
0.0
 11
1465.5780679137
 21
491.6747314391
 31
0.0
  0
LINE
  5
253
330
1F
100
AcDbEntity
  8
0
  6
Continuous
 62
     7
370
    15
100
AcDbLine
 10
1465.5780679137
 20
491.6747314391
 30
0.0
 11
1465.7048171908
 21
487.1737760958
 31
0.0
  0
LINE
  5
254
330
1F
100
AcDbEntity
  8
0
  6
Continuous
 62
     7
370
    15
100
AcDbLine
 10
1465.7048171908
 20
487.1737760958
 30
0.0
 11
1465.713519469
 21
487.1078980622
 31
0.0
  0
LINE
  5
255
330
1F
100
AcDbEntity
  8
0
  6
Continuous
 62
     7
370
    15
100
AcDbLine
 10
1465.713519469
 20
487.1078980622
 30
0.0
 11
1465.9132546336
 21
488.3187366185
 31
0.0
  0
LINE
  5
256
330
1F
100
AcDbEntity
  8
0
  6
Continuous
 62
     7
370
    15
100
AcDbLine
 10
1465.9132546336
 20
488.3187366185
 30
0.0
 11
1465.8463931234
 21
489.6060777363
 31
0.0
  0
LINE
  5
257
330
1F
100
AcDbEntity
  8
0
  6
Continuous
 62
     7
370
    15
100
AcDbLine
 10
1465.8463931234
 20
489.6060777363
 30
0.0
 11
1465.6090176255
 21
495.4407019076
 31
0.0
  0
LINE
  5
258
330
1F
100
AcDbEntity
  8
0
  6
Continuous
 62
     7
370
    15
100
AcDbLine
 10
1465.8648407609
 20
491.4074940142
 30
0.0
 11
1466.1341196448
 21
491.4074940142
 31
0.0
  0
LINE
  5
259
330
1F
100
AcDbEntity
  8
0
  6
Continuous
 62
     7
370
    15
100
AcDbLine
 10
1465.8648407609
 20
497.2404641566
 30
0.0
 11
1466.1341196448
 21
497.2404641566
 31
0.0
  0
LINE
  5
25A
330
1F
100
AcDbEntity
  8
0
  6
Continuous
 62
     7
370
    15
100
AcDbLine
 10
1465.6750446708
 20
497.9199720082
 30
0.0
 11
1466.4744770677
 21
497.9199720082
 31
0.0
  0
LINE
  5
25B
330
1F
100
AcDbEntity
  8
0
  6
Continuous
 62
     7
370
    15
100
AcDbLine
 10
1465.6750446708
 20
499.5188219008
 30
0.0
 11
1466.4744770677
 21
499.5188219008
 31
0.0
  0
LINE
  5
25C
330
1F
100
AcDbEntity
  8
0
  6
Continuous
 62
     7
370
    15
100
AcDbLine
 10
1728.2921260745
 20
466.4559168276
 30
0.0
 11
1721.6992116124
 21
466.4559168276
 31
0.0
  0
LINE
  5
25D
330
1F
100
AcDbEntity
  8
0
  6
Continuous
 62
     7
370
    15
100
AcDbLine
 10
1737.5444284231
 20
466.4559168276
 30
0.0
 11
1728.2921260745
 21
466.4559168276
 31
0.0
  0
LINE
  5
25E
330
1F
100
AcDbEntity
  8
0
  6
Continuous
 62
     7
370
    15
100
AcDbLine
 10
1485.5821764619
 20
466.4559168276
 30
0.0
 11
1478.9892619998
 21
466.4559168276
 31
0.0
  0
LINE
  5
25F
330
1F
100
AcDbEntity
  8
0
  6
Continuous
 62
     7
370
    15
100
AcDbLine
 10
1494.8344862611
 20
466.4559168276
 30
0.0
 11
1485.5821764619
 21
466.4559168276
 31
0.0
  0
LINE
  5
260
330
1F
100
AcDbEntity
  8
0
  6
Continuous
 62
     7
370
    15
100
AcDbLine
 10
1496.6218209416
 20
905.455927318
 30
0.0
 11
1496.6218209416
 21
480.4559153971
 31
0.0
  0
LINE
  5
261
330
1F
100
AcDbEntity
  8
0
  6
Continuous
 62
     7
370
    15
100
AcDbLine
 10
1747.968647495
 20
482.4559194502
 30
0.0
 11
1749.6218195707
 21
482.4559194502
 31
0.0
  0
ARC
  5
262
330
1F
100
AcDbEntity
  8
0
  6
Continuous
 62
     7
370
    15
100
AcDbCircle
 10
1747.621820584
 20
482.4559213576
 30
0.0
 40
2.000000000000057
100
AcDbArc
 50
270.0
 51
0.0
  0
LINE
  5
263
330
1F
100
AcDbEntity
  8
0
  6
Continuous
 62
     7
370
    15
100
AcDbLine
 10
1747.6218229682
 20
480.4559153971
 30
0.0
 11
1746.3819420488
 21
480.4559153971
 31
0.0
  0
ARC
  5
264
330
1F
100
AcDbEntity
  8
0
  6
Continuous
 62
     7
370
    15
100
AcDbCircle
 10
1746.1483691928
 20
482.2706299772
 30
0.0
 40
1.829684477241822
100
AcDbArc
 50
277.3342462376
 51
5.8122232407
  0
LINE
  5
265
330
1F
100
AcDbEntity
  8
0
  6
Continuous
 62
     7
370
    15
100
AcDbLine
 10
1749.6218195707
 20
903.4559232649
 30
0.0
 11
1747.968647495
 21
903.4559232649
 31
0.0
  0
LINE
  5
266
330
1F
100
AcDbEntity
  8
0
  6
Continuous
 62
     7
370
    15
100
AcDbLine
 10
1749.6218195707
 20
903.4559232649
 30
0.0
 11
1749.6218195707
 21
865.8847612795
 31
0.0
  0
LINE
  5
267
330
1F
100
AcDbEntity
  8
0
  6
Continuous
 62
     7
370
    15
100
AcDbLine
 10
1749.6218195707
 20
865.8847612795
 30
0.0
 11
1749.6218195707
 21
859.955917066
 31
0.0
  0
LINE
  5
268
330
1F
100
AcDbEntity
  8
0
  6
Continuous
 62
     7
370
    15
100
AcDbLine
 10
1749.6218195707
 20
859.955917066
 30
0.0
 11
1749.6218195707
 21
531.9559229073
 31
0.0
  0
LINE
  5
269
330
1F
100
AcDbEntity
  8
0
  6
Continuous
 62
     7
370
    15
100
AcDbLine
 10
1749.6218195707
 20
531.9559229073
 30
0.0
 11
1749.6218195707
 21
526.0270786938
 31
0.0
  0
LINE
  5
26A
330
1F
100
AcDbEntity
  8
0
  6
Continuous
 62
     7
370
    15
100
AcDbLine
 10
1749.6218195707
 20
526.0270786938
 30
0.0
 11
1749.6218195707
 21
482.4559194502
 31
0.0
  0
LINE
  5
26B
330
1F
100
AcDbEntity
  8
0
  6
Continuous
 62
     7
370
    15
100
AcDbLine
 10
1747.968647495
 20
903.4559232649
 30
0.0
 11
1747.968647495
 21
482.4559194502
 31
0.0
  0
LINE
  5
26C
330
1F
100
AcDbEntity
  8
0
  6
Continuous
 62
     7
370
    15
100
AcDbLine
 10
1746.3819420488
 20
905.455927318
 30
0.0
 11
1747.6218229682
 21
905.455927318
 31
0.0
  0
ARC
  5
26D
330
1F
100
AcDbEntity
  8
0
  6
Continuous
 62
     7
370
    15
100
AcDbCircle
 10
1747.621820584
 20
903.4559213576
 30
0.0
 40
2.0
100
AcDbArc
 50
0.0
 51
90.0
  0
ARC
  5
26E
330
1F
100
AcDbEntity
  8
0
  6
Continuous
 62
     7
370
    15
100
AcDbCircle
 10
1746.1483691928
 20
903.6412127379
 30
0.0
 40
1.829684477241817
100
AcDbArc
 50
354.1877767593
 51
82.6657537624
  0
LINE
  5
26F
330
1F
100
AcDbEntity
  8
0
  6
Continuous
 62
     7
370
    15
100
AcDbLine
 10
1592.7815734
 20
482.4559194502
 30
0.0
 11
1623.8398579704
 21
482.4559194502
 31
0.0
  0
ARC
  5
270
330
1F
100
AcDbEntity
  8
0
  6
Continuous
 62
     7
370
    15
100
AcDbCircle
 10
1621.5197502595
 20
481.9894170713
 30
0.0
 40
2.366542680797885
100
AcDbArc
 50
319.6095920134
 51
11.3688290274
  0
LINE
  5
271
330
1F
100
AcDbEntity
  8
0
  6
Continuous
 62
     7
370
    15
100
AcDbLine
 10
1623.3222199195
 20
480.4559153971
 30
0.0
 11
1592.7815734
 21
480.4559153971
 31
0.0
  0
LINE
  5
272
330
1F
100
AcDbEntity
  8
0
  6
Continuous
 62
     7
370
    15
100
AcDbLine
 10
1592.7815734
 20
482.4559194502
 30
0.0
 11
1592.7815734
 21
480.4559153971
 31
0.0
  0
LINE
  5
273
330
1F
100
AcDbEntity
  8
0
  6
Continuous
 62
     7
370
    15
100
AcDbLine
 10
1623.8398579704
 20
903.4559232649
 30
0.0
 11
1592.7815734
 21
903.4559232649
 31
0.0
  0
LINE
  5
274
330
1F
100
AcDbEntity
  8
0
  6
Continuous
 62
     7
370
    15
100
AcDbLine
 10
1592.7815734
 20
903.4559232649
 30
0.0
 11
1592.7815734
 21
905.455927318
 31
0.0
  0
LINE
  5
275
330
1F
100
AcDbEntity
  8
0
  6
Continuous
 62
     7
370
    15
100
AcDbLine
 10
1592.7815734
 20
905.455927318
 30
0.0
 11
1623.3222199195
 21
905.455927318
 31
0.0
  0
ARC
  5
276
330
1F
100
AcDbEntity
  8
0
  6
Continuous
 62
     7
370
    15
100
AcDbCircle
 10
1621.5197502595
 20
903.9224256439
 30
0.0
 40
2.366542680798077
100
AcDbArc
 50
348.6311709726
 51
40.3904079866
  0
LINE
  5
277
330
1F
100
AcDbEntity
  8
0
  6
Continuous
 62
     7
370
    15
100
AcDbLine
 10
1592.7815734
 20
903.4559232649
 30
0.0
 11
1592.7815734
 21
482.4559194502
 31
0.0
  0
LINE
  5
278
330
1F
100
AcDbEntity
  8
0
  6
Continuous
 62
     7
370
    15
100
AcDbLine
 10
1623.8398579704
 20
903.4559232649
 30
0.0
 11
1623.8398579704
 21
482.4559194502
 31
0.0
  0
LINE
  5
279
330
1F
100
AcDbEntity
  8
0
  6
Continuous
 62
     7
370
    15
100
AcDbLine
 10
1592.7815734
 20
903.4559232649
 30
0.0
 11
1502.6218181998
 21
903.4559232649
 31
0.0
  0
LINE
  5
27A
330
1F
100
AcDbEntity
  8
0
  6
Continuous
 62
     7
370
    15
100
AcDbLine
 10
1502.6218181998
 20
903.4559232649
 30
0.0
 11
1502.6218181998
 21
905.455927318
 31
0.0
  0
LINE
  5
27B
330
1F
100
AcDbEntity
  8
0
  6
Continuous
 62
     7
370
    15
100
AcDbLine
 10
1502.6218181998
 20
905.455927318
 30
0.0
 11
1592.7815734
 21
905.455927318
 31
0.0
  0
LINE
  5
27C
330
1F
100
AcDbEntity
  8
0
  6
Continuous
 62
     7
370
    15
100
AcDbLine
 10
1502.6218181998
 20
482.4559194502
 30
0.0
 11
1592.7815734
 21
482.4559194502
 31
0.0
  0
LINE
  5
27D
330
1F
100
AcDbEntity
  8
0
  6
Continuous
 62
     7
370
    15
100
AcDbLine
 10
1502.6218181998
 20
903.4559232649
 30
0.0
 11
1502.6218181998
 21
482.4559194502
 31
0.0
  0
CIRCLE
  5
27E
330
1F
100
AcDbEntity
  8
0
  6
Continuous
 62
     7
370
    15
100
AcDbCircle
 10
1547.121820584
 20
885.4559213576
 30
0.0
 40
6.025000000000318
  0
CIRCLE
  5
27F
330
1F
100
AcDbEntity
  8
0
  6
Continuous
 62
     7
370
    15
100
AcDbCircle
 10
1547.121820584
 20
512.4559213576
 30
0.0
 40
6.024999999999977
  0
LINE
  5
280
330
1F
100
AcDbEntity
  8
0
  6
Continuous
 62
     7
370
    15
100
AcDbLine
 10
1592.7815734
 20
480.4559153971
 30
0.0
 11
1502.6218181998
 21
480.4559153971
 31
0.0
  0
LINE
  5
281
330
1F
100
AcDbEntity
  8
0
  6
Continuous
 62
     7
370
    15
100
AcDbLine
 10
1502.6218181998
 20
482.4559194502
 30
0.0
 11
1502.6218181998
 21
480.4559153971
 31
0.0
  0
CIRCLE
  5
282
330
1F
100
AcDbEntity
  8
0
  6
Continuous
 62
     7
370
    15
100
AcDbCircle
 10
1547.121820584
 20
512.4559213576
 30
0.0
 40
3.125000000000057
  0
CIRCLE
  5
283
330
1F
100
AcDbEntity
  8
0
  6
Continuous
 62
     7
370
    15
100
AcDbCircle
 10
1547.121820584
 20
885.4559213576
 30
0.0
 40
3.125000000000227
  0
LINE
  5
284
330
1F
100
AcDbEntity
  8
0
  6
Continuous
 62
     7
370
    15
100
AcDbLine
 10
1502.6218181998
 20
903.4559232649
 30
0.0
 11
1497.6218229682
 21
903.4559232649
 31
0.0
  0
ARC
  5
285
330
1F
100
AcDbEntity
  8
0
  6
Continuous
 62
     7
370
    15
100
AcDbCircle
 10
1499.621820584
 20
903.4559213576
 30
0.0
 40
2.000000000000227
100
AcDbArc
 50
90.0
 51
180.0
  0
LINE
  5
286
330
1F
100
AcDbEntity
  8
0
  6
Continuous
 62
     7
370
    15
100
AcDbLine
 10
1497.6218229682
 20
482.4559194502
 30
0.0
 11
1502.6218181998
 21
482.4559194502
 31
0.0
  0
LINE
  5
287
330
1F
100
AcDbEntity
  8
0
  6
Continuous
 62
     7
370
    15
100
AcDbLine
 10
1502.6218181998
 20
480.4559153971
 30
0.0
 11
1500.3857499511
 21
480.4559153971
 31
0.0
  0
ARC
  5
288
330
1F
100
AcDbEntity
  8
0
  6
Continuous
 62
     7
370
    15
100
AcDbCircle
 10
1499.621820584
 20
482.4559213576
 30
0.0
 40
2.000000000000227
100
AcDbArc
 50
180.0
 51
270.0
  0
LINE
  5
289
330
1F
100
AcDbEntity
  8
0
  6
Continuous
 62
     7
370
    15
100
AcDbLine
 10
1497.6218229682
 20
482.4559194502
 30
0.0
 11
1497.6218229682
 21
903.4559232649
 31
0.0
  0
LINE
  5
28A
330
1F
100
AcDbEntity
  8
0
  6
Continuous
 62
     7
370
    15
100
AcDbLine
 10
1743.6923718602
 20
903.4559232649
 30
0.0
 11
1623.8398579704
 21
903.4559232649
 31
0.0
  0
LINE
  5
28B
330
1F
100
AcDbEntity
  8
0
  6
Continuous
 62
     7
370
    15
100
AcDbLine
 10
1623.3222199195
 20
905.455927318
 30
0.0
 11
1743.1747353227
 21
905.455927318
 31
0.0
  0
ARC
  5
28C
330
1F
100
AcDbEntity
  8
0
  6
Continuous
 62
     7
370
    15
100
AcDbCircle
 10
1741.3722837457
 20
903.9224320797
 30
0.0
 40
2.366524737546749
100
AcDbArc
 50
348.6309246873
 51
40.3905730046
  0
LINE
  5
28D
330
1F
100
AcDbEntity
  8
0
  6
Continuous
 62
     7
370
    15
100
AcDbLine
 10
1623.8398579704
 20
482.4559194502
 30
0.0
 11
1743.6923718602
 21
482.4559194502
 31
0.0
  0
ARC
  5
28E
330
1F
100
AcDbEntity
  8
0
  6
Continuous
 62
     7
370
    15
100
AcDbCircle
 10
1741.3722837457
 20
481.9894106355
 30
0.0
 40
2.366524737546549
100
AcDbArc
 50
319.6094269954
 51
11.3690753127
  0
LINE
  5
28F
330
1F
100
AcDbEntity
  8
0
  6
Continuous
 62
     7
370
    15
100
AcDbLine
 10
1743.1747353227
 20
480.4559153971
 30
0.0
 11
1623.3222199195
 21
480.4559153971
 31
0.0
  0
LINE
  5
290
330
1F
100
AcDbEntity
  8
0
  6
Continuous
 62
     7
370
    15
100
AcDbLine
 10
1743.6923718602
 20
482.4559194502
 30
0.0
 11
1743.6923718602
 21
903.4559232649
 31
0.0
  0
LINE
  5
291
330
1F
100
AcDbEntity
  8
0
  6
Continuous
 62
     7
370
    15
100
AcDbLine
 10
1497.6218229682
 20
480.4559153971
 30
0.0
 11
1497.6218229682
 21
482.4559194502
 31
0.0
  0
LINE
  5
292
330
1F
100
AcDbEntity
  8
0
  6
Continuous
 62
     7
370
    15
100
AcDbLine
 10
1497.6218229682
 20
903.4559232649
 30
0.0
 11
1497.6218229682
 21
905.455927318
 31
0.0
  0
LINE
  5
293
330
1F
100
AcDbEntity
  8
0
  6
Continuous
 62
     7
370
    15
100
AcDbLine
 10
1743.6923718602
 20
482.4559194502
 30
0.0
 11
1747.968647495
 21
482.4559194502
 31
0.0
  0
LINE
  5
294
330
1F
100
AcDbEntity
  8
0
  6
Continuous
 62
     7
370
    15
100
AcDbLine
 10
1746.3819420488
 20
480.4559153971
 30
0.0
 11
1743.1747353227
 21
480.4559153971
 31
0.0
  0
LINE
  5
295
330
1F
100
AcDbEntity
  8
0
  6
Continuous
 62
     7
370
    15
100
AcDbLine
 10
1747.968647495
 20
903.4559232649
 30
0.0
 11
1743.6923718602
 21
903.4559232649
 31
0.0
  0
LINE
  5
296
330
1F
100
AcDbEntity
  8
0
  6
Continuous
 62
     7
370
    15
100
AcDbLine
 10
1743.1747353227
 20
905.455927318
 30
0.0
 11
1746.3819420488
 21
905.455927318
 31
0.0
  0
LINE
  5
297
330
1F
100
AcDbEntity
  8
0
  6
Continuous
 62
     7
370
    15
100
AcDbLine
 10
1623.8398579704
 20
912.4559266028
 30
0.0
 11
1592.7815734
 21
912.4559266028
 31
0.0
  0
LINE
  5
298
330
1F
100
AcDbEntity
  8
0
  6
Continuous
 62
     7
370
    15
100
AcDbLine
 10
1592.7815734
 20
912.4559266028
 30
0.0
 11
1592.7815734
 21
917.4559218344
 31
0.0
  0
LINE
  5
299
330
1F
100
AcDbEntity
  8
0
  6
Continuous
 62
     7
370
    15
100
AcDbLine
 10
1592.7815734
 20
917.4559218344
 30
0.0
 11
1622.5457627849
 21
917.4559218344
 31
0.0
  0
LWPOLYLINE
  5
29A
330
1F
100
AcDbEntity
  8
0
  6
Continuous
 62
     7
370
    15
100
AcDbPolyline
 90
        9
 70
   128
 43
0.0
 10
1623.8398579704
 20
912.4559266028
 10
1623.8149923562
 20
913.4313715157
 10
1623.7413508176
 20
914.3693400082
 10
1623.6217636439
 20
915.2337712702
 10
1623.46082633
 20
915.9914506134
 10
1623.2647235562
 20
916.6132760701
 10
1623.0409914684
 20
917.0753163752
 10
1622.7982282695
 20
917.3598540482
 10
1622.5457627849
 20
917.4559218344
  0
LINE
  5
29B
330
1F
100
AcDbEntity
  8
0
  6
Continuous
 62
     7
370
    15
100
AcDbLine
 10
1592.7815734
 20
905.455927318
 30
0.0
 11
1592.7815734
 21
907.45591647
 31
0.0
  0
LINE
  5
29C
330
1F
100
AcDbEntity
  8
0
  6
Continuous
 62
     7
370
    15
100
AcDbLine
 10
1592.7815734
 20
907.45591647
 30
0.0
 11
1623.8398579704
 21
907.45591647
 31
0.0
  0
ARC
  5
29D
330
1F
100
AcDbEntity
  8
0
  6
Continuous
 62
     7
370
    15
100
AcDbCircle
 10
1621.5198338161
 20
906.9894038904
 30
0.0
 40
2.366462774595488
100
AcDbArc
 50
319.608743995
 51
11.3694699453
  0
LINE
  5
29E
330
1F
100
AcDbEntity
  8
0
  6
Continuous
 62
     7
370
    15
100
AcDbLine
 10
1623.8398579704
 20
912.4559266028
 30
0.0
 11
1623.8398579704
 21
907.45591647
 31
0.0
  0
LINE
  5
29F
330
1F
100
AcDbEntity
  8
0
  6
Continuous
 62
     7
370
    15
100
AcDbLine
 10
1592.7815734
 20
912.4559266028
 30
0.0
 11
1592.7815734
 21
907.45591647
 31
0.0
  0
LINE
  5
2A0
330
1F
100
AcDbEntity
  8
0
  6
Continuous
 62
     7
370
    15
100
AcDbLine
 10
1592.7815734
 20
912.4559266028
 30
0.0
 11
1490.0718218238
 21
912.4559266028
 31
0.0
  0
LINE
  5
2A1
330
1F
100
AcDbEntity
  8
0
  6
Continuous
 62
     7
370
    15
100
AcDbLine
 10
1490.0718218238
 20
912.4559266028
 30
0.0
 11
1490.0718218238
 21
917.4559218344
 31
0.0
  0
LINE
  5
2A2
330
1F
100
AcDbEntity
  8
0
  6
Continuous
 62
     7
370
    15
100
AcDbLine
 10
1490.0718218238
 20
917.4559218344
 30
0.0
 11
1592.7815734
 21
917.4559218344
 31
0.0
  0
LINE
  5
2A3
330
1F
100
AcDbEntity
  8
0
  6
Continuous
 62
     7
370
    15
100
AcDbLine
 10
1592.7815734
 20
905.455927318
 30
0.0
 11
1490.0718218238
 21
905.455927318
 31
0.0
  0
LINE
  5
2A4
330
1F
100
AcDbEntity
  8
0
  6
Continuous
 62
     7
370
    15
100
AcDbLine
 10
1490.0718218238
 20
905.455927318
 30
0.0
 11
1490.0718218238
 21
907.45591647
 31
0.0
  0
LINE
  5
2A5
330
1F
100
AcDbEntity
  8
0
  6
Continuous
 62
     7
370
    15
100
AcDbLine
 10
1490.0718218238
 20
907.45591647
 30
0.0
 11
1592.7815734
 21
907.45591647
 31
0.0
  0
LINE
  5
2A6
330
1F
100
AcDbEntity
  8
0
  6
Continuous
 62
     7
370
    15
100
AcDbLine
 10
1490.0718218238
 20
912.4559266028
 30
0.0
 11
1490.0718218238
 21
907.45591647
 31
0.0
  0
LINE
  5
2A7
330
1F
100
AcDbEntity
  8
0
  6
Continuous
 62
     7
370
    15
100
AcDbLine
 10
1471.6650283486
 20
917.4559218344
 30
0.0
 11
1490.0718218238
 21
917.4559218344
 31
0.0
  0
LINE
  5
2A8
330
1F
100
AcDbEntity
  8
0
  6
Continuous
 62
     7
370
    15
100
AcDbLine
 10
1490.0718218238
 20
912.4559266028
 30
0.0
 11
1466.6902160794
 21
912.4559266028
 31
0.0
  0
ARC
  5
2A9
330
1F
100
AcDbEntity
  8
0
  6
Continuous
 62
     7
370
    15
100
AcDbCircle
 10
1471.6776639746
 20
912.4684741615
 30
0.0
 40
4.987463678930517
100
AcDbArc
 50
90.1451577119
 51
180.1441459958
  0
LINE
  5
2AA
330
1F
100
AcDbEntity
  8
0
  6
Continuous
 62
     7
370
    15
100
AcDbLine
 10
1490.0718218238
 20
905.455927318
 30
0.0
 11
1468.6801469476
 21
905.455927318
 31
0.0
  0
ARC
  5
2AB
330
1F
100
AcDbEntity
  8
0
  6
Continuous
 62
     7
370
    15
100
AcDbCircle
 10
1468.6851760313
 20
907.4508872702
 30
0.0
 40
1.994966291077685
100
AcDbArc
 50
179.8555603535
 51
269.8555636853
  0
LINE
  5
2AC
330
1F
100
AcDbEntity
  8
0
  6
Continuous
 62
     7
370
    15
100
AcDbLine
 10
1466.6902160794
 20
907.45591647
 30
0.0
 11
1490.0718218238
 21
907.45591647
 31
0.0
  0
LINE
  5
2AD
330
1F
100
AcDbEntity
  8
0
  6
Continuous
 62
     7
370
    15
100
AcDbLine
 10
1466.6902160794
 20
912.4559266028
 30
0.0
 11
1466.6902160794
 21
907.45591647
 31
0.0
  0
LINE
  5
2AE
330
1F
100
AcDbEntity
  8
0
  6
Continuous
 62
     7
370
    15
100
AcDbLine
 10
1743.6923718602
 20
912.4559266028
 30
0.0
 11
1623.8398579704
 21
912.4559266028
 31
0.0
  0
LINE
  5
2AF
330
1F
100
AcDbEntity
  8
0
  6
Continuous
 62
     7
370
    15
100
AcDbLine
 10
1743.6923718602
 20
912.4559266028
 30
0.0
 11
1743.6923718602
 21
907.45591647
 31
0.0
  0
LINE
  5
2B0
330
1F
100
AcDbEntity
  8
0
  6
Continuous
 62
     7
370
    15
100
AcDbLine
 10
1623.8398579704
 20
907.45591647
 30
0.0
 11
1743.6923718602
 21
907.45591647
 31
0.0
  0
ARC
  5
2B1
330
1F
100
AcDbEntity
  8
0
  6
Continuous
 62
     7
370
    15
100
AcDbCircle
 10
1741.3723673024
 20
906.9893974546
 30
0.0
 40
2.366444831436343
100
AcDbArc
 50
319.6085789646
 51
11.3697162436
  0
LINE
  5
2B2
330
1F
100
AcDbEntity
  8
0
  6
Continuous
 62
     7
370
    15
100
AcDbLine
 10
1622.5457627849
 20
917.4559218344
 30
0.0
 11
1742.3982805163
 21
917.4559218344
 31
0.0
  0
LWPOLYLINE
  5
2B3
330
1F
100
AcDbEntity
  8
0
  6
Continuous
 62
     7
370
    15
100
AcDbPolyline
 90
        9
 70
   128
 43
0.0
 10
1743.6923718602
 20
912.4559266028
 10
1743.6675092728
 20
913.4313715157
 10
1743.5938677342
 20
914.3693400082
 10
1743.474278465
 20
915.2337712702
 10
1743.3133384735
 20
915.9914506134
 10
1743.1172391922
 20
916.6132760701
 10
1742.8935057075
 20
917.0753163752
 10
1742.6507434399
 20
917.3598540482
 10
1742.3982805163
 20
917.4559218344
  0
LINE
  5
2B4
330
1F
100
AcDbEntity
  8
0
  6
Continuous
 62
     7
370
    15
100
AcDbLine
 10
1468.6801469476
 20
905.455927318
 30
0.0
 11
1463.6218136699
 21
905.455927318
 31
0.0
  0
LINE
  5
2B5
330
1F
100
AcDbEntity
  8
0
  6
Continuous
 62
     7
370
    15
100
AcDbLine
 10
1466.6218197496
 20
917.4559218344
 30
0.0
 11
1471.6650283486
 21
917.4559218344
 31
0.0
  0
LINE
  5
2B6
330
1F
100
AcDbEntity
  8
0
  6
Continuous
 62
     7
370
    15
100
AcDbLine
 10
1749.6218195707
 20
912.4559266028
 30
0.0
 11
1743.6923718602
 21
912.4559266028
 31
0.0
  0
ARC
  5
2B7
330
1F
100
AcDbEntity
  8
0
  6
Continuous
 62
     7
370
    15
100
AcDbCircle
 10
1744.621820584
 20
912.4559213576
 30
0.0
 40
5.0
100
AcDbArc
 50
0.0
 51
90.0
  0
LINE
  5
2B8
330
1F
100
AcDbEntity
  8
0
  6
Continuous
 62
     7
370
    15
100
AcDbLine
 10
1742.3982805163
 20
917.4559218344
 30
0.0
 11
1744.6218168885
 21
917.4559218344
 31
0.0
  0
LINE
  5
2B9
330
1F
100
AcDbEntity
  8
0
  6
Continuous
 62
     7
370
    15
100
AcDbLine
 10
1749.6218195707
 20
912.4559266028
 30
0.0
 11
1749.6218195707
 21
907.45591647
 31
0.0
  0
LINE
  5
2BA
330
1F
100
AcDbEntity
  8
0
  6
Continuous
 62
     7
370
    15
100
AcDbLine
 10
1743.6923718602
 20
907.45591647
 30
0.0
 11
1749.6218195707
 21
907.45591647
 31
0.0
  0
ARC
  5
2BB
330
1F
100
AcDbEntity
  8
0
  6
Continuous
 62
     7
370
    15
100
AcDbCircle
 10
1747.621820584
 20
907.4559213576
 30
0.0
 40
2.000000000000227
100
AcDbArc
 50
270.0
 51
0.0
  0
LINE
  5
2BC
330
1F
100
AcDbEntity
  8
0
  6
Continuous
 62
     7
370
    15
100
AcDbLine
 10
1747.6218229682
 20
905.455927318
 30
0.0
 11
1743.1747353227
 21
905.455927318
 31
0.0
  0
LINE
  5
2BD
330
1F
100
AcDbEntity
  8
0
  6
Continuous
 62
     7
370
    15
100
AcDbLine
 10
1623.8398579704
 20
477.4559242186
 30
0.0
 11
1592.7815734
 21
477.4559242186
 31
0.0
  0
LINE
  5
2BE
330
1F
100
AcDbEntity
  8
0
  6
Continuous
 62
     7
370
    15
100
AcDbLine
 10
1592.7815734
 20
477.4559242186
 30
0.0
 11
1592.7815734
 21
480.4559153971
 31
0.0
  0
ARC
  5
2BF
330
1F
100
AcDbEntity
  8
0
  6
Continuous
 62
     7
370
    15
100
AcDbCircle
 10
1620.3597535244
 20
478.1556811979
 30
0.0
 40
3.549758693932351
100
AcDbArc
 50
348.6309352567
 51
40.3907796854
  0
LINE
  5
2C0
330
1F
100
AcDbEntity
  8
0
  6
Continuous
 62
     7
370
    15
100
AcDbLine
 10
1592.7815734
 20
473.4559161124
 30
0.0
 11
1623.8398579704
 21
473.4559161124
 31
0.0
  0
LINE
  5
2C1
330
1F
100
AcDbEntity
  8
0
  6
Continuous
 62
     7
370
    15
100
AcDbLine
 10
1592.7815734
 20
473.4559161124
 30
0.0
 11
1592.7815734
 21
477.4559242186
 31
0.0
  0
LINE
  5
2C2
330
1F
100
AcDbEntity
  8
0
  6
Continuous
 62
     7
370
    15
100
AcDbLine
 10
1623.8398579704
 20
473.4559161124
 30
0.0
 11
1623.8398579704
 21
477.4559242186
 31
0.0
  0
LINE
  5
2C3
330
1F
100
AcDbEntity
  8
0
  6
Continuous
 62
     7
370
    15
100
AcDbLine
 10
1622.5457627849
 20
468.4559208807
 30
0.0
 11
1592.7815734
 21
468.4559208807
 31
0.0
  0
LINE
  5
2C4
330
1F
100
AcDbEntity
  8
0
  6
Continuous
 62
     7
370
    15
100
AcDbLine
 10
1592.7815734
 20
468.4559208807
 30
0.0
 11
1592.7815734
 21
473.4559161124
 31
0.0
  0
LWPOLYLINE
  5
2C5
330
1F
100
AcDbEntity
  8
0
  6
Continuous
 62
     7
370
    15
100
AcDbPolyline
 90
        9
 70
   128
 43
0.0
 10
1622.5457627849
 20
468.4559208807
 10
1622.7982282695
 20
468.551988667
 10
1623.0409914684
 20
468.83652634
 10
1623.2647235562
 20
469.2985666451
 10
1623.46082633
 20
469.9203921017
 10
1623.6217636439
 20
470.6780714449
 10
1623.7413508176
 20
471.542502707
 10
1623.8149923562
 20
472.4804711995
 10
1623.8398579704
 20
473.4559161124
  0
LINE
  5
2C6
330
1F
100
AcDbEntity
  8
0
  6
Continuous
 62
     7
370
    15
100
AcDbLine
 10
1592.7815734
 20
477.4559242186
 30
0.0
 11
1490.0718218238
 21
477.4559242186
 31
0.0
  0
LINE
  5
2C7
330
1F
100
AcDbEntity
  8
0
  6
Continuous
 62
     7
370
    15
100
AcDbLine
 10
1490.0718218238
 20
477.4559242186
 30
0.0
 11
1490.0718218238
 21
480.4559153971
 31
0.0
  0
LINE
  5
2C8
330
1F
100
AcDbEntity
  8
0
  6
Continuous
 62
     7
370
    15
100
AcDbLine
 10
1490.0718218238
 20
480.4559153971
 30
0.0
 11
1500.3857499511
 21
480.4559153971
 31
0.0
  0
LINE
  5
2C9
330
1F
100
AcDbEntity
  8
0
  6
Continuous
 62
     7
370
    15
100
AcDbLine
 10
1592.7815734
 20
468.4559208807
 30
0.0
 11
1490.0718218238
 21
468.4559208807
 31
0.0
  0
LINE
  5
2CA
330
1F
100
AcDbEntity
  8
0
  6
Continuous
 62
     7
370
    15
100
AcDbLine
 10
1490.0718218238
 20
468.4559208807
 30
0.0
 11
1490.0718218238
 21
473.4559161124
 31
0.0
  0
LINE
  5
2CB
330
1F
100
AcDbEntity
  8
0
  6
Continuous
 62
     7
370
    15
100
AcDbLine
 10
1490.0718218238
 20
473.4559161124
 30
0.0
 11
1592.7815734
 21
473.4559161124
 31
0.0
  0
LINE
  5
2CC
330
1F
100
AcDbEntity
  8
0
  6
Continuous
 62
     7
370
    15
100
AcDbLine
 10
1490.0718218238
 20
473.4559161124
 30
0.0
 11
1490.0718218238
 21
477.4559242186
 31
0.0
  0
LINE
  5
2CD
330
1F
100
AcDbEntity
  8
0
  6
Continuous
 62
     7
370
    15
100
AcDbLine
 10
1466.6902160794
 20
473.4559161124
 30
0.0
 11
1490.0718218238
 21
473.4559161124
 31
0.0
  0
LINE
  5
2CE
330
1F
100
AcDbEntity
  8
0
  6
Continuous
 62
     7
370
    15
100
AcDbLine
 10
1466.6902160794
 20
473.4559161124
 30
0.0
 11
1466.6902160794
 21
477.4559242186
 31
0.0
  0
LINE
  5
2CF
330
1F
100
AcDbEntity
  8
0
  6
Continuous
 62
     7
370
    15
100
AcDbLine
 10
1490.0718218238
 20
477.4559242186
 30
0.0
 11
1466.6902160794
 21
477.4559242186
 31
0.0
  0
ARC
  5
2D0
330
1F
100
AcDbEntity
  8
0
  6
Continuous
 62
     7
370
    15
100
AcDbCircle
 10
1469.6826743109
 20
477.4634572762
 30
0.0
 40
2.992467713080632
100
AcDbArc
 50
90.1450711947
 51
180.1442330892
  0
LINE
  5
2D1
330
1F
100
AcDbEntity
  8
0
  6
Continuous
 62
     7
370
    15
100
AcDbLine
 10
1469.6750974805
 20
480.4559153971
 30
0.0
 11
1490.0718218238
 21
480.4559153971
 31
0.0
  0
LINE
  5
2D2
330
1F
100
AcDbEntity
  8
0
  6
Continuous
 62
     7
370
    15
100
AcDbLine
 10
1490.0718218238
 20
468.4559208807
 30
0.0
 11
1471.6650283486
 21
468.4559208807
 31
0.0
  0
ARC
  5
2D3
330
1F
100
AcDbEntity
  8
0
  6
Continuous
 62
     7
370
    15
100
AcDbCircle
 10
1471.6776639746
 20
473.4433685536
 30
0.0
 40
4.987463678930589
100
AcDbArc
 50
179.8558540042
 51
269.8548422881
  0
LINE
  5
2D4
330
1F
100
AcDbEntity
  8
0
  6
Continuous
 62
     7
370
    15
100
AcDbLine
 10
1742.3982805163
 20
468.4559208807
 30
0.0
 11
1622.5457627849
 21
468.4559208807
 31
0.0
  0
LINE
  5
2D5
330
1F
100
AcDbEntity
  8
0
  6
Continuous
 62
     7
370
    15
100
AcDbLine
 10
1623.8398579704
 20
473.4559161124
 30
0.0
 11
1743.6923718602
 21
473.4559161124
 31
0.0
  0
LWPOLYLINE
  5
2D6
330
1F
100
AcDbEntity
  8
0
  6
Continuous
 62
     7
370
    15
100
AcDbPolyline
 90
        9
 70
   128
 43
0.0
 10
1742.3982805163
 20
468.4559208807
 10
1742.6507434399
 20
468.551988667
 10
1742.8935057075
 20
468.83652634
 10
1743.1172391922
 20
469.2985666451
 10
1743.3133384735
 20
469.9203921017
 10
1743.474278465
 20
470.6780714449
 10
1743.5938677342
 20
471.542502707
 10
1743.6675092728
 20
472.4804711995
 10
1743.6923718602
 20
473.4559161124
  0
LINE
  5
2D7
330
1F
100
AcDbEntity
  8
0
  6
Continuous
 62
     7
370
    15
100
AcDbLine
 10
1743.6923718602
 20
477.4559242186
 30
0.0
 11
1623.8398579704
 21
477.4559242186
 31
0.0
  0
ARC
  5
2D8
330
1F
100
AcDbEntity
  8
0
  6
Continuous
 62
     7
370
    15
100
AcDbCircle
 10
1740.2122414552
 20
478.1556764726
 30
0.0
 40
3.549783212078089
100
AcDbArc
 50
348.6310926249
 51
40.3905431333
  0
LINE
  5
2D9
330
1F
100
AcDbEntity
  8
0
  6
Continuous
 62
     7
370
    15
100
AcDbLine
 10
1743.6923718602
 20
473.4559161124
 30
0.0
 11
1743.6923718602
 21
477.4559242186
 31
0.0
  0
LINE
  5
2DA
330
1F
100
AcDbEntity
  8
0
  6
Continuous
 62
     7
370
    15
100
AcDbLine
 10
1471.6650283486
 20
468.4559208807
 30
0.0
 11
1466.6218197496
 21
468.4559208807
 31
0.0
  0
LINE
  5
2DB
330
1F
100
AcDbEntity
  8
0
  6
Continuous
 62
     7
370
    15
100
AcDbLine
 10
1464.6218156964
 20
480.4559153971
 30
0.0
 11
1469.6750974805
 21
480.4559153971
 31
0.0
  0
ARC
  5
2DC
330
1F
100
AcDbEntity
  8
0
  6
Continuous
 62
     7
370
    15
100
AcDbCircle
 10
1746.621820584
 20
477.4559213576
 30
0.0
 40
3.0
100
AcDbArc
 50
0.0
 51
90.0
  0
LINE
  5
2DD
330
1F
100
AcDbEntity
  8
0
  6
Continuous
 62
     7
370
    15
100
AcDbLine
 10
1749.6218195707
 20
477.4559242186
 30
0.0
 11
1743.6923718602
 21
477.4559242186
 31
0.0
  0
LINE
  5
2DE
330
1F
100
AcDbEntity
  8
0
  6
Continuous
 62
     7
370
    15
100
AcDbLine
 10
1743.6923718602
 20
473.4559161124
 30
0.0
 11
1749.6218195707
 21
473.4559161124
 31
0.0
  0
ARC
  5
2DF
330
1F
100
AcDbEntity
  8
0
  6
Continuous
 62
     7
370
    15
100
AcDbCircle
 10
1744.621820584
 20
473.4559213576
 30
0.0
 40
5.000000000000057
100
AcDbArc
 50
270.0
 51
0.0
  0
LINE
  5
2E0
330
1F
100
AcDbEntity
  8
0
  6
Continuous
 62
     7
370
    15
100
AcDbLine
 10
1744.6218168885
 20
468.4559208807
 30
0.0
 11
1742.3982805163
 21
468.4559208807
 31
0.0
  0
LINE
  5
2E1
330
1F
100
AcDbEntity
  8
0
  6
Continuous
 62
     7
370
    15
100
AcDbLine
 10
1749.6218195707
 20
473.4559161124
 30
0.0
 11
1749.6218195707
 21
477.4559242186
 31
0.0
  0
LINE
  5
2E2
330
1F
100
AcDbEntity
  8
0
  6
Continuous
 62
     8
370
    15
100
AcDbLine
 10
1721.6024136693
 20
466.5308398661
 30
0.0
 11
1737.6412338168
 21
466.5308398661
 31
0.0
  0
LINE
  5
2E3
330
1F
100
AcDbEntity
  8
0
  6
Continuous
 62
     8
370
    15
100
AcDbLine
 10
1478.8924640567
 20
466.5308398661
 30
0.0
 11
1494.9312842042
 21
466.5308398661
 31
0.0
  0
LINE
  5
2E4
330
1F
100
AcDbEntity
  8
0
  6
Continuous
 62
     8
370
    15
100
AcDbLine
 10
1472.6599937827
 20
905.455927318
 30
0.0
 11
1472.6599937827
 21
480.4559153971
 31
0.0
  0
LINE
  5
2E5
330
1F
100
AcDbEntity
  8
0
  6
Continuous
 62
     8
370
    15
100
AcDbLine
 10
1490.0718218238
 20
905.455927318
 30
0.0
 11
1490.0718218238
 21
480.4559153971
 31
0.0
  0
LINE
  5
2E6
330
1F
100
AcDbEntity
  8
0
  6
Continuous
 62
     8
370
    15
100
AcDbLine
 10
1494.5852196366
 20
905.455927318
 30
0.0
 11
1494.5852196366
 21
480.4559153971
 31
0.0
  0
LINE
  5
2E7
330
1F
100
AcDbEntity
  8
0
  6
Continuous
 62
     8
370
    15
100
AcDbLine
 10
1497.3584151418
 20
905.455927318
 30
0.0
 11
1497.3584151418
 21
480.4559153971
 31
0.0
  0
LINE
  5
2E8
330
1F
100
AcDbEntity
  8
0
  6
Continuous
 62
     8
370
    15
100
AcDbLine
 10
1461.6218245179
 20
907.45591647
 30
0.0
 11
1466.6902160794
 21
907.45591647
 31
0.0
  0
LINE
  5
2E9
330
1F
100
AcDbEntity
  8
0
  6
Continuous
 62
     8
370
    15
100
AcDbLine
 10
1466.6902160794
 20
912.4559266028
 30
0.0
 11
1461.6218245179
 21
912.4559266028
 31
0.0
  0
LINE
  5
2EA
330
1F
100
AcDbEntity
  8
0
  6
Continuous
 62
     8
370
    15
100
AcDbLine
 10
1461.6218245179
 20
473.4559161124
 30
0.0
 11
1466.6902160794
 21
473.4559161124
 31
0.0
  0
LINE
  5
2EB
330
1F
100
AcDbEntity
  8
0
  6
Continuous
 62
     8
370
    15
100
AcDbLine
 10
1466.6902160794
 20
477.4559242186
 30
0.0
 11
1461.6218245179
 21
477.4559242186
 31
0.0
  0
LINE
  5
2EC
330
1F
100
AcDbEntity
  8
0
  6
Continuous
 62
     7
370
    15
100
AcDbLine
 10
822.1116196974
 20
1531.1795295842
 30
0.0
 11
978.2502335175
 21
1531.1795295842
 31
0.0
  0
LINE
  5
2ED
330
1F
100
AcDbEntity
  8
0
  6
Continuous
 62
     7
370
    15
100
AcDbLine
 10
978.2502335175
 20
1531.1795295842
 30
0.0
 11
978.2502335175
 21
1526.179526902
 31
0.0
  0
LINE
  5
2EE
330
1F
100
AcDbEntity
  8
0
  6
Continuous
 62
     7
370
    15
100
AcDbLine
 10
978.2502335175
 20
1526.179526902
 30
0.0
 11
822.1116196974
 21
1526.179526902
 31
0.0
  0
LINE
  5
2EF
330
1F
100
AcDbEntity
  8
0
  6
Continuous
 62
     7
370
    15
100
AcDbLine
 10
822.1116196974
 20
1531.1795295842
 30
0.0
 11
822.1116196974
 21
1526.179526902
 31
0.0
  0
ARC
  5
2F0
330
1F
100
AcDbEntity
  8
0
  6
Continuous
 62
     7
370
    15
100
AcDbCircle
 10
978.2502345594
 20
1523.1795305975
 30
0.0
 40
8.000000000000227
100
AcDbArc
 50
15.0
 51
90.0
  0
LWPOLYLINE
  5
2F1
330
1F
100
AcDbEntity
  8
0
  6
Continuous
 62
     7
370
    15
100
AcDbPolyline
 90
        9
 70
   128
 43
0.0
 10
985.9776404365
 20
1525.2500818737
 10
985.8848434551
 20
1525.2252192862
 10
985.6100064381
 20
1525.1515777476
 10
985.1637017592
 20
1525.0319884785
 10
984.5630732044
 20
1524.871048487
 10
983.8312101229
 20
1524.6749492057
 10
982.996231006
 20
1524.4512157209
 10
982.0902255042
 20
1524.2084534533
 10
981.1480101808
 20
1523.9559905298
  0
ARC
  5
2F2
330
1F
100
AcDbEntity
  8
0
  6
Continuous
 62
     7
370
    15
100
AcDbCircle
 10
978.2502345594
 20
1523.1795305975
 30
0.0
 40
3.000000000000227
100
AcDbArc
 50
15.0
 51
90.0
  0
ARC
  5
2F3
330
1F
100
AcDbEntity
  8
0
  6
Continuous
 62
     7
370
    15
100
AcDbCircle
 10
822.1116186555
 20
1523.1795305975
 30
0.0
 40
3.000000000000227
100
AcDbArc
 50
90.0
 51
165.0
  0
LWPOLYLINE
  5
2F4
330
1F
100
AcDbEntity
  8
0
  6
Continuous
 62
     7
370
    15
100
AcDbPolyline
 90
        9
 70
   128
 43
0.0
 10
819.2138430341
 20
1523.9559905298
 10
818.2716277107
 20
1524.2084534533
 10
817.3656222089
 20
1524.4512157209
 10
816.530643092
 20
1524.6749492057
 10
815.7987800105
 20
1524.871048487
 10
815.1981514557
 20
1525.0319884785
 10
814.7518467768
 20
1525.1515777476
 10
814.4770097597
 20
1525.2252192862
 10
814.3842127784
 20
1525.2500818737
  0
ARC
  5
2F5
330
1F
100
AcDbEntity
  8
0
  6
Continuous
 62
     7
370
    15
100
AcDbCircle
 10
822.1116186555
 20
1523.1795305975
 30
0.0
 40
8.000000000000227
100
AcDbArc
 50
90.0
 51
165.0
  0
LINE
  5
2F6
330
1F
100
AcDbEntity
  8
0
  6
Continuous
 62
     7
370
    15
100
AcDbLine
 10
985.9776404365
 20
1525.2500818737
 30
0.0
 11
1018.092026995
 21
1405.3975679839
 31
0.0
  0
LWPOLYLINE
  5
2F7
330
1F
100
AcDbEntity
  8
0
  6
Continuous
 62
     7
370
    15
100
AcDbPolyline
 90
        9
 70
   128
 43
0.0
 10
1018.092026995
 20
1405.3975679839
 10
1017.9992225631
 20
1405.3727023697
 10
1017.7243929966
 20
1405.299060831
 10
1017.2780883177
 20
1405.1794736573
 10
1016.6774597629
 20
1405.0185363434
 10
1015.9455966814
 20
1404.8224335697
 10
1015.1106175645
 20
1404.5987014819
 10
1014.2046120628
 20
1404.355938283
 10
1013.2623967393
 20
1404.1034727983
  0
LINE
  5
2F8
330
1F
100
AcDbEntity
  8
0
  6
Continuous
 62
     7
370
    15
100
AcDbLine
 10
1013.2623967393
 20
1404.1034727983
 30
0.0
 11
981.1480101808
 21
1523.9559905298
 31
0.0
  0
LINE
  5
2F9
330
1F
100
AcDbEntity
  8
0
  6
Continuous
 62
     7
370
    15
100
AcDbLine
 10
819.2138430341
 20
1523.9559905298
 30
0.0
 11
787.0994564756
 21
1404.1034727983
 31
0.0
  0
LWPOLYLINE
  5
2FA
330
1F
100
AcDbEntity
  8
0
  6
Continuous
 62
     7
370
    15
100
AcDbPolyline
 90
        9
 70
   128
 43
0.0
 10
787.0994564756
 20
1404.1034727983
 10
786.1572411521
 20
1404.355938283
 10
785.2512356504
 20
1404.5987014819
 10
784.4162565335
 20
1404.8224335697
 10
783.684393452
 20
1405.0185363434
 10
783.0837648972
 20
1405.1794736573
 10
782.6374602183
 20
1405.299060831
 10
782.3626306518
 20
1405.3727023697
 10
782.2698262199
 20
1405.3975679839
  0
LINE
  5
2FB
330
1F
100
AcDbEntity
  8
0
  6
Continuous
 62
     7
370
    15
100
AcDbLine
 10
782.2698262199
 20
1405.3975679839
 30
0.0
 11
814.3842127784
 21
1525.2500818737
 31
0.0
  0
ARC
  5
2FC
330
1F
100
AcDbEntity
  8
0
  6
Continuous
 62
     7
370
    15
100
AcDbCircle
 10
801.6809266074
 20
1271.6295318762
 30
0.0
 40
18.50000000000157
100
AcDbArc
 50
180.0
 51
264.2461768088
  0
LINE
  5
2FD
330
1F
100
AcDbEntity
  8
0
  6
Continuous
 62
     7
370
    15
100
AcDbLine
 10
783.1809279187
 20
1374.3392834134
 30
0.0
 11
783.1809279187
 21
1271.6295318373
 31
0.0
  0
ARC
  5
2FE
330
1F
100
AcDbEntity
  8
0
  6
Continuous
 62
     7
370
    15
100
AcDbCircle
 10
898.1809266074
 20
1374.3392825931
 30
0.0
 40
115.0000000000002
100
AcDbArc
 50
165.0
 51
180.0
  0
ARC
  5
2FF
330
1F
100
AcDbEntity
  8
0
  6
Continuous
 62
     7
370
    15
100
AcDbCircle
 10
902.1809266074
 20
1374.3392825931
 30
0.0
 40
115.0000000000001
100
AcDbArc
 50
0.0
 51
15.0
  0
LINE
  5
300
330
1F
100
AcDbEntity
  8
0
  6
Continuous
 62
     7
370
    15
100
AcDbLine
 10
1017.1809252961
 20
1271.6295318373
 30
0.0
 11
1017.1809252961
 21
1374.3392834134
 31
0.0
  0
ARC
  5
301
330
1F
100
AcDbEntity
  8
0
  6
Continuous
 62
     7
370
    15
100
AcDbCircle
 10
998.6809266074
 20
1271.6295318762
 30
0.0
 40
18.50000000000216
100
AcDbArc
 50
275.7538231912
 51
0.0
  0
ARC
  5
302
330
1F
100
AcDbEntity
  8
0
  6
Continuous
 62
     7
370
    15
100
AcDbCircle
 10
900.1809266074
 20
2249.1795305975
 30
0.0
 40
1001.000000000001
100
AcDbArc
 50
264.2461768088
 51
275.7538231912
  0
CIRCLE
  5
303
330
1F
100
AcDbEntity
  8
0
  6
Continuous
 62
     7
370
    15
100
AcDbCircle
 10
990.1809266074
 20
1328.6795305975
 30
0.0
 40
6.025000000000091
  0
CIRCLE
  5
304
330
1F
100
AcDbEntity
  8
0
  6
Continuous
 62
     7
370
    15
100
AcDbCircle
 10
810.1809266074
 20
1328.6795305975
 30
0.0
 40
6.024999999999864
  0
CIRCLE
  5
305
330
1F
100
AcDbEntity
  8
0
  6
Continuous
 62
     7
370
    15
100
AcDbCircle
 10
900.1809266074
 20
1490.1795305975
 30
0.0
 40
6.025000000000091
  0
CIRCLE
  5
306
330
1F
100
AcDbEntity
  8
0
  6
Continuous
 62
     7
370
    15
100
AcDbCircle
 10
900.1809266074
 20
1347.5295305975
 30
0.0
 40
5.900000000000091
  0
CIRCLE
  5
307
330
1F
100
AcDbEntity
  8
0
  6
Continuous
 62
     7
370
    15
100
AcDbCircle
 10
900.1809266074
 20
1431.5295305975
 30
0.0
 40
5.899999999999977
  0
CIRCLE
  5
308
330
1F
100
AcDbEntity
  8
0
  6
Continuous
 62
     7
370
    15
100
AcDbCircle
 10
900.1809266074
 20
1490.1795305975
 30
0.0
 40
3.125000000000114
  0
CIRCLE
  5
309
330
1F
100
AcDbEntity
  8
0
  6
Continuous
 62
     7
370
    15
100
AcDbCircle
 10
900.1809266074
 20
1431.5295305975
 30
0.0
 40
3.000000000000114
  0
LINE
  5
30A
330
1F
100
AcDbEntity
  8
0
  6
Continuous
 62
     7
370
    15
100
AcDbLine
 10
783.1809279187
 20
1374.3392834134
 30
0.0
 11
778.1809252365
 21
1374.3392834134
 31
0.0
  0
ARC
  5
30B
330
1F
100
AcDbEntity
  8
0
  6
Continuous
 62
     7
370
    15
100
AcDbCircle
 10
898.1809266074
 20
1374.3392825931
 30
0.0
 40
120.0000000000002
100
AcDbArc
 50
165.0
 51
180.0
  0
ARC
  5
30C
330
1F
100
AcDbEntity
  8
0
  6
Continuous
 62
     7
370
    15
100
AcDbCircle
 10
902.1809266074
 20
1374.3392825931
 30
0.0
 40
120.0000000000001
100
AcDbArc
 50
0.0
 51
15.0
  0
LINE
  5
30D
330
1F
100
AcDbEntity
  8
0
  6
Continuous
 62
     7
370
    15
100
AcDbLine
 10
1022.1809279784
 20
1374.3392834134
 30
0.0
 11
1017.1809252961
 21
1374.3392834134
 31
0.0
  0
LINE
  5
30E
330
1F
100
AcDbEntity
  8
0
  6
Continuous
 62
     7
370
    15
100
AcDbLine
 10
783.1809279187
 20
1271.6295318373
 30
0.0
 11
778.1809252365
 21
1271.6295318373
 31
0.0
  0
LINE
  5
30F
330
1F
100
AcDbEntity
  8
0
  6
Continuous
 62
     7
370
    15
100
AcDbLine
 10
778.1809252365
 20
1271.6295318373
 30
0.0
 11
778.1809252365
 21
1374.3392834134
 31
0.0
  0
LINE
  5
310
330
1F
100
AcDbEntity
  8
0
  6
Continuous
 62
     7
370
    15
100
AcDbLine
 10
1022.1809279784
 20
1374.3392834134
 30
0.0
 11
1022.1809279784
 21
1271.6295318373
 31
0.0
  0
LINE
  5
311
330
1F
100
AcDbEntity
  8
0
  6
Continuous
 62
     7
370
    15
100
AcDbLine
 10
1022.1809279784
 20
1271.6295318373
 30
0.0
 11
1017.1809252961
 21
1271.6295318373
 31
0.0
  0
CIRCLE
  5
312
330
1F
100
AcDbEntity
  8
0
  6
Continuous
 62
     7
370
    15
100
AcDbCircle
 10
900.1809266074
 20
1347.5295305975
 30
0.0
 40
3.000000000000114
  0
CIRCLE
  5
313
330
1F
100
AcDbEntity
  8
0
  6
Continuous
 62
     7
370
    15
100
AcDbCircle
 10
990.1809266074
 20
1328.6795305975
 30
0.0
 40
3.125000000000114
  0
CIRCLE
  5
314
330
1F
100
AcDbEntity
  8
0
  6
Continuous
 62
     7
370
    15
100
AcDbCircle
 10
810.1809266074
 20
1328.6795305975
 30
0.0
 40
3.124999999999886
  0
LWPOLYLINE
  5
315
330
1F
100
AcDbEntity
  8
0
  6
Continuous
 62
     7
370
    15
100
AcDbPolyline
 90
        9
 70
   128
 43
0.0
 10
799.8262178763
 20
1253.2227383621
 10
799.7284290059
 20
1252.2521959312
 10
799.6343877776
 20
1251.318966008
 10
799.5477300747
 20
1250.458885885
 10
799.471763955
 20
1249.7050212391
 10
799.4094249471
 20
1249.0863399275
 10
799.3631046875
 20
1248.6266093023
 10
799.3345764144
 20
1248.343517042
 10
799.3249502643
 20
1248.2479260929
  0
ARC
  5
316
330
1F
100
AcDbEntity
  8
0
  6
Continuous
 62
     7
370
    15
100
AcDbCircle
 10
801.6809266074
 20
1271.6295318762
 30
0.0
 40
23.50000000000151
100
AcDbArc
 50
180.0
 51
264.2461768088
  0
ARC
  5
317
330
1F
100
AcDbEntity
  8
0
  6
Continuous
 62
     7
370
    15
100
AcDbCircle
 10
998.6809266074
 20
1271.6295318762
 30
0.0
 40
23.50000000000205
100
AcDbArc
 50
275.7538231912
 51
0.0
  0
LWPOLYLINE
  5
318
330
1F
100
AcDbEntity
  8
0
  6
Continuous
 62
     7
370
    15
100
AcDbPolyline
 90
        9
 70
   128
 43
0.0
 10
1000.5356353386
 20
1253.2227383621
 10
1000.633424209
 20
1252.2521959312
 10
1000.7274654372
 20
1251.318966008
 10
1000.8141231402
 20
1250.458885885
 10
1000.8900892599
 20
1249.7050212391
 10
1000.9524282678
 20
1249.0863399275
 10
1000.9987485274
 20
1248.6266093023
 10
1001.0272768005
 20
1248.343517042
 10
1001.0369029506
 20
1248.2479260929
  0
ARC
  5
319
330
1F
100
AcDbEntity
  8
0
  6
Continuous
 62
     7
370
    15
100
AcDbCircle
 10
900.1809266074
 20
2249.1795305975
 30
0.0
 40
1006.000000000001
100
AcDbArc
 50
264.2461768088
 51
275.7538231912
  0
DIMENSION
  5
31A
330
1F
100
AcDbEntity
  8
MEDIÇÕES
100
AcDbDimension
  2
_D_2
 10
678.1809266074
 20
1243.1795305975
 30
0.0
 11
678.1809266074
 21
1387.1795305975
 31
0.0
 70
   160
  1
<>
 71
     2
 42
-1.0
  3
SLDDIMSTYLE0
100
AcDbAlignedDimension
 13
822.1116186555
 23
1531.1795305975
 33
0.0
 14
900.1809266074
 24
1243.1795305975
 34
0.0
 50
90.0
100
AcDbRotatedDimension
  0
LINE
  5
324
330
1F
100
AcDbEntity
  8
0
  6
Continuous
 62
     7
370
    15
100
AcDbLine
 10
2407.1044694296
 20
1392.0067143612
 30
0.0
 11
2406.4848528046
 21
1391.7036322304
 31
0.0
  0
LINE
  5
325
330
1F
100
AcDbEntity
  8
0
  6
Continuous
 62
     7
370
    15
100
AcDbLine
 10
2526.5075159563
 20
1326.6605604122
 30
0.0
 11
2526.5075159563
 21
1669.7504022049
 31
0.0
  0
LINE
  5
326
330
1F
100
AcDbEntity
  8
0
  6
Continuous
 62
     7
370
    15
100
AcDbLine
 10
2353.5451473283
 20
1750.9976890244
 30
0.0
 11
2353.5451473283
 21
1412.0335835134
 31
0.0
  0
LINE
  5
327
330
1F
100
AcDbEntity
  8
0
  6
Continuous
 62
     7
370
    15
100
AcDbLine
 10
2681.6698216601
 20
1788.9345770624
 30
0.0
 11
2681.4224828796
 21
1789.6760067564
 31
0.0
  0
SPLINE
  5
328
330
1F
100
AcDbEntity
  8
0
  6
Continuous
 62
     7
370
    15
100
AcDbSpline
210
0.0
220
0.0
230
1.0
 70
     8
 71
     3
 72
     9
 73
     5
 74
     0
 42
0.00000001
 43
0.00000001
 12
1.0
 22
0.0
 32
0.0
 13
1.0
 23
0.0
 33
0.0
 40
0.0
 40
0.0
 40
0.0
 40
0.0
 40
0.6612966265661242
 40
1.0
 40
1.0
 40
1.0
 40
1.0
 10
2681.729417303892
 20
1788.089600047293
 30
0.0
 10
2681.738628920608
 20
1788.277939075886
 30
0.0
 10
2681.752558549681
 20
1788.562741721217
 30
0.0
 10
2681.690754798958
 20
1788.840499549076
 30
0.0
 10
2681.669821660098
 20
1788.93457706237
 30
0.0
  0
LINE
  5
329
330
1F
100
AcDbEntity
  8
0
  6
Continuous
 62
     7
370
    15
100
AcDbLine
 10
2681.7712111725
 20
1444.2740906587
 30
0.0
 11
2681.7712111725
 21
1788.0377755775
 31
0.0
  0
SPLINE
  5
32A
330
1F
100
AcDbEntity
  8
0
  6
Continuous
 62
     7
370
    15
100
AcDbSpline
210
0.0
220
0.0
230
1.0
 70
     8
 71
     3
 72
    13
 73
     9
 74
     0
 42
0.00000001
 43
0.00000001
 12
1.0
 22
0.0
 32
0.0
 13
1.0
 23
0.0
 33
0.0
 40
0.0
 40
0.0
 40
0.0
 40
0.0
 40
0.1116028626378237
 40
0.2977240406168309
 40
0.4848615664871729
 40
0.6734250752220083
 40
0.8662345987436703
 40
1.0
 40
1.0
 40
1.0
 40
1.0
 10
2529.17961034678
 20
1327.864945706276
 30
0.0
 10
2529.385046501997
 20
1327.757687956588
 30
0.0
 10
2529.933090528598
 20
1327.471555415992
 30
0.0
 10
2530.950049113893
 20
1327.183297513661
 30
0.0
 10
2532.201242896067
 20
1327.052498525364
 30
0.0
 10
2533.473696006258
 20
1327.149993807384
 30
0.0
 10
2534.569653981762
 20
1327.428318400111
 30
0.0
 10
2535.174386449994
 20
1327.738070819359
 30
0.0
 10
2535.422085446849
 20
1327.864945706276
 30
0.0
  0
LINE
  5
32B
330
1F
100
AcDbEntity
  8
0
  6
Continuous
 62
     7
370
    15
100
AcDbLine
 10
2535.4220854468
 20
1327.8649457063
 30
0.0
 11
2599.174659739
 21
1364.668523459
 31
0.0
  0
SPLINE
  5
32C
330
1F
100
AcDbEntity
  8
0
  6
Continuous
 62
     7
370
    15
100
AcDbSpline
210
0.0
220
0.0
230
1.0
 70
     8
 71
     3
 72
    13
 73
     9
 74
     0
 42
0.00000001
 43
0.00000001
 12
1.0
 22
0.0
 32
0.0
 13
1.0
 23
0.0
 33
0.0
 40
0.0
 40
0.0
 40
0.0
 40
0.0
 40
0.1038980367660513
 40
0.3010932738745025
 40
0.4983309914637067
 40
0.6955577597731816
 40
0.8927405588388081
 40
1.0
 40
1.0
 40
1.0
 40
1.0
 10
2599.174659738993
 20
1364.668523458951
 30
0.0
 10
2599.939216158198
 20
1365.117200511196
 30
0.0
 10
2602.154876843286
 20
1366.417452631237
 30
0.0
 10
2605.648464103875
 20
1368.669865835255
 30
0.0
 10
2609.569328597421
 20
1371.460839091564
 30
0.0
 10
2613.233861428794
 20
1374.372265734196
 30
0.0
 10
2616.13407531648
 20
1376.929896424319
 30
0.0
 10
2617.766241422046
 20
1378.5305129986
 30
0.0
 10
2618.341277344245
 20
1379.094433560814
 30
0.0
  0
LINE
  5
32D
330
1F
100
AcDbEntity
  8
0
  6
Continuous
 62
     7
370
    15
100
AcDbLine
 10
2618.3412773442
 20
1379.0944335608
 30
0.0
 11
2680.3815031366
 21
1441.1279392583
 31
0.0
  0
SPLINE
  5
32E
330
1F
100
AcDbEntity
  8
0
  6
Continuous
 62
     7
370
    15
100
AcDbSpline
210
0.0
220
0.0
230
1.0
 70
     8
 71
     3
 72
    11
 73
     7
 74
     0
 42
0.00000001
 43
0.00000001
 12
1.0
 22
0.0
 32
0.0
 13
1.0
 23
0.0
 33
0.0
 40
0.0
 40
0.0
 40
0.0
 40
0.0
 40
0.2204920959725721
 40
0.5394627216418298
 40
0.8465211263795293
 40
1.0
 40
1.0
 40
1.0
 40
1.0
 10
2680.381503136597
 20
1441.127939258348
 30
0.0
 10
2680.560550661942
 20
1441.321950175104
 30
0.0
 10
2680.998613826518
 20
1441.79662323184
 30
0.0
 10
2681.478403461591
 20
1442.670555888652
 30
0.0
 10
2681.766096536996
 20
1443.556240530773
 30
0.0
 10
2681.738957048333
 20
1444.095398947563
 30
0.0
 10
2681.729912529362
 20
1444.275079139375
 30
0.0
  0
SPLINE
  5
32F
330
1F
100
AcDbEntity
  8
0
  6
Continuous
 62
     7
370
    15
100
AcDbSpline
210
0.0
220
0.0
230
1.0
 70
     8
 71
     3
 72
    20
 73
    16
 74
     0
 42
0.00000001
 43
0.00000001
 12
1.0
 22
0.0
 32
0.0
 13
1.0
 23
0.0
 33
0.0
 40
0.0
 40
0.0
 40
0.0
 40
0.0
 40
0.043522096950973
 40
0.1254831135942905
 40
0.2072939525946176
 40
0.288954553539133
 40
0.3704964515918032
 40
0.4519670021062674
 40
0.5334220682879816
 40
0.6149127178541705
 40
0.6964860186987135
 40
0.7782024153192246
 40
0.8601201903364605
 40
0.9422880112227792
 40
1.0
 40
1.0
 40
1.0
 40
1.0
 10
2495.89004322264
 20
1668.859343460292
 30
0.0
 10
2496.278692119516
 20
1668.683132650506
 30
0.0
 10
2497.399246437704
 20
1668.175080819137
 30
0.0
 10
2499.389614113549
 20
1667.460643746688
 30
0.0
 10
2501.882698980115
 20
1666.779290123493
 30
0.0
 10
2504.487930077868
 20
1666.280372539164
 30
0.0
 10
2507.16764645898
 20
1665.965990036096
 30
0.0
 10
2509.888126359018
 20
1665.839748455223
 30
0.0
 10
2512.614126771477
 20
1665.902704698771
 30
0.0
 10
2515.310765627026
 20
1666.154092129612
 30
0.0
 10
2517.943139812194
 20
1666.591749962489
 30
0.0
 10
2520.478823225445
 20
1667.210794220196
 30
0.0
 10
2522.881018301583
 20
1668.008890688734
 30
0.0
 10
2524.909203292423
 20
1668.871891194403
 30
0.0
 10
2526.069273155549
 20
1669.508977936983
 30
0.0
 10
2526.547897905487
 20
1669.771828901867
 30
0.0
  0
SPLINE
  5
330
330
1F
100
AcDbEntity
  8
0
  6
Continuous
 62
     7
370
    15
100
AcDbSpline
210
0.0
220
0.0
230
1.0
 70
     8
 71
     3
 72
    19
 73
    15
 74
     0
 42
0.00000001
 43
0.00000001
 12
1.0
 22
0.0
 32
0.0
 13
1.0
 23
0.0
 33
0.0
 40
0.0
 40
0.0
 40
0.0
 40
0.0
 40
0.0464824301692669
 40
0.1347798402179088
 40
0.22307800150505
 40
0.3113763280598854
 40
0.399674616693622
 40
0.4879727260432675
 40
0.5762705562306928
 40
0.664568005470502
 40
0.7528649898236756
 40
0.8411614396559105
 40
0.9294572552920888
 40
1.0
 40
1.0
 40
1.0
 40
1.0
 10
2353.240588932653
 20
1751.210879240338
 30
0.0
 10
2355.228780254754
 20
1749.813953559598
 30
0.0
 10
2360.993713536848
 20
1745.763446317166
 30
0.0
 10
2370.721203890451
 20
1739.148742659703
 30
0.0
 10
2382.498643735043
 20
1731.408077243455
 30
0.0
 10
2394.514699156917
 20
1723.791143536399
 30
0.0
 10
2406.761390152332
 20
1716.298351682888
 30
0.0
 10
2419.235956158191
 20
1708.932578621579
 30
0.0
 10
2431.934110982079
 20
1701.695948783294
 30
0.0
 10
2444.852238133386
 20
1694.590959111292
 30
0.0
 10
2457.985076662618
 20
1687.618995216128
 30
0.0
 10
2471.332848092125
 20
1680.785323170603
 30
0.0
 10
2483.967540878763
 20
1674.529844725148
 30
0.0
 10
2492.223458280449
 20
1670.603220203002
 30
0.0
 10
2495.89004322264
 20
1668.859343460292
 30
0.0
  0
LINE
  5
331
330
1F
100
AcDbEntity
  8
0
  6
Continuous
 62
     7
370
    15
100
AcDbLine
 10
2526.5478979055
 20
1669.7718289019
 30
0.0
 11
2599.174659739
 21
1711.6983660769
 31
0.0
  0
SPLINE
  5
332
330
1F
100
AcDbEntity
  8
0
  6
Continuous
 62
     7
370
    15
100
AcDbSpline
210
0.0
220
0.0
230
1.0
 70
     8
 71
     3
 72
    13
 73
     9
 74
     0
 42
0.00000001
 43
0.00000001
 12
1.0
 22
0.0
 32
0.0
 13
1.0
 23
0.0
 33
0.0
 40
0.0
 40
0.0
 40
0.0
 40
0.0
 40
0.1038980368166135
 40
0.3010932740210303
 40
0.4983309953601373
 40
0.6955577596250241
 40
0.8927405587866101
 40
1.0
 40
1.0
 40
1.0
 40
1.0
 10
2599.174659738993
 20
1711.698366076913
 30
0.0
 10
2599.939216157165
 20
1712.147043302636
 30
0.0
 10
2602.154876839255
 20
1713.447295925409
 30
0.0
 10
2605.648464163612
 20
1715.69970274416
 30
0.0
 10
2609.569328492374
 20
1718.490702756689
 30
0.0
 10
2613.233861489325
 20
1721.402102655587
 30
0.0
 10
2616.134075311994
 20
1723.959739743204
 30
0.0
 10
2617.766241420877
 20
1725.560355799171
 30
0.0
 10
2618.341277344245
 20
1726.124276178777
 30
0.0
  0
LINE
  5
333
330
1F
100
AcDbEntity
  8
0
  6
Continuous
 62
     7
370
    15
100
AcDbLine
 10
2618.3412773442
 20
1726.1242761788
 30
0.0
 11
2680.3815031366
 21
1788.1577818763
 31
0.0
  0
SPLINE
  5
334
330
1F
100
AcDbEntity
  8
0
  6
Continuous
 62
     7
370
    15
100
AcDbSpline
210
0.0
220
0.0
230
1.0
 70
     8
 71
     3
 72
    15
 73
    11
 74
     0
 42
0.00000001
 43
0.00000001
 12
1.0
 22
0.0
 32
0.0
 13
1.0
 23
0.0
 33
0.0
 40
0.0
 40
0.0
 40
0.0
 40
0.0
 40
0.0832830690570516
 40
0.2366009356157926
 40
0.3895005044233057
 40
0.5238687127962053
 40
0.6538854290788014
 40
0.7937497233224674
 40
0.9288200166437695
 40
1.0
 40
1.0
 40
1.0
 40
1.0
 10
2355.463877338451
 20
1776.661244234593
 30
0.0
 10
2355.083697391001
 20
1776.432523852782
 30
0.0
 10
2354.00363475297
 20
1775.782746449719
 30
0.0
 10
2352.396727048311
 20
1774.563078965863
 30
0.0
 10
2350.810115073313
 20
1773.009855182322
 30
0.0
 10
2349.556218461861
 20
1771.375432438098
 30
0.0
 10
2348.584392414609
 20
1769.656802518782
 30
0.0
 10
2347.913876390503
 20
1767.814124827165
 30
0.0
 10
2347.566729036361
 20
1766.167192593867
 30
0.0
 10
2347.580573287826
 20
1765.17272350938
 30
0.0
 10
2347.585351141242
 20
1764.82951770126
 30
0.0
  0
LINE
  5
335
330
1F
100
AcDbEntity
  8
0
  6
Continuous
 62
     7
370
    15
100
AcDbLine
 10
2347.5451483161
 20
1764.7792203566
 30
0.0
 11
2347.5451483161
 21
1760.6965080234
 31
0.0
  0
SPLINE
  5
336
330
1F
100
AcDbEntity
  8
0
  6
Continuous
 62
     7
370
    15
100
AcDbSpline
210
0.0
220
0.0
230
1.0
 70
     8
 71
     3
 72
    14
 73
    10
 74
     0
 42
0.00000001
 43
0.00000001
 12
1.0
 22
0.0
 32
0.0
 13
1.0
 23
0.0
 33
0.0
 40
0.0
 40
0.0
 40
0.0
 40
0.0
 40
0.1294995420195072
 40
0.2855859473359291
 40
0.4424699561848105
 40
0.6018279669429002
 40
0.7644195707953848
 40
0.9299827733979279
 40
1.0
 40
1.0
 40
1.0
 40
1.0
 10
2347.569187824838
 20
1760.841416934613
 30
0.0
 10
2347.57349086924
 20
1760.370892257209
 30
0.0
 10
2347.58298039324
 20
1759.333241979489
 30
0.0
 10
2347.976698727015
 20
1757.751451240434
 30
0.0
 10
2348.662914558048
 20
1756.127851079712
 30
0.0
 10
2349.651408985869
 20
1754.572185228557
 30
0.0
 10
2350.927798989903
 20
1753.099696886367
 30
0.0
 10
2352.169096877139
 20
1751.991795667012
 30
0.0
 10
2352.995093260066
 20
1751.38979946883
 30
0.0
 10
2353.240588932653
 20
1751.210879240338
 30
0.0
  0
LINE
  5
337
330
1F
100
AcDbEntity
  8
0
  6
Continuous
 62
     7
370
    15
100
AcDbLine
 10
2428.090639172
 20
1818.5877814096
 30
0.0
 11
2355.4638773385
 21
1776.6612442346
 31
0.0
  0
SPLINE
  5
338
330
1F
100
AcDbEntity
  8
0
  6
Continuous
 62
     7
370
    15
100
AcDbSpline
210
0.0
220
0.0
230
1.0
 70
     8
 71
     3
 72
    13
 73
     9
 74
     0
 42
0.00000001
 43
0.00000001
 12
1.0
 22
0.0
 32
0.0
 13
1.0
 23
0.0
 33
0.0
 40
0.0
 40
0.0
 40
0.0
 40
0.0
 40
0.0800262730700237
 40
0.2778706107089979
 40
0.4677810174947521
 40
0.6544352698272807
 40
0.8426312129987716
 40
1.0
 40
1.0
 40
1.0
 40
1.0
 10
2681.731097909477
 20
1795.3916278237
 30
0.0
 10
2681.741365997018
 20
1795.573937049182
 30
0.0
 10
2681.777019284952
 20
1796.206958854136
 30
0.0
 10
2681.511223636586
 20
1797.258178527071
 30
0.0
 10
2680.988591408793
 20
1798.456583365748
 30
0.0
 10
2680.230076188725
 20
1799.496610948662
 30
0.0
 10
2679.355970506396
 20
1800.332650711987
 30
0.0
 10
2678.693854775826
 20
1800.750991989383
 30
0.0
 10
2678.392329937565
 20
1800.941502923018
 30
0.0
  0
LINE
  5
339
330
1F
100
AcDbEntity
  8
0
  6
Continuous
 62
     7
370
    15
100
AcDbLine
 10
2681.7712111725
 20
1791.3039332767
 30
0.0
 11
2681.7712111725
 21
1795.38664561
 31
0.0
  0
LINE
  5
33A
330
1F
100
AcDbEntity
  8
0
  6
Continuous
 62
     7
370
    15
100
AcDbLine
 10
2678.3923299376
 20
1800.941502923
 30
0.0
 11
2567.9856573003
 21
1864.6779183687
 31
0.0
  0
SPLINE
  5
33B
330
1F
100
AcDbEntity
  8
0
  6
Continuous
 62
     7
370
    15
100
AcDbSpline
210
0.0
220
0.0
230
1.0
 70
     8
 71
     3
 72
    11
 73
     7
 74
     0
 42
0.00000001
 43
0.00000001
 12
1.0
 22
0.0
 32
0.0
 13
1.0
 23
0.0
 33
0.0
 40
0.0
 40
0.0
 40
0.0
 40
0.0
 40
0.2233465968831776
 40
0.5464447589340281
 40
0.8574774071226992
 40
1.0
 40
1.0
 40
1.0
 40
1.0
 10
2680.381503136597
 20
1788.15778187631
 30
0.0
 10
2680.5605875528
 20
1788.35179518196
 30
0.0
 10
2680.998739474552
 20
1788.82647245717
 30
0.0
 10
2681.477630312937
 20
1789.700457940516
 30
0.0
 10
2681.763502262618
 20
1790.571392516506
 30
0.0
 10
2681.73827657732
 20
1791.095502785575
 30
0.0
 10
2681.730349802915
 20
1791.260196185051
 30
0.0
  0
LINE
  5
33C
330
1F
100
AcDbEntity
  8
0
  6
Continuous
 62
     7
370
    15
100
AcDbLine
 10
2560.2835525426
 20
1865.3663621837
 30
0.0
 11
2452.8267282838
 21
1829.5513036519
 31
0.0
  0
SPLINE
  5
33D
330
1F
100
AcDbEntity
  8
0
  6
Continuous
 62
     7
370
    15
100
AcDbSpline
210
0.0
220
0.0
230
1.0
 70
     8
 71
     3
 72
    13
 73
     9
 74
     0
 42
0.00000001
 43
0.00000001
 12
1.0
 22
0.0
 32
0.0
 13
1.0
 23
0.0
 33
0.0
 40
0.0
 40
0.0
 40
0.0
 40
0.0
 40
0.1051835426147859
 40
0.3044823942519406
 40
0.5039105342899721
 40
0.7034640499873165
 40
0.9031369527469042
 40
1.0
 40
1.0
 40
1.0
 40
1.0
 10
2452.826728283761
 20
1829.551303651891
 30
0.0
 10
2451.88539470574
 20
1829.231507524706
 30
0.0
 10
2449.160448440377
 20
1828.305770588514
 30
0.0
 10
2444.774147230837
 20
1826.648969313977
 30
0.0
 10
2439.734443808598
 20
1824.533019694157
 30
0.0
 10
2434.886228753308
 20
1822.258579475675
 30
0.0
 10
2431.02683187567
 20
1820.256987600147
 30
0.0
 10
2428.813591122981
 20
1818.998774826578
 30
0.0
 10
2428.090639171958
 20
1818.58778140964
 30
0.0
  0
SPLINE
  5
33E
330
1F
100
AcDbEntity
  8
0
  6
Continuous
 62
     7
370
    15
100
AcDbSpline
210
0.0
220
0.0
230
1.0
 70
     8
 71
     3
 72
    13
 73
     9
 74
     0
 42
0.00000001
 43
0.00000001
 12
1.0
 22
0.0
 32
0.0
 13
1.0
 23
0.0
 33
0.0
 40
0.0
 40
0.0
 40
0.0
 40
0.0
 40
0.1410818103473837
 40
0.3296963701759145
 40
0.5244525388452004
 40
0.7237006042548583
 40
0.929460108839252
 40
1.0
 40
1.0
 40
1.0
 40
1.0
 10
2567.985657300322
 20
1864.67791836875
 30
0.0
 10
2567.660369856551
 20
1864.848210711631
 30
0.0
 10
2566.900200354823
 20
1865.24616964892
 30
0.0
 10
2565.570478905601
 20
1865.649292240997
 30
0.0
 10
2564.026974104813
 20
1865.875800150191
 30
0.0
 10
2562.41139192772
 20
1865.852273092227
 30
0.0
 10
2561.154925436153
 20
1865.638346762339
 30
0.0
 10
2560.460771650696
 20
1865.421678185349
 30
0.0
 10
2560.283552542623
 20
1865.366362183671
 30
0.0
  0
SPLINE
  5
33F
330
1F
100
AcDbEntity
  8
0
  6
Continuous
 62
     7
370
    15
100
AcDbSpline
210
0.0
220
0.0
230
1.0
 70
     8
 71
     3
 72
    19
 73
    15
 74
     0
 42
0.00000001
 43
0.00000001
 12
1.0
 22
0.0
 32
0.0
 13
1.0
 23
0.0
 33
0.0
 40
0.0
 40
0.0
 40
0.0
 40
0.0
 40
0.0473258703852334
 40
0.1341441228435309
 40
0.2205902890738773
 40
0.3067090318610003
 40
0.3925608357612317
 40
0.478276751317659
 40
0.5640177593590595
 40
0.6499211164895691
 40
0.7361481908546014
 40
0.8228787281879495
 40
0.9102684085596724
 40
1.0
 40
1.0
 40
1.0
 40
1.0
 10
2496.508363832074
 20
1313.108450510312
 30
0.0
 10
2496.921631478641
 20
1312.921635363197
 30
0.0
 10
2498.09302939477
 20
1312.392112000187
 30
0.0
 10
2500.151199146309
 20
1311.667852484006
 30
0.0
 10
2502.696567083237
 20
1310.99879940758
 30
0.0
 10
2505.337190335429
 20
1310.530121259921
 30
0.0
 10
2508.036941038003
 20
1310.260212822348
 30
0.0
 10
2510.764016030366
 20
1310.190756497149
 30
0.0
 10
2513.486006932178
 20
1310.321685685744
 30
0.0
 10
2516.170757325647
 20
1310.652939726119
 30
0.0
 10
2518.788414786606
 20
1311.182611031597
 30
0.0
 10
2521.303893085095
 20
1311.914748257482
 30
0.0
 10
2523.720589701577
 20
1312.837825900711
 30
0.0
 10
2525.184715923556
 20
1313.622204813033
 30
0.0
 10
2525.926458429262
 20
1314.019579828325
 30
0.0
  0
SPLINE
  5
340
330
1F
100
AcDbEntity
  8
0
  6
Continuous
 62
     7
370
    15
100
AcDbSpline
210
0.0
220
0.0
230
1.0
 70
     8
 71
     3
 72
    19
 73
    15
 74
     0
 42
0.00000001
 43
0.00000001
 12
1.0
 22
0.0
 32
0.0
 13
1.0
 23
0.0
 33
0.0
 40
0.0
 40
0.0
 40
0.0
 40
0.0
 40
0.0465569642061846
 40
0.1349615408976606
 40
0.2233666914128533
 40
0.3117722431603378
 40
0.4001777577661051
 40
0.4885828595992149
 40
0.5769872733535546
 40
0.6653907483384478
 40
0.7537930621332929
 40
0.8421940387678737
 40
0.9305935224065458
 40
0.9999999999999999
 40
0.9999999999999999
 40
0.9999999999999999
 40
0.9999999999999999
 10
2353.832573030125
 20
1395.4778341419
 30
0.0
 10
2355.825147136393
 20
1394.077838679521
 30
0.0
 10
2361.601315671433
 20
1390.019465285251
 30
0.0
 10
2371.346728531922
 20
1383.392920660614
 30
0.0
 10
2383.144266277588
 20
1375.639728418259
 30
0.0
 10
2395.180177832483
 20
1368.011208041756
 30
0.0
 10
2407.446434558313
 20
1360.507725957861
 30
0.0
 10
2419.940288587428
 20
1353.13215862092
 30
0.0
 10
2432.657372999111
 20
1345.886573295624
 30
0.0
 10
2445.594106056728
 20
1338.773491189243
 30
0.0
 10
2458.745170109285
 20
1331.79425764886
 30
0.0
 10
2472.110752659057
 20
1324.954114823491
 30
0.0
 10
2484.699497690204
 20
1318.724202398979
 30
0.0
 10
2492.90111500575
 20
1314.823891617524
 30
0.0
 10
2496.508363832074
 20
1313.108450510312
 30
0.0
  0
LINE
  5
341
330
1F
100
AcDbEntity
  8
0
  6
Continuous
 62
     7
370
    15
100
AcDbLine
 10
2525.9264584293
 20
1314.0195798283
 30
0.0
 11
2598.5532202628
 21
1355.9461170034
 31
0.0
  0
SPLINE
  5
342
330
1F
100
AcDbEntity
  8
0
  6
Continuous
 62
     7
370
    15
100
AcDbSpline
210
0.0
220
0.0
230
1.0
 70
     8
 71
     3
 72
    13
 73
     9
 74
     0
 42
0.00000001
 43
0.00000001
 12
1.0
 22
0.0
 32
0.0
 13
1.0
 23
0.0
 33
0.0
 40
0.0
 40
0.0
 40
0.0
 40
0.0
 40
0.1051048228865244
 40
0.3040975138464384
 40
0.5031665597831766
 40
0.702193279404851
 40
0.9010907565167113
 40
1.0
 40
1.0
 40
1.0
 40
1.0
 10
2598.553220262768
 20
1355.946117003371
 30
0.0
 10
2599.329069545685
 20
1356.401512774763
 30
0.0
 10
2601.573817517998
 20
1357.71909952381
 30
0.0
 10
2605.115668738858
 20
1360.005481784172
 30
0.0
 10
2609.093239848472
 20
1362.843182603899
 30
0.0
 10
2612.815720568285
 20
1365.810343135395
 30
0.0
 10
2615.710910447116
 20
1368.375182582575
 30
0.0
 10
2617.327495830426
 20
1369.96278414741
 30
0.0
 10
2617.864405262726
 20
1370.490067310855
 30
0.0
  0
LINE
  5
343
330
1F
100
AcDbEntity
  8
0
  6
Continuous
 62
     7
370
    15
100
AcDbLine
 10
2617.8644052627
 20
1370.4900673109
 30
0.0
 11
2679.9046326191
 21
1432.5235739113
 31
0.0
  0
SPLINE
  5
344
330
1F
100
AcDbEntity
  8
0
  6
Continuous
 62
     7
370
    15
100
AcDbSpline
210
0.0
220
0.0
230
1.0
 70
     8
 71
     3
 72
    14
 73
    10
 74
     0
 42
0.00000001
 43
0.00000001
 12
1.0
 22
0.0
 32
0.0
 13
1.0
 23
0.0
 33
0.0
 40
0.0
 40
0.0
 40
0.0
 40
0.0
 40
0.1309649952483455
 40
0.3039808241017255
 40
0.4750767087871552
 40
0.6424631079880372
 40
0.8049703062391899
 40
0.9628001610938816
 40
1.0
 40
1.0
 40
1.0
 40
1.0
 10
2353.545152596705
 20
1419.566123636879
 30
0.0
 10
2353.075551130546
 20
1419.232092783049
 30
0.0
 10
2351.9855664334
 20
1418.456778936549
 30
0.0
 10
2350.573682083877
 20
1417.059521450314
 30
0.0
 10
2349.30426999888
 20
1415.42718961259
 30
0.0
 10
2348.359012560084
 20
1413.692316796364
 30
0.0
 10
2347.780285288738
 20
1411.902847599736
 30
0.0
 10
2347.526223828073
 20
1410.543371830428
 30
0.0
 10
2347.566800841113
 20
1409.799852325747
 30
0.0
 10
2347.574540474599
 20
1409.658033891516
 30
0.0
  0
LINE
  5
345
330
1F
100
AcDbEntity
  8
0
  6
Continuous
 62
     7
370
    15
100
AcDbLine
 10
2347.5451483161
 20
1409.5839652395
 30
0.0
 11
2347.5451483161
 21
1406.3177953729
 31
0.0
  0
SPLINE
  5
346
330
1F
100
AcDbEntity
  8
0
  6
Continuous
 62
     7
370
    15
100
AcDbSpline
210
0.0
220
0.0
230
1.0
 70
     8
 71
     3
 72
    15
 73
    11
 74
     0
 42
0.00000001
 43
0.00000001
 12
1.0
 22
0.0
 32
0.0
 13
1.0
 23
0.0
 33
0.0
 40
0.0
 40
0.0
 40
0.0
 40
0.0
 40
0.06827561413141
 40
0.2147233594016548
 40
0.3608040054362288
 40
0.5087122510243435
 40
0.6603606504335422
 40
0.8170099227843862
 40
0.9771594463148443
 40
1.0
 40
1.0
 40
1.0
 40
1.0
 10
2347.58539328809
 20
1406.371195052206
 30
0.0
 10
2347.57521560057
 20
1406.079989192644
 30
0.0
 10
2347.543207287164
 20
1405.164161466477
 30
0.0
 10
2347.828320363294
 20
1403.637664167877
 30
0.0
 10
2348.408928505203
 20
1401.844199022471
 30
0.0
 10
2349.291440181989
 20
1400.135543362903
 30
0.0
 10
2350.446012828722
 20
1398.519036181402
 30
0.0
 10
2351.872056506905
 20
1397.010918729827
 30
0.0
 10
2353.060506183153
 20
1396.029330923563
 30
0.0
 10
2353.746898540426
 20
1395.539032476636
 30
0.0
 10
2353.832573030125
 20
1395.4778341419
 30
0.0
  0
SPLINE
  5
347
330
1F
100
AcDbEntity
  8
0
  6
Continuous
 62
     7
370
    15
100
AcDbSpline
210
0.0
220
0.0
230
1.0
 70
     8
 71
     3
 72
    10
 73
     6
 74
     0
 42
0.00000001
 43
0.00000001
 12
1.0
 22
0.0
 32
0.0
 13
1.0
 23
0.0
 33
0.0
 40
0.0
 40
0.0
 40
0.0
 40
0.0
 40
0.2457563089770849
 40
0.7881387529086191
 40
0.9999999999999999
 40
0.9999999999999999
 40
0.9999999999999999
 40
0.9999999999999999
 10
2681.729854577445
 20
1440.201494605275
 30
0.0
 10
2681.738447766892
 20
1440.38204274439
 30
0.0
 10
2681.766006064959
 20
1440.96105935558
 30
0.0
 10
2681.57737995467
 20
1441.696372911673
 30
0.0
 10
2681.308233552997
 20
1442.177919020258
 30
0.0
 10
2681.232632400494
 20
1442.313181615506
 30
0.0
  0
LINE
  5
348
330
1F
100
AcDbEntity
  8
0
  6
Continuous
 62
     7
370
    15
100
AcDbLine
 10
2681.7712111725
 20
1436.9252206263
 30
0.0
 11
2681.7712111725
 21
1440.1913904929
 31
0.0
  0
SPLINE
  5
349
330
1F
100
AcDbEntity
  8
0
  6
Continuous
 62
     7
370
    15
100
AcDbSpline
210
0.0
220
0.0
230
1.0
 70
     8
 71
     3
 72
    11
 73
     7
 74
     0
 42
0.00000001
 43
0.00000001
 12
1.0
 22
0.0
 32
0.0
 13
1.0
 23
0.0
 33
0.0
 40
0.0
 40
0.0
 40
0.0
 40
0.0
 40
0.2896695331709427
 40
0.558396205573268
 40
0.8251989569016376
 40
1.0
 40
1.0
 40
1.0
 40
1.0
 10
2679.904632619121
 20
1432.523573911292
 30
0.0
 10
2680.218130364276
 20
1432.875796103619
 30
0.0
 10
2680.822460234366
 20
1433.554775123473
 30
0.0
 10
2681.411892572803
 20
1434.771705077829
 30
0.0
 10
2681.742863672577
 20
1435.897777305754
 30
0.0
 10
2681.733989089887
 20
1436.62103931202
 30
0.0
 10
2681.730476243461
 20
1436.907329771306
 30
0.0
  0
LINE
  5
34A
330
1F
100
AcDbEntity
  8
0
  6
Continuous
 62
     7
370
    15
100
AcDbLine
 10
2434.5854336246
 20
1369.2950525194
 30
0.0
 11
2434.5854336246
 21
1364.5321943437
 31
0.0
  0
LINE
  5
34B
330
1F
100
AcDbEntity
  8
0
  6
Continuous
 62
     7
370
    15
100
AcDbLine
 10
2434.5854336246
 20
1364.5321943437
 30
0.0
 11
2436.7211942213
 21
1361.0605921188
 31
0.0
  0
ARC
  5
34C
330
1F
100
AcDbEntity
  8
0
  6
Continuous
 62
     7
370
    15
100
AcDbCircle
 10
2578.9458660339
 20
1639.6463126522
 30
0.0
 40
312.7904425607262
100
AcDbArc
 50
242.954601594
 51
243.1085155121
  0
SPLINE
  5
34D
330
1F
100
AcDbEntity
  8
0
  6
Continuous
 62
     7
370
    15
100
AcDbSpline
210
0.0
220
0.0
230
1.0
 70
     8
 71
     3
 72
    12
 73
     8
 74
     0
 42
0.00000001
 43
0.00000001
 12
1.0
 22
0.0
 32
0.0
 13
1.0
 23
0.0
 33
0.0
 40
0.0
 40
0.0
 40
0.0
 40
0.0
 40
0.2327226807028138
 40
0.3431219138938026
 40
0.4553335318134535
 40
0.7016328200507386
 40
1.0
 40
1.0
 40
1.0
 40
1.0
 10
2437.470072596556
 20
1360.679538952181
 30
0.0
 10
2437.531686400942
 20
1360.654574592287
 30
0.0
 10
2437.622528627488
 20
1360.617767612753
 30
0.0
 10
2437.729238378731
 20
1360.625707802731
 30
0.0
 10
2437.824621580338
 20
1360.662735659847
 30
0.0
 10
2437.922558309575
 20
1360.773047171958
 30
0.0
 10
2437.96081177649
 20
1360.903830992804
 30
0.0
 10
2437.981766947615
 20
1360.975474103016
 30
0.0
  0
LINE
  5
34E
330
1F
100
AcDbEntity
  8
0
  6
Continuous
 62
     7
370
    15
100
AcDbLine
 10
2437.9817669476
 20
1360.975474103
 30
0.0
 11
2437.9817669476
 21
1367.5581260611
 31
0.0
  0
ARC
  5
34F
330
1F
100
AcDbEntity
  8
0
  6
Continuous
 62
     7
370
    15
100
AcDbCircle
 10
2580.0668852139
 20
1649.0280315565
 30
0.0
 40
315.2990461963175
100
AcDbArc
 50
243.2155001074
 51
243.7583031674
  0
SPLINE
  5
350
330
1F
100
AcDbEntity
  8
0
  6
Continuous
 62
     7
370
    15
100
AcDbSpline
210
0.0
220
0.0
230
1.0
 70
     8
 71
     3
 72
    12
 73
     8
 74
     0
 42
0.00000001
 43
0.00000001
 12
1.0
 22
0.0
 32
0.0
 13
1.0
 23
0.0
 33
0.0
 40
0.0
 40
0.0
 40
0.0
 40
0.0
 40
0.3017152879166478
 40
0.4121241011532514
 40
0.4987022543095777
 40
0.6962974779830058
 40
0.9999999999999999
 40
0.9999999999999999
 40
0.9999999999999999
 40
0.9999999999999999
 10
2440.654664762437
 20
1366.224705336468
 30
0.0
 10
2440.72512813926
 20
1366.208603443511
 30
0.0
 10
2440.82137667886
 20
1366.186609270768
 30
0.0
 10
2440.929929101122
 20
1366.188034314
 30
0.0
 10
2441.007017519235
 20
1366.211373771633
 30
0.0
 10
2441.071162265973
 20
1366.320574995669
 30
0.0
 10
2441.102255875537
 20
1366.429171295179
 30
0.0
 10
2441.121093398195
 20
1366.494962474825
 30
0.0
  0
LINE
  5
351
330
1F
100
AcDbEntity
  8
0
  6
Continuous
 62
     7
370
    15
100
AcDbLine
 10
2441.1210933982
 20
1366.4949624748
 30
0.0
 11
2441.1210933982
 21
1367.9068561297
 31
0.0
  0
SPLINE
  5
352
330
1F
100
AcDbEntity
  8
0
  6
Continuous
 62
     7
370
    15
100
AcDbSpline
210
0.0
220
0.0
230
1.0
 70
     8
 71
     3
 72
    12
 73
     8
 74
     0
 42
0.00000001
 43
0.00000001
 12
1.0
 22
0.0
 32
0.0
 13
1.0
 23
0.0
 33
0.0
 40
0.0
 40
0.0
 40
0.0
 40
0.0
 40
0.3010958708598263
 40
0.4113333351826433
 40
0.4978374056389583
 40
0.6956840528534859
 40
1.0
 40
1.0
 40
1.0
 40
1.0
 10
2441.121093398195
 20
1367.906856129744
 30
0.0
 10
2441.103742106178
 20
1367.990859633855
 30
0.0
 10
2441.08003814506
 20
1368.10561856899
 30
0.0
 10
2441.028926365724
 20
1368.246925828916
 30
0.0
 10
2440.971737417277
 20
1368.357651661351
 30
0.0
 10
2440.84029231596
 20
1368.490998456535
 30
0.0
 10
2440.724709310258
 20
1368.581303756161
 30
0.0
 10
2440.654664762437
 20
1368.636029741523
 30
0.0
  0
ARC
  5
353
330
1F
100
AcDbEntity
  8
0
  6
Continuous
 62
     7
370
    15
100
AcDbCircle
 10
2577.2935311017
 20
1645.9078555761
 30
0.0
 40
309.1113799201187
100
AcDbArc
 50
241.9531313105
 51
243.7660366726
  0
SPLINE
  5
354
330
1F
100
AcDbEntity
  8
0
  6
Continuous
 62
     7
370
    15
100
AcDbSpline
210
0.0
220
0.0
230
1.0
 70
     8
 71
     3
 72
    12
 73
     8
 74
     0
 42
0.00000001
 43
0.00000001
 12
1.0
 22
0.0
 32
0.0
 13
1.0
 23
0.0
 33
0.0
 40
0.0
 40
0.0
 40
0.0
 40
0.0
 40
0.2327246396662473
 40
0.3431164574066385
 40
0.4553368204286256
 40
0.7016219764575649
 40
1.0
 40
1.0
 40
1.0
 40
1.0
 10
2431.95131749588
 20
1373.097507274796
 30
0.0
 10
2431.891083521078
 20
1373.123345698248
 30
0.0
 10
2431.802277848936
 20
1373.161440454062
 30
0.0
 10
2431.698104572474
 20
1373.155166369982
 30
0.0
 10
2431.605030289166
 20
1373.119580372574
 30
0.0
 10
2431.509564788259
 20
1373.010888710411
 30
0.0
 10
2431.472306177622
 20
1372.880730326246
 30
0.0
 10
2431.451895121727
 20
1372.80942680717
 30
0.0
  0
LINE
  5
355
330
1F
100
AcDbEntity
  8
0
  6
Continuous
 62
     7
370
    15
100
AcDbLine
 10
2431.4518951217
 20
1372.8094268072
 30
0.0
 11
2431.4518951217
 21
1371.5039006178
 31
0.0
  0
SPLINE
  5
356
330
1F
100
AcDbEntity
  8
0
  6
Continuous
 62
     7
370
    15
100
AcDbSpline
210
0.0
220
0.0
230
1.0
 70
     8
 71
     3
 72
    12
 73
     8
 74
     0
 42
0.00000001
 43
0.00000001
 12
1.0
 22
0.0
 32
0.0
 13
1.0
 23
0.0
 33
0.0
 40
0.0
 40
0.0
 40
0.0
 40
0.0
 40
0.2325197984905596
 40
0.3428949766480678
 40
0.4551283667660719
 40
0.7015142830498332
 40
0.9999999999999999
 40
0.9999999999999999
 40
0.9999999999999999
 40
0.9999999999999999
 10
2431.451895121727
 20
1371.503900617769
 30
0.0
 10
2431.457621245478
 20
1371.43397027821
 30
0.0
 10
2431.466065511653
 20
1371.330844598996
 30
0.0
 10
2431.521841600387
 20
1371.185305125189
 30
0.0
 10
2431.598606923535
 20
1371.040840219928
 30
0.0
 10
2431.742254663695
 20
1370.857923828561
 30
0.0
 10
2431.877324817286
 20
1370.744450847563
 30
0.0
 10
2431.95131749588
 20
1370.682289299738
 30
0.0
  0
ARC
  5
357
330
1F
100
AcDbEntity
  8
0
  6
Continuous
 62
     7
370
    15
100
AcDbCircle
 10
2574.6649195833
 20
1638.4755813275
 30
0.0
 40
303.4475563846798
100
AcDbArc
 50
241.9457538635
 51
242.5078763376
  0
ARC
  5
358
330
1F
100
AcDbEntity
  8
0
  6
Continuous
 62
     7
370
    15
100
AcDbCircle
 10
2563.4978601464
 20
1618.4881759161
 30
0.0
 40
280.440420711097
100
AcDbArc
 50
239.1852583473
 51
240.0870849415
  0
LINE
  5
359
330
1F
100
AcDbEntity
  8
0
  6
Continuous
 62
     7
370
    15
100
AcDbLine
 10
2423.6469520948
 20
1375.40680459
 30
0.0
 11
2421.6922457571
 21
1378.8937493178
 31
0.0
  0
ARC
  5
35A
330
1F
100
AcDbEntity
  8
0
  6
Continuous
 62
     7
370
    15
100
AcDbCircle
 10
2561.3835231795
 20
1617.2657188378
 30
0.0
 40
276.2876197746776
100
AcDbArc
 50
238.6472622337
 51
239.6287484568
  0
SPLINE
  5
35B
330
1F
100
AcDbEntity
  8
0
  6
Continuous
 62
     7
370
    15
100
AcDbSpline
210
0.0
220
0.0
230
1.0
 70
     8
 71
     3
 72
    12
 73
     8
 74
     0
 42
0.00000001
 43
0.00000001
 12
1.0
 22
0.0
 32
0.0
 13
1.0
 23
0.0
 33
0.0
 40
0.0
 40
0.0
 40
0.0
 40
0.0
 40
0.3017134897743732
 40
0.4121217830575694
 40
0.4986892152280653
 40
0.6962984690383842
 40
0.9999999999999999
 40
0.9999999999999999
 40
0.9999999999999999
 40
0.9999999999999999
 10
2417.629589198389
 20
1381.321540469879
 30
0.0
 10
2417.565886586235
 20
1381.341754108093
 30
0.0
 10
2417.478872796676
 20
1381.36936467542
 30
0.0
 10
2417.380943062844
 20
1381.374385020797
 30
0.0
 10
2417.311381842971
 20
1381.355650936411
 30
0.0
 10
2417.253557038262
 20
1381.250260985486
 30
0.0
 10
2417.225543085556
 20
1381.143540616974
 30
0.0
 10
2417.208571816268
 20
1381.078887830147
 30
0.0
  0
LINE
  5
35C
330
1F
100
AcDbEntity
  8
0
  6
Continuous
 62
     7
370
    15
100
AcDbLine
 10
2417.2085718163
 20
1381.0788878301
 30
0.0
 11
2417.2085718163
 21
1372.5216240124
 31
0.0
  0
SPLINE
  5
35D
330
1F
100
AcDbEntity
  8
0
  6
Continuous
 62
     7
370
    15
100
AcDbSpline
210
0.0
220
0.0
230
1.0
 70
     8
 71
     3
 72
    12
 73
     8
 74
     0
 42
0.00000001
 43
0.00000001
 12
1.0
 22
0.0
 32
0.0
 13
1.0
 23
0.0
 33
0.0
 40
0.0
 40
0.0
 40
0.0
 40
0.0
 40
0.3011080160844754
 40
0.4113450303101041
 40
0.4978355973500861
 40
0.6956876925321723
 40
1.0
 40
1.0
 40
1.0
 40
1.0
 10
2417.208571816268
 20
1372.521624012444
 30
0.0
 10
2417.224204217343
 20
1372.436572099922
 30
0.0
 10
2417.245559711553
 20
1372.320382295382
 30
0.0
 10
2417.291632237089
 20
1372.17601113051
 30
0.0
 10
2417.343219520711
 20
1372.061877801012
 30
0.0
 10
2417.461789815989
 20
1371.920703934996
 30
0.0
 10
2417.566272531449
 20
1371.823649097486
 30
0.0
 10
2417.629589198389
 20
1371.764833734634
 30
0.0
  0
ARC
  5
35E
330
1F
100
AcDbEntity
  8
0
  6
Continuous
 62
     7
370
    15
100
AcDbCircle
 10
2563.0295315628
 20
1610.4600682073
 30
0.0
 40
279.4933956277185
100
AcDbArc
 50
238.6525369699
 51
240.3925070645
  0
SPLINE
  5
35F
330
1F
100
AcDbEntity
  8
0
  6
Continuous
 62
     7
370
    15
100
AcDbSpline
210
0.0
220
0.0
230
1.0
 70
     8
 71
     3
 72
    12
 73
     8
 74
     0
 42
0.00000001
 43
0.00000001
 12
1.0
 22
0.0
 32
0.0
 13
1.0
 23
0.0
 33
0.0
 40
0.0
 40
0.0
 40
0.0
 40
0.0
 40
0.2348512362216101
 40
0.3459027842943394
 40
0.4583928565108491
 40
0.7039280219582394
 40
1.0
 40
1.0
 40
1.0
 40
1.0
 10
2424.944262179238
 20
1367.460034094535
 30
0.0
 10
2425.005793368523
 20
1367.432286335355
 30
0.0
 10
2425.09642014161
 20
1367.391417795284
 30
0.0
 10
2425.20276710753
 20
1367.396418848825
 30
0.0
 10
2425.297333872554
 20
1367.4319640658
 30
0.0
 10
2425.394131420263
 20
1367.54331633093
 30
0.0
 10
2425.431320010195
 20
1367.678430948892
 30
0.0
 10
2425.451649319943
 20
1367.752291961775
 30
0.0
  0
LINE
  5
360
330
1F
100
AcDbEntity
  8
0
  6
Continuous
 62
     7
370
    15
100
AcDbLine
 10
2425.4516493199
 20
1367.7522919618
 30
0.0
 11
2425.4516493199
 21
1369.1098094781
 31
0.0
  0
SPLINE
  5
361
330
1F
100
AcDbEntity
  8
0
  6
Continuous
 62
     7
370
    15
100
AcDbSpline
210
0.0
220
0.0
230
1.0
 70
     8
 71
     3
 72
    11
 73
     7
 74
     0
 42
0.00000001
 43
0.00000001
 12
1.0
 22
0.0
 32
0.0
 13
1.0
 23
0.0
 33
0.0
 40
0.0
 40
0.0
 40
0.0
 40
0.0
 40
0.3026709382178578
 40
0.4992097344264647
 40
0.696459745119577
 40
1.0
 40
1.0
 40
1.0
 40
1.0
 10
2425.451649319943
 20
1369.109809478121
 30
0.0
 10
2425.433922199708
 20
1369.199363277899
 30
0.0
 10
2425.404684007775
 20
1369.347068666688
 30
0.0
 10
2425.326749142902
 20
1369.567458397031
 30
0.0
 10
2425.172227955296
 20
1369.743532243566
 30
0.0
 10
2425.05748365182
 20
1369.842663813235
 30
0.0
 10
2424.987934546102
 20
1369.902749689484
 30
0.0
  0
ARC
  5
362
330
1F
100
AcDbEntity
  8
0
  6
Continuous
 62
     7
370
    15
100
AcDbCircle
 10
2564.1594863546
 20
1614.875737238
 30
0.0
 40
281.7454266909538
100
AcDbArc
 50
239.1868877134
 51
240.3986692325
  0
LINE
  5
363
330
1F
100
AcDbEntity
  8
0
  6
Continuous
 62
     7
370
    15
100
AcDbLine
 10
2419.8383705272
 20
1372.9007364888
 30
0.0
 11
2419.8383705272
 21
1374.1446225981
 31
0.0
  0
ARC
  5
364
330
1F
100
AcDbEntity
  8
0
  6
Continuous
 62
     7
370
    15
100
AcDbCircle
 10
2563.4287604987
 20
1614.8769390464
 30
0.0
 40
280.3038499106004
100
AcDbArc
 50
239.1850535107
 51
240.0745308519
  0
SPLINE
  5
365
330
1F
100
AcDbEntity
  8
0
  6
Continuous
 62
     7
370
    15
100
AcDbSpline
210
0.0
220
0.0
230
1.0
 70
     8
 71
     3
 72
    12
 73
     8
 74
     0
 42
0.00000001
 43
0.00000001
 12
1.0
 22
0.0
 32
0.0
 13
1.0
 23
0.0
 33
0.0
 40
0.0
 40
0.0
 40
0.0
 40
0.0
 40
0.2348672836463955
 40
0.3459224697691849
 40
0.4584110102353633
 40
0.7039476124809335
 40
1.0
 40
1.0
 40
1.0
 40
1.0
 10
2423.592725687877
 20
1371.944578824234
 30
0.0
 10
2423.653889330868
 20
1371.916602351091
 30
0.0
 10
2423.743973731363
 20
1371.875397418097
 30
0.0
 10
2423.849706880914
 20
1371.880020064901
 30
0.0
 10
2423.943694744612
 20
1371.915209803067
 30
0.0
 10
2424.039933076208
 20
1372.02625745068
 30
0.0
 10
2424.076892603982
 20
1372.161263312356
 30
0.0
 10
2424.09709603619
 20
1372.235062463435
 30
0.0
  0
LINE
  5
366
330
1F
100
AcDbEntity
  8
0
  6
Continuous
 62
     7
370
    15
100
AcDbLine
 10
2424.0970960362
 20
1372.2350624634
 30
0.0
 11
2424.0970960362
 21
1373.4834261782
 31
0.0
  0
SPLINE
  5
367
330
1F
100
AcDbEntity
  8
0
  6
Continuous
 62
     7
370
    15
100
AcDbSpline
210
0.0
220
0.0
230
1.0
 70
     8
 71
     3
 72
    11
 73
     7
 74
     0
 42
0.00000001
 43
0.00000001
 12
1.0
 22
0.0
 32
0.0
 13
1.0
 23
0.0
 33
0.0
 40
0.0
 40
0.0
 40
0.0
 40
0.0
 40
0.3026588322206074
 40
0.4991904011497256
 40
0.6964535894745644
 40
1.0
 40
1.0
 40
1.0
 40
1.0
 10
2424.09709603619
 20
1373.483426178229
 30
0.0
 10
2424.079495729628
 20
1373.572981297898
 30
0.0
 10
2424.05046666073
 20
1373.72068905116
 30
0.0
 10
2423.97305151675
 20
1373.94121516061
 30
0.0
 10
2423.819593833078
 20
1374.117742064687
 30
0.0
 10
2423.705630512344
 20
1374.217227193881
 30
0.0
 10
2423.636556043684
 20
1374.277526265498
 30
0.0
  0
ARC
  5
368
330
1F
100
AcDbEntity
  8
0
  6
Continuous
 62
     7
370
    15
100
AcDbCircle
 10
2563.494225544
 20
1617.3462549553
 30
0.0
 40
280.4328343559528
100
AcDbArc
 50
239.1851984895
 51
240.0845994075
  0
LINE
  5
369
330
1F
100
AcDbEntity
  8
0
  6
Continuous
 62
     7
370
    15
100
AcDbLine
 10
2419.8383705272
 20
1376.5027997726
 30
0.0
 11
2419.8383705272
 21
1377.6380552788
 31
0.0
  0
SPLINE
  5
36A
330
1F
100
AcDbEntity
  8
0
  6
Continuous
 62
     7
370
    15
100
AcDbSpline
210
0.0
220
0.0
230
1.0
 70
     8
 71
     3
 72
    15
 73
    11
 74
     0
 42
0.00000001
 43
0.00000001
 12
1.0
 22
0.0
 32
0.0
 13
1.0
 23
0.0
 33
0.0
 40
0.0
 40
0.0
 40
0.0
 40
0.0
 40
0.1320410968941035
 40
0.2563254019009544
 40
0.3772546674065191
 40
0.4995909847889783
 40
0.6217006517594198
 40
0.7427172127161308
 40
0.8673702170019668
 40
1.0
 40
1.0
 40
1.0
 40
1.0
 10
2403.408801944538
 20
1384.859682695686
 30
0.0
 10
2403.462082217049
 20
1385.667316060122
 30
0.0
 10
2403.565512797269
 20
1387.235138136713
 30
0.0
 10
2404.127325517625
 20
1389.168260872028
 30
0.0
 10
2404.99886473245
 20
1390.651486629216
 30
0.0
 10
2406.185381755422
 20
1391.644550848777
 30
0.0
 10
2407.625097993759
 20
1392.169541439659
 30
0.0
 10
2409.302724622184
 20
1392.158217247948
 30
0.0
 10
2411.190342743022
 20
1391.638127339581
 30
0.0
 10
2412.541011365948
 20
1390.908373107969
 30
0.0
 10
2413.23728369824
 20
1390.532183365925
 30
0.0
  0
ARC
  5
36B
330
1F
100
AcDbEntity
  8
0
  6
Continuous
 62
     7
370
    15
100
AcDbCircle
 10
2565.1682838877
 20
1629.9114626229
 30
0.0
 40
283.5233114863207
100
AcDbArc
 50
237.5972204797
 51
242.408156053
  0
SPLINE
  5
36C
330
1F
100
AcDbEntity
  8
0
  6
Continuous
 62
     7
370
    15
100
AcDbSpline
210
0.0
220
0.0
230
1.0
 70
     8
 71
     3
 72
    15
 73
    11
 74
     0
 42
0.00000001
 43
0.00000001
 12
1.0
 22
0.0
 32
0.0
 13
1.0
 23
0.0
 33
0.0
 40
0.0
 40
0.0
 40
0.0
 40
0.0
 40
0.1324053751750061
 40
0.2569748962870538
 40
0.3780736292841083
 40
0.5004380667410373
 40
0.6226046805297614
 40
0.743475373009681
 40
0.8678109901962827
 40
1.0
 40
1.0
 40
1.0
 40
1.0
 10
2433.848825909212
 20
1378.633393320398
 30
0.0
 10
2434.61956024346
 20
1378.16372524031
 30
0.0
 10
2436.115416248902
 20
1377.252184405878
 30
0.0
 10
2438.261823435835
 20
1375.443975494115
 30
0.0
 10
2440.203449766318
 20
1373.364585329449
 30
0.0
 10
2441.897861203157
 20
1371.029941378196
 30
0.0
 10
2443.313419657536
 20
1368.535030609894
 30
0.0
 10
2444.363466710279
 20
1365.943121298542
 30
0.0
 10
2445.046412662364
 20
1363.290630102801
 30
0.0
 10
2445.173740961784
 20
1361.588525709245
 30
0.0
 10
2445.239354162426
 20
1360.711418910546
 30
0.0
  0
LINE
  5
36D
330
1F
100
AcDbEntity
  8
0
  6
Continuous
 62
     7
370
    15
100
AcDbLine
 10
2445.2393541624
 20
1360.7114189105
 30
0.0
 11
2445.2393541624
 21
1350.3005237537
 31
0.0
  0
LINE
  5
36E
330
1F
100
AcDbEntity
  8
0
  6
Continuous
 62
     7
370
    15
100
AcDbLine
 10
2403.4088019445
 20
1374.4487875388
 30
0.0
 11
2403.4088019445
 21
1384.8596826957
 31
0.0
  0
LINE
  5
36F
330
1F
100
AcDbEntity
  8
0
  6
Continuous
 62
     7
370
    15
100
AcDbLine
 10
2430.0515054939
 20
1370.2339981059
 30
0.0
 11
2431.3739208178
 21
1376.1745975928
 31
0.0
  0
SPLINE
  5
370
330
1F
100
AcDbEntity
  8
0
  6
Continuous
 62
     7
370
    15
100
AcDbSpline
210
0.0
220
0.0
230
1.0
 70
     8
 71
     3
 72
    13
 73
     9
 74
     0
 42
0.00000001
 43
0.00000001
 12
1.0
 22
0.0
 32
0.0
 13
1.0
 23
0.0
 33
0.0
 40
0.0
 40
0.0
 40
0.0
 40
0.0
 40
0.3057780714726849
 40
0.4125927849553118
 40
0.4938756723253959
 40
0.5766339964514381
 40
0.6866470615247539
 40
1.0
 40
1.0
 40
1.0
 40
1.0
 10
2431.373920817804
 20
1376.174597592806
 30
0.0
 10
2431.36835098028
 20
1376.234391940599
 30
0.0
 10
2431.360835481326
 20
1376.315073712061
 30
0.0
 10
2431.332222246384
 20
1376.416899586278
 30
0.0
 10
2431.305639117902
 20
1376.473377950717
 30
0.0
 10
2431.26465327994
 20
1376.520302366338
 30
0.0
 10
2431.183925608507
 20
1376.591337512878
 30
0.0
 10
2431.113298414288
 20
1376.636095674361
 30
0.0
 10
2431.061023931549
 20
1376.669223278618
 30
0.0
  0
LINE
  5
371
330
1F
100
AcDbEntity
  8
0
  6
Continuous
 62
     7
370
    15
100
AcDbLine
 10
2431.061023273
 20
1376.6692236588
 30
0.0
 11
2428.5869621064
 21
1377.2103933132
 31
0.0
  0
LINE
  5
372
330
1F
100
AcDbEntity
  8
0
  6
Continuous
 62
     7
370
    15
100
AcDbLine
 10
2428.5869621064
 20
1377.2103933132
 30
0.0
 11
2428.4817474382
 21
1377.1320107937
 31
0.0
  0
LINE
  5
373
330
1F
100
AcDbEntity
  8
0
  6
Continuous
 62
     7
370
    15
100
AcDbLine
 10
2428.4817474382
 20
1377.1320107937
 30
0.0
 11
2427.9786220682
 21
1373.471740697
 31
0.0
  0
LINE
  5
374
330
1F
100
AcDbEntity
  8
0
  6
Continuous
 62
     7
370
    15
100
AcDbLine
 10
2427.9786220682
 20
1373.471740697
 30
0.0
 11
2425.8446260415
 21
1377.6673651679
 31
0.0
  0
LINE
  5
375
330
1F
100
AcDbEntity
  8
0
  6
Continuous
 62
     7
370
    15
100
AcDbLine
 10
2425.8446260415
 20
1377.6673651679
 30
0.0
 11
2425.687773746
 21
1377.8105141042
 31
0.0
  0
LINE
  5
376
330
1F
100
AcDbEntity
  8
0
  6
Continuous
 62
     7
370
    15
100
AcDbLine
 10
2425.687773746
 20
1377.8105141042
 30
0.0
 11
2422.9177479014
 21
1378.4134728741
 31
0.0
  0
LINE
  5
377
330
1F
100
AcDbEntity
  8
0
  6
Continuous
 62
     7
370
    15
100
AcDbLine
 10
2422.9177479014
 20
1378.4134728741
 30
0.0
 11
2424.8854184286
 21
1374.9302237937
 31
0.0
  0
LINE
  5
378
330
1F
100
AcDbEntity
  8
0
  6
Continuous
 62
     7
370
    15
100
AcDbLine
 10
2424.8854184286
 20
1374.9302237937
 30
0.0
 11
2427.235044647
 21
1370.8651120161
 31
0.0
  0
LINE
  5
379
330
1F
100
AcDbEntity
  8
0
  6
Continuous
 62
     7
370
    15
100
AcDbLine
 10
2427.235044647
 20
1370.8651120161
 30
0.0
 11
2425.6632204079
 21
1364.195976743
 31
0.0
  0
SPLINE
  5
37A
330
1F
100
AcDbEntity
  8
0
  6
Continuous
 62
     7
370
    15
100
AcDbSpline
210
0.0
220
0.0
230
1.0
 70
     8
 71
     3
 72
    13
 73
     9
 74
     0
 42
0.00000001
 43
0.00000001
 12
1.0
 22
0.0
 32
0.0
 13
1.0
 23
0.0
 33
0.0
 40
0.0
 40
0.0
 40
0.0
 40
0.0
 40
0.3064282796803046
 40
0.4132888750357452
 40
0.4944319120710037
 40
0.5769668181686068
 40
0.686764646258324
 40
1.0
 40
1.0
 40
1.0
 40
1.0
 10
2425.663220407931
 20
1364.195976742978
 30
0.0
 10
2425.66822896349
 20
1364.1358343394
 30
0.0
 10
2425.674984150366
 20
1364.054718502628
 30
0.0
 10
2425.702261798124
 20
1363.951886339489
 30
0.0
 10
2425.727890354753
 20
1363.894640478158
 30
0.0
 10
2425.767874741058
 20
1363.846646306686
 30
0.0
 10
2425.847004962234
 20
1363.773817421114
 30
0.0
 10
2425.916386444984
 20
1363.727725051995
 30
0.0
 10
2425.967760035108
 20
1363.693595909966
 30
0.0
  0
LINE
  5
37B
330
1F
100
AcDbEntity
  8
0
  6
Continuous
 62
     7
370
    15
100
AcDbLine
 10
2425.9677610229
 20
1363.6935953397
 30
0.0
 11
2428.5759960232
 21
1363.0951105691
 31
0.0
  0
LINE
  5
37C
330
1F
100
AcDbEntity
  8
0
  6
Continuous
 62
     7
370
    15
100
AcDbLine
 10
2428.5759960232
 20
1363.0951105691
 30
0.0
 11
2428.6814227428
 21
1363.1734436684
 31
0.0
  0
LINE
  5
37D
330
1F
100
AcDbEntity
  8
0
  6
Continuous
 62
     7
370
    15
100
AcDbLine
 10
2428.6814227428
 20
1363.1734436684
 30
0.0
 11
2429.2891486882
 21
1367.5737611424
 31
0.0
  0
LINE
  5
37E
330
1F
100
AcDbEntity
  8
0
  6
Continuous
 62
     7
370
    15
100
AcDbLine
 10
2429.2891486882
 20
1367.5737611424
 30
0.0
 11
2432.0135953915
 21
1362.4292369461
 31
0.0
  0
LINE
  5
37F
330
1F
100
AcDbEntity
  8
0
  6
Continuous
 62
     7
370
    15
100
AcDbLine
 10
2432.0135953915
 20
1362.4292369461
 30
0.0
 11
2432.1711982631
 21
1362.2915672523
 31
0.0
  0
LINE
  5
380
330
1F
100
AcDbEntity
  8
0
  6
Continuous
 62
     7
370
    15
100
AcDbLine
 10
2432.1711982631
 20
1362.2915672523
 30
0.0
 11
2435.2615355877
 21
1361.659317995
 31
0.0
  0
LINE
  5
381
330
1F
100
AcDbEntity
  8
0
  6
Continuous
 62
     7
370
    15
100
AcDbLine
 10
2435.2615355877
 20
1361.659317995
 30
0.0
 11
2434.317807722
 21
1363.2007007777
 31
0.0
  0
LINE
  5
382
330
1F
100
AcDbEntity
  8
0
  6
Continuous
 62
     7
370
    15
100
AcDbLine
 10
2434.317807722
 20
1363.2007007777
 30
0.0
 11
2430.0515054939
 21
1370.2339981059
 31
0.0
  0
LINE
  5
383
330
1F
100
AcDbEntity
  8
0
  6
Continuous
 62
     7
370
    15
100
AcDbLine
 10
2416.0326174494
 20
1373.3359404794
 30
0.0
 11
2416.0326174494
 21
1381.730842428
 31
0.0
  0
SPLINE
  5
384
330
1F
100
AcDbEntity
  8
0
  6
Continuous
 62
     7
370
    15
100
AcDbSpline
210
0.0
220
0.0
230
1.0
 70
     8
 71
     3
 72
    12
 73
     8
 74
     0
 42
0.00000001
 43
0.00000001
 12
1.0
 22
0.0
 32
0.0
 13
1.0
 23
0.0
 33
0.0
 40
0.0
 40
0.0
 40
0.0
 40
0.0
 40
0.2984282174337137
 40
0.4080669810042601
 40
0.4948229027430309
 40
0.6939963457835843
 40
1.0
 40
1.0
 40
1.0
 40
1.0
 10
2416.032617449442
 20
1381.730842428028
 30
0.0
 10
2416.019224582987
 20
1381.807406344709
 30
0.0
 10
2416.000911346296
 20
1381.912098878822
 30
0.0
 10
2415.959396326618
 20
1382.042958019313
 30
0.0
 10
2415.911689416161
 20
1382.146979572924
 30
0.0
 10
2415.804070608609
 20
1382.275891433655
 30
0.0
 10
2415.709687367213
 20
1382.366487823416
 30
0.0
 10
2415.652516096147
 20
1382.42136526437
 30
0.0
  0
ARC
  5
385
330
1F
100
AcDbEntity
  8
0
  6
Continuous
 62
     7
370
    15
100
AcDbCircle
 10
2555.9874878236
 20
1608.3490474885
 30
0.0
 40
265.9647004489811
100
AcDbArc
 50
237.6597924379
 51
238.1535184346
  0
SPLINE
  5
386
330
1F
100
AcDbEntity
  8
0
  6
Continuous
 62
     7
370
    15
100
AcDbSpline
210
0.0
220
0.0
230
1.0
 70
     8
 71
     3
 72
    12
 73
     8
 74
     0
 42
0.00000001
 43
0.00000001
 12
1.0
 22
0.0
 32
0.0
 13
1.0
 23
0.0
 33
0.0
 40
0.0
 40
0.0
 40
0.0
 40
0.0
 40
0.2327200212177327
 40
0.3431173933279699
 40
0.4553277718846372
 40
0.7016239533625093
 40
1.0
 40
1.0
 40
1.0
 40
1.0
 10
2413.710899030214
 20
1383.639025090231
 30
0.0
 10
2413.655676554023
 20
1383.66774823116
 30
0.0
 10
2413.574257722998
 20
1383.710097012292
 30
0.0
 10
2413.478735194028
 20
1383.708735439544
 30
0.0
 10
2413.393411851612
 20
1383.677623077324
 30
0.0
 10
2413.305918732133
 20
1383.573453888294
 30
0.0
 10
2413.271755564461
 20
1383.44506728513
 30
0.0
 10
2413.253040692683
 20
1383.374736019617
 30
0.0
  0
LINE
  5
387
330
1F
100
AcDbEntity
  8
0
  6
Continuous
 62
     7
370
    15
100
AcDbLine
 10
2413.2530406927
 20
1383.3747360196
 30
0.0
 11
2413.2530406927
 21
1378.4340633688
 31
0.0
  0
LINE
  5
388
330
1F
100
AcDbEntity
  8
0
  6
Continuous
 62
     7
370
    15
100
AcDbLine
 10
2413.2530406927
 20
1378.4340633688
 30
0.0
 11
2410.3686374797
 21
1385.5455607297
 31
0.0
  0
SPLINE
  5
389
330
1F
100
AcDbEntity
  8
0
  6
Continuous
 62
     7
370
    15
100
AcDbSpline
210
0.0
220
0.0
230
1.0
 70
     8
 71
     3
 72
    10
 73
     6
 74
     0
 42
0.00000001
 43
0.00000001
 12
1.0
 22
0.0
 32
0.0
 13
1.0
 23
0.0
 33
0.0
 40
0.0
 40
0.0
 40
0.0
 40
0.0
 40
0.2114422658406661
 40
0.4431646443778009
 40
1.0
 40
1.0
 40
1.0
 40
1.0
 10
2410.368637479688
 20
1385.545560729719
 30
0.0
 10
2410.34845472117
 20
1385.586987485467
 30
0.0
 10
2410.306153410381
 20
1385.67381437131
 30
0.0
 10
2410.183091750412
 20
1385.850396421975
 30
0.0
 10
2410.073159318998
 20
1385.958997596486
 30
0.0
 10
2409.995531186156
 20
1386.035685670181
 30
0.0
  0
ARC
  5
38A
330
1F
100
AcDbEntity
  8
0
  6
Continuous
 62
     7
370
    15
100
AcDbCircle
 10
2549.4810344751
 20
1598.2828015799
 30
0.0
 40
253.9784318396645
100
AcDbArc
 50
235.9421955365
 51
236.687705004
  0
SPLINE
  5
38B
330
1F
100
AcDbEntity
  8
0
  6
Continuous
 62
     7
370
    15
100
AcDbSpline
210
0.0
220
0.0
230
1.0
 70
     8
 71
     3
 72
    12
 73
     8
 74
     0
 42
0.00000001
 43
0.00000001
 12
1.0
 22
0.0
 32
0.0
 13
1.0
 23
0.0
 33
0.0
 40
0.0
 40
0.0
 40
0.0
 40
0.0
 40
0.3017141083621554
 40
0.4121224899560254
 40
0.4986906739558902
 40
0.6962986653065805
 40
1.0
 40
1.0
 40
1.0
 40
1.0
 10
2407.24574303167
 20
1387.868529944712
 30
0.0
 10
2407.185602168849
 20
1387.890592868336
 30
0.0
 10
2407.103453533943
 20
1387.920729433938
 30
0.0
 10
2407.010989195295
 20
1387.928580573248
 30
0.0
 10
2406.945318464484
 20
1387.911863642536
 30
0.0
 10
2406.890732035513
 20
1387.808146145264
 30
0.0
 10
2406.864287294089
 20
1387.702238600795
 30
0.0
 10
2406.848266640076
 20
1387.638078089632
 30
0.0
  0
LINE
  5
38C
330
1F
100
AcDbEntity
  8
0
  6
Continuous
 62
     7
370
    15
100
AcDbLine
 10
2406.8482666401
 20
1387.6380780896
 30
0.0
 11
2406.8482666401
 21
1379.2075986452
 31
0.0
  0
SPLINE
  5
38D
330
1F
100
AcDbEntity
  8
0
  6
Continuous
 62
     7
370
    15
100
AcDbSpline
210
0.0
220
0.0
230
1.0
 70
     8
 71
     3
 72
    12
 73
     8
 74
     0
 42
0.00000001
 43
0.00000001
 12
1.0
 22
0.0
 32
0.0
 13
1.0
 23
0.0
 33
0.0
 40
0.0
 40
0.0
 40
0.0
 40
0.0
 40
0.3010958708598263
 40
0.4113333351826433
 40
0.4978374056389583
 40
0.6956840528534859
 40
1.0
 40
1.0
 40
1.0
 40
1.0
 10
2406.848266640076
 20
1379.20759864515
 30
0.0
 10
2406.86302375992
 20
1379.12209755732
 30
0.0
 10
2406.883183768444
 20
1379.005292741901
 30
0.0
 10
2406.926688804269
 20
1378.859594202417
 30
0.0
 10
2406.97535073558
 20
1378.743945827768
 30
0.0
 10
2407.087330813074
 20
1378.599362113515
 30
0.0
 10
2407.185967895866
 20
1378.499274140823
 30
0.0
 10
2407.24574303167
 20
1378.438619750095
 30
0.0
  0
ARC
  5
38E
330
1F
100
AcDbEntity
  8
0
  6
Continuous
 62
     7
370
    15
100
AcDbCircle
 10
2549.1407304679
 20
1588.3447577193
 30
0.0
 40
253.3668767157719
100
AcDbArc
 50
235.9415992302
 51
236.4410373183
  0
SPLINE
  5
38F
330
1F
100
AcDbEntity
  8
0
  6
Continuous
 62
     7
370
    15
100
AcDbSpline
210
0.0
220
0.0
230
1.0
 70
     8
 71
     3
 72
    12
 73
     8
 74
     0
 42
0.00000001
 43
0.00000001
 12
1.0
 22
0.0
 32
0.0
 13
1.0
 23
0.0
 33
0.0
 40
0.0
 40
0.0
 40
0.0
 40
0.0
 40
0.232719225105445
 40
0.3431173417307828
 40
0.4553274842549507
 40
0.7016230641357013
 40
1.0
 40
1.0
 40
1.0
 40
1.0
 10
2409.080828669636
 20
1377.209734274739
 30
0.0
 10
2409.134667976437
 20
1377.180300363729
 30
0.0
 10
2409.214047751879
 20
1377.136903496547
 30
0.0
 10
2409.307322147582
 20
1377.137108017705
 30
0.0
 10
2409.390705824579
 20
1377.167223514215
 30
0.0
 10
2409.476312833679
 20
1377.270425080414
 30
0.0
 10
2409.509756028539
 20
1377.398439563532
 30
0.0
 10
2409.528076538054
 20
1377.468567150503
 30
0.0
  0
LINE
  5
390
330
1F
100
AcDbEntity
  8
0
  6
Continuous
 62
     7
370
    15
100
AcDbLine
 10
2409.5280765381
 20
1377.4685671505
 30
0.0
 11
2409.5280765381
 21
1382.4833758077
 31
0.0
  0
LINE
  5
391
330
1F
100
AcDbEntity
  8
0
  6
Continuous
 62
     7
370
    15
100
AcDbLine
 10
2409.5280765381
 20
1382.4833758077
 30
0.0
 11
2412.666876153
 21
1375.1036903413
 31
0.0
  0
SPLINE
  5
392
330
1F
100
AcDbEntity
  8
0
  6
Continuous
 62
     7
370
    15
100
AcDbSpline
210
0.0
220
0.0
230
1.0
 70
     8
 71
     3
 72
    10
 73
     6
 74
     0
 42
0.00000001
 43
0.00000001
 12
1.0
 22
0.0
 32
0.0
 13
1.0
 23
0.0
 33
0.0
 40
0.0
 40
0.0
 40
0.0
 40
0.0
 40
0.2074420024761037
 40
0.4382227030700066
 40
1.0
 40
1.0
 40
1.0
 40
1.0
 10
2412.666876153028
 20
1375.103690341342
 30
0.0
 10
2412.686840407834
 20
1375.064786650964
 30
0.0
 10
2412.729015037858
 20
1374.982602328824
 30
0.0
 10
2412.85122773912
 20
1374.815075387179
 30
0.0
 10
2412.959850791794
 20
1374.71106333448
 30
0.0
 10
2413.036844481979
 20
1374.637337991987
 30
0.0
  0
ARC
  5
393
330
1F
100
AcDbEntity
  8
0
  6
Continuous
 62
     7
370
    15
100
AcDbCircle
 10
2555.6382001928
 20
1598.3615282584
 30
0.0
 40
265.3067280732397
100
AcDbArc
 50
237.4866441892
 51
238.1274655845
  0
SPLINE
  5
394
330
1F
100
AcDbEntity
  8
0
  6
Continuous
 62
     7
370
    15
100
AcDbSpline
210
0.0
220
0.0
230
1.0
 70
     8
 71
     3
 72
    12
 73
     8
 74
     0
 42
0.00000001
 43
0.00000001
 12
1.0
 22
0.0
 32
0.0
 13
1.0
 23
0.0
 33
0.0
 40
0.0
 40
0.0
 40
0.0
 40
0.0
 40
0.2348652407598158
 40
0.3459195697894479
 40
0.4584069953513419
 40
0.7039399454971889
 40
1.0
 40
1.0
 40
1.0
 40
1.0
 10
2415.547941862457
 20
1373.056447352834
 30
0.0
 10
2415.606717839981
 20
1373.027139562869
 30
0.0
 10
2415.693285613028
 20
1372.983973796564
 30
0.0
 10
2415.79486188764
 20
1372.986274324099
 30
0.0
 10
2415.88520793615
 20
1373.019428561371
 30
0.0
 10
2415.977674524146
 20
1373.128366165652
 30
0.0
 10
2416.013198424728
 20
1373.262575424567
 30
0.0
 10
2416.032617449442
 20
1373.335940479448
 30
0.0
  0
SPLINE
  5
395
330
1F
100
AcDbEntity
  8
0
  6
Continuous
 62
     7
370
    15
100
AcDbSpline
210
0.0
220
0.0
230
1.0
 70
     8
 71
     3
 72
    15
 73
    11
 74
     0
 42
0.00000001
 43
0.00000001
 12
1.0
 22
0.0
 32
0.0
 13
1.0
 23
0.0
 33
0.0
 40
0.0
 40
0.0
 40
0.0
 40
0.0
 40
0.1322342760045626
 40
0.2566663994648078
 40
0.3776757488700557
 40
0.5000090921316068
 40
0.6222065635856586
 40
0.7431665420300996
 40
0.8676396293580504
 40
0.9999999999999999
 40
0.9999999999999999
 40
0.9999999999999999
 40
0.9999999999999999
 10
2434.386447816095
 20
1378.975401923188
 30
0.0
 10
2435.155155923635
 20
1378.506781146283
 30
0.0
 10
2436.647216440495
 20
1377.597189388708
 30
0.0
 10
2438.788074917168
 20
1375.791664185287
 30
0.0
 10
2440.724618041309
 20
1373.714665443598
 30
0.0
 10
2442.414469531254
 20
1371.382155033473
 30
0.0
 10
2443.826160350419
 20
1368.889049556511
 30
0.0
 10
2444.873264432596
 20
1366.298625163167
 30
0.0
 10
2445.554285843641
 20
1363.647239081563
 30
0.0
 10
2445.681244422965
 20
1361.945507767304
 30
0.0
 10
2445.746673143773
 20
1361.06851226497
 30
0.0
  0
LINE
  5
396
330
1F
100
AcDbEntity
  8
0
  6
Continuous
 62
     7
370
    15
100
AcDbLine
 10
2445.2393541624
 20
1360.7114189105
 30
0.0
 11
2445.7466731438
 21
1361.068512265
 31
0.0
  0
LINE
  5
397
330
1F
100
AcDbEntity
  8
0
  6
Continuous
 62
     7
370
    15
100
AcDbLine
 10
2433.8488259092
 20
1378.6333933204
 30
0.0
 11
2434.3864478161
 21
1378.9754019232
 31
0.0
  0
LINE
  5
398
330
1F
100
AcDbEntity
  8
0
  6
Continuous
 62
     7
370
    15
100
AcDbLine
 10
2413.2372836982
 20
1390.5321833659
 30
0.0
 11
2413.8297241671
 21
1390.8425458865
 31
0.0
  0
ARC
  5
399
330
1F
100
AcDbEntity
  8
0
  6
Continuous
 62
     7
370
    15
100
AcDbCircle
 10
2565.3529972374
 20
1629.5788469835
 30
0.0
 40
282.7619559689804
100
AcDbArc
 50
237.5971583802
 51
242.4082181525
  0
LINE
  5
39A
330
1F
100
AcDbEntity
  8
0
  6
Continuous
 62
     7
370
    15
100
AcDbLine
 10
2445.7466731438
 20
1361.068512265
 30
0.0
 11
2445.7466731438
 21
1350.6576171081
 31
0.0
  0
LINE
  5
39B
330
1F
100
AcDbEntity
  8
0
  6
Continuous
 62
     7
370
    15
100
AcDbLine
 10
2440.6546647624
 20
1366.2247053365
 30
0.0
 11
2441.1741839393
 21
1366.5759113837
 31
0.0
  0
LINE
  5
39C
330
1F
100
AcDbEntity
  8
0
  6
Continuous
 62
     7
370
    15
100
AcDbLine
 10
2437.9817669476
 20
1367.5581260611
 30
0.0
 11
2438.5083852343
 21
1367.9057813238
 31
0.0
  0
ARC
  5
39D
330
1F
100
AcDbEntity
  8
0
  6
Continuous
 62
     7
370
    15
100
AcDbCircle
 10
2580.0864388662
 20
1648.3701052311
 30
0.0
 40
314.1728541025736
100
AcDbArc
 50
243.2154106027
 51
243.7587118264
  0
LINE
  5
39E
330
1F
100
AcDbEntity
  8
0
  6
Continuous
 62
     7
370
    15
100
AcDbLine
 10
2434.5854336246
 20
1369.2950525194
 30
0.0
 11
2435.1210851663
 21
1369.6380769355
 31
0.0
  0
LINE
  5
39F
330
1F
100
AcDbEntity
  8
0
  6
Continuous
 62
     7
370
    15
100
AcDbLine
 10
2431.9513174959
 20
1370.6822892997
 30
0.0
 11
2432.4939726584
 21
1371.021623409
 31
0.0
  0
ARC
  5
3A0
330
1F
100
AcDbEntity
  8
0
  6
Continuous
 62
     7
370
    15
100
AcDbCircle
 10
2574.6964743836
 20
1637.8532893678
 30
0.0
 40
302.3585445381599
100
AcDbArc
 50
241.945524136
 51
242.5081710945
  0
LINE
  5
3A1
330
1F
100
AcDbEntity
  8
0
  6
Continuous
 62
     7
370
    15
100
AcDbLine
 10
2434.5854336246
 20
1364.5321943437
 30
0.0
 11
2435.1210851663
 21
1364.8752187598
 31
0.0
  0
LINE
  5
3A2
330
1F
100
AcDbEntity
  8
0
  6
Continuous
 62
     7
370
    15
100
AcDbLine
 10
2435.1210851663
 20
1369.6380769355
 30
0.0
 11
2435.1210851663
 21
1364.8752187598
 31
0.0
  0
LINE
  5
3A3
330
1F
100
AcDbEntity
  8
0
  6
Continuous
 62
     7
370
    15
100
AcDbLine
 10
2431.4518951217
 20
1372.8094268072
 30
0.0
 11
2431.9958818613
 21
1373.1480530406
 31
0.0
  0
LINE
  5
3A4
330
1F
100
AcDbEntity
  8
0
  6
Continuous
 62
     7
370
    15
100
AcDbLine
 10
2431.4518951217
 20
1371.5039006178
 30
0.0
 11
2431.9958818613
 21
1371.8425268512
 31
0.0
  0
LINE
  5
3A5
330
1F
100
AcDbEntity
  8
0
  6
Continuous
 62
     7
370
    15
100
AcDbLine
 10
2431.9958818613
 20
1373.0737588579
 30
0.0
 11
2431.9958818613
 21
1371.8425268512
 31
0.0
  0
LINE
  5
3A6
330
1F
100
AcDbEntity
  8
0
  6
Continuous
 62
     7
370
    15
100
AcDbLine
 10
2428.4817474382
 20
1377.1320107937
 30
0.0
 11
2428.6047177834
 21
1377.2065078884
 31
0.0
  0
LINE
  5
3A7
330
1F
100
AcDbEntity
  8
0
  6
Continuous
 62
     7
370
    15
100
AcDbLine
 10
2427.9786220682
 20
1373.471740697
 30
0.0
 11
2428.5318534556
 21
1373.80534641
 31
0.0
  0
LINE
  5
3A8
330
1F
100
AcDbEntity
  8
0
  6
Continuous
 62
     7
370
    15
100
AcDbLine
 10
2429.03362848
 20
1377.4663473829
 30
0.0
 11
2428.5318534556
 21
1373.80534641
 31
0.0
  0
SPLINE
  5
3A9
330
1F
100
AcDbEntity
  8
0
  6
Continuous
 62
     7
370
    15
100
AcDbSpline
210
0.0
220
0.0
230
1.0
 70
     8
 71
     3
 72
    12
 73
     8
 74
     0
 42
0.00000001
 43
0.00000001
 12
1.0
 22
0.0
 32
0.0
 13
1.0
 23
0.0
 33
0.0
 40
0.0
 40
0.0
 40
0.0
 40
0.0
 40
0.232815283967934
 40
0.3432775441399895
 40
0.4555423256613879
 40
0.7018213513326498
 40
1.0
 40
1.0
 40
1.0
 40
1.0
 10
2431.995881861279
 20
1371.842526851162
 30
0.0
 10
2432.001591512304
 20
1371.772616755688
 30
0.0
 10
2432.010010182025
 20
1371.669536899951
 30
0.0
 10
2432.06562639708
 20
1371.524056064044
 30
0.0
 10
2432.142151116598
 20
1371.37972904292
 30
0.0
 10
2432.285426858739
 20
1371.197028659639
 30
0.0
 10
2432.420175810329
 20
1371.083693010309
 30
0.0
 10
2432.493972658437
 20
1371.021623409023
 30
0.0
  0
LINE
  5
3AA
330
1F
100
AcDbEntity
  8
0
  6
Continuous
 62
     7
370
    15
100
AcDbLine
 10
2436.7211942213
 20
1361.0605921188
 30
0.0
 11
2437.2511644996
 21
1361.406543461
 31
0.0
  0
LINE
  5
3AB
330
1F
100
AcDbEntity
  8
0
  6
Continuous
 62
     7
370
    15
100
AcDbLine
 10
2435.1210851663
 20
1364.8752187598
 30
0.0
 11
2437.2511644996
 21
1361.406543461
 31
0.0
  0
LINE
  5
3AC
330
1F
100
AcDbEntity
  8
0
  6
Continuous
 62
     7
370
    15
100
AcDbLine
 10
2437.4700725966
 20
1360.6795389522
 30
0.0
 11
2437.9980527533
 21
1361.0265053474
 31
0.0
  0
ARC
  5
3AD
330
1F
100
AcDbEntity
  8
0
  6
Continuous
 62
     7
370
    15
100
AcDbCircle
 10
2579.5795002772
 20
1640.2002298103
 30
0.0
 40
313.0228022260713
100
AcDbArc
 50
242.9550103864
 51
243.1084011341
  0
LINE
  5
3AE
330
1F
100
AcDbEntity
  8
0
  6
Continuous
 62
     7
370
    15
100
AcDbLine
 10
2432.1711982631
 20
1362.2915672523
 30
0.0
 11
2432.7132706138
 21
1362.6312134809
 31
0.0
  0
LINE
  5
3AF
330
1F
100
AcDbEntity
  8
0
  6
Continuous
 62
     7
370
    15
100
AcDbLine
 10
2432.7132706138
 20
1362.6312134809
 30
0.0
 11
2434.9448474607
 21
1362.1765579545
 31
0.0
  0
LINE
  5
3B0
330
1F
100
AcDbEntity
  8
0
  6
Continuous
 62
     7
370
    15
100
AcDbLine
 10
2432.0135953915
 20
1362.4292369461
 30
0.0
 11
2432.5560918448
 21
1362.7686626763
 31
0.0
  0
LINE
  5
3B1
330
1F
100
AcDbEntity
  8
0
  6
Continuous
 62
     7
370
    15
100
AcDbLine
 10
2429.2891486882
 20
1367.5737611424
 30
0.0
 11
2429.8388838627
 21
1367.9092756872
 31
0.0
  0
LINE
  5
3B2
330
1F
100
AcDbEntity
  8
0
  6
Continuous
 62
     7
370
    15
100
AcDbLine
 10
2429.8388838627
 20
1367.9092756872
 30
0.0
 11
2432.5560918448
 21
1362.7686626763
 31
0.0
  0
LINE
  5
3B3
330
1F
100
AcDbEntity
  8
0
  6
Continuous
 62
     7
370
    15
100
AcDbLine
 10
2427.235044647
 20
1370.8651120161
 30
0.0
 11
2427.7902460703
 21
1371.1976169479
 31
0.0
  0
LINE
  5
3B4
330
1F
100
AcDbEntity
  8
0
  6
Continuous
 62
     7
370
    15
100
AcDbLine
 10
2424.8854184286
 20
1374.9302237937
 30
0.0
 11
2425.4468630185
 21
1375.2592097801
 31
0.0
  0
LINE
  5
3B5
330
1F
100
AcDbEntity
  8
0
  6
Continuous
 62
     7
370
    15
100
AcDbLine
 10
2425.4468630185
 20
1375.2592097801
 30
0.0
 11
2427.7902460703
 21
1371.1976169479
 31
0.0
  0
LINE
  5
3B6
330
1F
100
AcDbEntity
  8
0
  6
Continuous
 62
     7
370
    15
100
AcDbLine
 10
2423.7732543769
 20
1378.227255558
 30
0.0
 11
2425.4468630185
 21
1375.2592097801
 31
0.0
  0
LINE
  5
3B7
330
1F
100
AcDbEntity
  8
0
  6
Continuous
 62
     7
370
    15
100
AcDbLine
 10
2425.6632204079
 20
1364.195976743
 30
0.0
 11
2426.2225943692
 21
1364.5261337469
 31
0.0
  0
LINE
  5
3B8
330
1F
100
AcDbEntity
  8
0
  6
Continuous
 62
     7
370
    15
100
AcDbLine
 10
2427.7902460703
 20
1371.1976169479
 30
0.0
 11
2426.2225943692
 21
1364.5261337469
 31
0.0
  0
LINE
  5
3B9
330
1F
100
AcDbEntity
  8
0
  6
Continuous
 62
     7
370
    15
100
AcDbLine
 10
2432.5560918448
 20
1362.7686626763
 30
0.0
 11
2432.7132706138
 21
1362.6312134809
 31
0.0
  0
LINE
  5
3BA
330
1F
100
AcDbEntity
  8
0
  6
Continuous
 62
     7
370
    15
100
AcDbLine
 10
2419.8383705272
 20
1377.6380552788
 30
0.0
 11
2420.4132351017
 21
1377.9592210804
 31
0.0
  0
ARC
  5
3BB
330
1F
100
AcDbEntity
  8
0
  6
Continuous
 62
     7
370
    15
100
AcDbCircle
 10
2563.1255915682
 20
1617.2136892963
 30
0.0
 40
278.5848474872079
100
AcDbArc
 50
239.184441753
 51
239.8234846081
  0
LINE
  5
3BC
330
1F
100
AcDbEntity
  8
0
  6
Continuous
 62
     7
370
    15
100
AcDbLine
 10
2423.5927256879
 20
1371.9445788242
 30
0.0
 11
2424.1576141979
 21
1372.2716010086
 31
0.0
  0
LINE
  5
3BD
330
1F
100
AcDbEntity
  8
0
  6
Continuous
 62
     7
370
    15
100
AcDbLine
 10
2419.8383705272
 20
1374.1446225981
 30
0.0
 11
2420.4132351017
 21
1374.4657883997
 31
0.0
  0
ARC
  5
3BE
330
1F
100
AcDbEntity
  8
0
  6
Continuous
 62
     7
370
    15
100
AcDbCircle
 10
2563.6786959258
 20
1614.6562034551
 30
0.0
 40
279.6720002960856
100
AcDbArc
 50
239.1853525229
 51
240.0744694731
  0
SPLINE
  5
3BF
330
1F
100
AcDbEntity
  8
0
  6
Continuous
 62
     7
370
    15
100
AcDbSpline
210
0.0
220
0.0
230
1.0
 70
     8
 71
     3
 72
    11
 73
     7
 74
     0
 42
0.00000001
 43
0.00000001
 12
1.0
 22
0.0
 32
0.0
 13
1.0
 23
0.0
 33
0.0
 40
0.0
 40
0.0
 40
0.0
 40
0.0
 40
0.2059476617886338
 40
0.4600418888110356
 40
0.7216759574789379
 40
1.0
 40
1.0
 40
1.0
 40
1.0
 10
2407.122479304844
 20
1391.966702131368
 30
0.0
 10
2407.494679117855
 20
1392.131718245951
 30
0.0
 10
2408.326091834589
 20
1392.500328039224
 30
0.0
 10
2409.909926673625
 20
1392.45264378163
 30
0.0
 10
2411.786759244367
 20
1391.947587933313
 30
0.0
 10
2413.134846179759
 20
1391.218406178991
 30
0.0
 10
2413.829724167057
 20
1390.842545886516
 30
0.0
  0
LINE
  5
3C0
330
1F
100
AcDbEntity
  8
0
  6
Continuous
 62
     7
370
    15
100
AcDbLine
 10
2425.9677610229
 20
1363.6935953397
 30
0.0
 11
2426.5263343587
 21
1364.0242145349
 31
0.0
  0
LINE
  5
3C1
330
1F
100
AcDbEntity
  8
0
  6
Continuous
 62
     7
370
    15
100
AcDbLine
 10
2426.5263343587
 20
1364.0242145349
 30
0.0
 11
2428.7724059349
 21
1363.5107932901
 31
0.0
  0
LINE
  5
3C2
330
1F
100
AcDbEntity
  8
0
  6
Continuous
 62
     7
370
    15
100
AcDbLine
 10
2424.9442621792
 20
1367.4600340945
 30
0.0
 11
2425.5055515172
 21
1367.7891097059
 31
0.0
  0
LINE
  5
3C3
330
1F
100
AcDbEntity
  8
0
  6
Continuous
 62
     7
370
    15
100
AcDbLine
 10
2417.2085718163
 20
1381.0788878301
 30
0.0
 11
2417.7904459385
 21
1381.39583679
 31
0.0
  0
LINE
  5
3C4
330
1F
100
AcDbEntity
  8
0
  6
Continuous
 62
     7
370
    15
100
AcDbLine
 10
2417.6295891984
 20
1371.7648337346
 30
0.0
 11
2418.2103424778
 21
1372.0824662395
 31
0.0
  0
ARC
  5
3C5
330
1F
100
AcDbEntity
  8
0
  6
Continuous
 62
     7
370
    15
100
AcDbCircle
 10
2563.2114651099
 20
1610.121632083
 30
0.0
 40
278.7256178395533
100
AcDbArc
 50
238.6523928358
 51
240.3925143695
  0
LINE
  5
3C6
330
1F
100
AcDbEntity
  8
0
  6
Continuous
 62
     7
370
    15
100
AcDbLine
 10
2417.2085718163
 20
1372.5216240124
 30
0.0
 11
2417.7904459385
 21
1372.8385729723
 31
0.0
  0
LINE
  5
3C7
330
1F
100
AcDbEntity
  8
0
  6
Continuous
 62
     7
370
    15
100
AcDbLine
 10
2417.7904459385
 20
1381.2236193218
 30
0.0
 11
2417.7904459385
 21
1372.8385729723
 31
0.0
  0
SPLINE
  5
3C8
330
1F
100
AcDbEntity
  8
0
  6
Continuous
 62
     7
370
    15
100
AcDbSpline
210
0.0
220
0.0
230
1.0
 70
     8
 71
     3
 72
    13
 73
     9
 74
     0
 42
0.00000001
 43
0.00000001
 12
1.0
 22
0.0
 32
0.0
 13
1.0
 23
0.0
 33
0.0
 40
0.0
 40
0.0
 40
0.0
 40
0.0
 40
0.3068280862202577
 40
0.4137978740494623
 40
0.4949755600013457
 40
0.5774651016739795
 40
0.6871508979061665
 40
1.0
 40
1.0
 40
1.0
 40
1.0
 10
2426.222594369184
 20
1364.526133746942
 30
0.0
 10
2426.227588718883
 20
1364.466002850296
 30
0.0
 10
2426.234324253799
 20
1364.384908457983
 30
0.0
 10
2426.261528243798
 20
1364.282120031056
 30
0.0
 10
2426.287078109698
 20
1364.224921402809
 30
0.0
 10
2426.326963267255
 20
1364.176970882407
 30
0.0
 10
2426.405886478979
 20
1364.104261716
 30
0.0
 10
2426.475093087471
 20
1364.058268428825
 30
0.0
 10
2426.526334358693
 20
1364.02421453493
 30
0.0
  0
LINE
  5
3C9
330
1F
100
AcDbEntity
  8
0
  6
Continuous
 62
     7
370
    15
100
AcDbLine
 10
2413.2530406927
 20
1383.3747360196
 30
0.0
 11
2413.845437039
 21
1383.6851240116
 31
0.0
  0
LINE
  5
3CA
330
1F
100
AcDbEntity
  8
0
  6
Continuous
 62
     7
370
    15
100
AcDbLine
 10
2413.2530406927
 20
1378.4340633688
 30
0.0
 11
2413.845437039
 21
1378.7444513608
 31
0.0
  0
LINE
  5
3CB
330
1F
100
AcDbEntity
  8
0
  6
Continuous
 62
     7
370
    15
100
AcDbLine
 10
2413.845437039
 20
1383.5539107025
 30
0.0
 11
2413.845437039
 21
1378.7444513608
 31
0.0
  0
SPLINE
  5
3CC
330
1F
100
AcDbEntity
  8
0
  6
Continuous
 62
     7
370
    15
100
AcDbSpline
210
0.0
220
0.0
230
1.0
 70
     8
 71
     3
 72
    12
 73
     8
 74
     0
 42
0.00000001
 43
0.00000001
 12
1.0
 22
0.0
 32
0.0
 13
1.0
 23
0.0
 33
0.0
 40
0.0
 40
0.0
 40
0.0
 40
0.0
 40
0.3014449554767822
 40
0.4117715930481269
 40
0.4982916078848393
 40
0.6960198416733827
 40
0.9999999999999999
 40
0.9999999999999999
 40
0.9999999999999999
 40
0.9999999999999999
 10
2417.790445938454
 20
1372.838572972261
 30
0.0
 10
2417.806032975231
 20
1372.753552638084
 30
0.0
 10
2417.827324752878
 20
1372.637415486643
 30
0.0
 10
2417.873272119728
 20
1372.493112205504
 30
0.0
 10
2417.924687258856
 20
1372.379103567497
 30
0.0
 10
2418.042951091754
 20
1372.23808403425
 30
0.0
 10
2418.147186981804
 20
1372.14117964911
 30
0.0
 10
2418.210342477822
 20
1372.082466239486
 30
0.0
  0
LINE
  5
3CD
330
1F
100
AcDbEntity
  8
0
  6
Continuous
 62
     7
370
    15
100
AcDbLine
 10
2412.666876153
 20
1375.1036903413
 30
0.0
 11
2413.26082864
 21
1375.413082669
 31
0.0
  0
LINE
  5
3CE
330
1F
100
AcDbEntity
  8
0
  6
Continuous
 62
     7
370
    15
100
AcDbLine
 10
2409.5280765381
 20
1382.4833758077
 30
0.0
 11
2410.1303747596
 21
1382.7873419739
 31
0.0
  0
LINE
  5
3CF
330
1F
100
AcDbEntity
  8
0
  6
Continuous
 62
     7
370
    15
100
AcDbLine
 10
2410.1303747596
 20
1382.7873419739
 30
0.0
 11
2413.26082864
 21
1375.413082669
 31
0.0
  0
LINE
  5
3D0
330
1F
100
AcDbEntity
  8
0
  6
Continuous
 62
     7
370
    15
100
AcDbLine
 10
2415.5479418625
 20
1373.0564473528
 30
0.0
 11
2416.1342249401
 21
1373.3706685954
 31
0.0
  0
LINE
  5
3D1
330
1F
100
AcDbEntity
  8
0
  6
Continuous
 62
     7
370
    15
100
AcDbLine
 10
2413.036844482
 20
1374.637337992
 30
0.0
 11
2413.6298032253
 21
1374.9473526573
 31
0.0
  0
ARC
  5
3D2
330
1F
100
AcDbEntity
  8
0
  6
Continuous
 62
     7
370
    15
100
AcDbCircle
 10
2555.8229093016
 20
1598.0310259577
 30
0.0
 40
264.5471691566804
100
AcDbArc
 50
237.4866415207
 51
238.1275938869
  0
LINE
  5
3D3
330
1F
100
AcDbEntity
  8
0
  6
Continuous
 62
     7
370
    15
100
AcDbLine
 10
2406.8482666401
 20
1387.6380780896
 30
0.0
 11
2407.4576929474
 21
1387.9372723663
 31
0.0
  0
LINE
  5
3D4
330
1F
100
AcDbEntity
  8
0
  6
Continuous
 62
     7
370
    15
100
AcDbLine
 10
2406.8482666401
 20
1379.2075986452
 30
0.0
 11
2407.4576929474
 21
1379.5067929219
 31
0.0
  0
LINE
  5
3D5
330
1F
100
AcDbEntity
  8
0
  6
Continuous
 62
     7
370
    15
100
AcDbLine
 10
2407.4576929474
 20
1387.725425656
 30
0.0
 11
2407.4576929474
 21
1379.5067929219
 31
0.0
  0
SPLINE
  5
3D6
330
1F
100
AcDbEntity
  8
0
  6
Continuous
 62
     7
370
    15
100
AcDbSpline
210
0.0
220
0.0
230
1.0
 70
     8
 71
     3
 72
    10
 73
     6
 74
     0
 42
0.00000001
 43
0.00000001
 12
1.0
 22
0.0
 32
0.0
 13
1.0
 23
0.0
 33
0.0
 40
0.0
 40
0.0
 40
0.0
 40
0.0
 40
0.2075899126722869
 40
0.4384081694362817
 40
1.0
 40
1.0
 40
1.0
 40
1.0
 10
2413.260828640034
 20
1375.41308266898
 30
0.0
 10
2413.280733073004
 20
1375.374215095917
 30
0.0
 10
2413.322769152261
 20
1375.292130849446
 30
0.0
 10
2413.444642757479
 20
1375.124817943857
 30
0.0
 10
2413.553005249847
 20
1375.02095894534
 30
0.0
 10
2413.629803225323
 20
1374.947352657346
 30
0.0
  0
LINE
  5
3D7
330
1F
100
AcDbEntity
  8
0
  6
Continuous
 62
     7
370
    15
100
AcDbLine
 10
2409.0808286696
 20
1377.2097342747
 30
0.0
 11
2409.5143221775
 21
1377.4275121791
 31
0.0
  0
LINE
  5
3D8
330
1F
100
AcDbEntity
  8
0
  6
Continuous
 62
     7
370
    15
100
AcDbLine
 10
2407.2457430317
 20
1378.4386197501
 30
0.0
 11
2407.8541156678
 21
1378.7385317871
 31
0.0
  0
ARC
  5
3D9
330
1F
100
AcDbEntity
  8
0
  6
Continuous
 62
     7
370
    15
100
AcDbCircle
 10
2549.0250294037
 20
1587.568085861
 30
0.0
 40
252.0694538014268
100
AcDbArc
 50
235.9409045472
 51
236.3989504345
  0
SPLINE
  5
3DA
330
1F
100
AcDbEntity
  8
0
  6
Continuous
 62
     7
370
    15
100
AcDbSpline
210
0.0
220
0.0
230
1.0
 70
     8
 71
     3
 72
    12
 73
     8
 74
     0
 42
0.00000001
 43
0.00000001
 12
1.0
 22
0.0
 32
0.0
 13
1.0
 23
0.0
 33
0.0
 40
0.0
 40
0.0
 40
0.0
 40
0.0
 40
0.3014331125250941
 40
0.4117613162725824
 40
0.4982949972709578
 40
0.6960172009996903
 40
0.9999999999999999
 40
0.9999999999999999
 40
0.9999999999999999
 40
0.9999999999999999
 10
2407.457692947386
 20
1379.506792921866
 30
0.0
 10
2407.472411105755
 20
1379.421326865731
 30
0.0
 10
2407.492516289994
 20
1379.304579188358
 30
0.0
 10
2407.535889401923
 20
1379.158943722537
 30
0.0
 10
2407.584404639629
 20
1379.043433211699
 30
0.0
 10
2407.696076088605
 20
1378.899003210199
 30
0.0
 10
2407.794487963931
 20
1378.799077015978
 30
0.0
 10
2407.854115667768
 20
1378.738531787113
 30
0.0
  0
ARC
  5
3DB
330
1F
100
AcDbEntity
  8
0
  6
Continuous
 62
     7
370
    15
100
AcDbCircle
 10
2680.3394693308
 20
1788.6241915759
 30
0.0
 40
1.366083722253123
100
AcDbArc
 50
13.1605400762
 51
41.6120993586
  0
LINE
  5
3DC
330
1F
100
AcDbEntity
  8
0
  6
Continuous
 62
     7
370
    15
100
AcDbLine
 10
2528.7653173626
 20
1327.1475517217
 30
0.0
 11
2528.7653173626
 21
1328.780636655
 31
0.0
  0
ARC
  5
3DD
330
1F
100
AcDbEntity
  8
0
  6
Continuous
 62
     7
370
    15
100
AcDbCircle
 10
2532.3008534659
 20
1335.6041889205
 30
0.0
 40
7.685107745350354
100
AcDbArc
 50
242.6096468552
 51
297.3903038574
  0
LINE
  5
3DE
330
1F
100
AcDbEntity
  8
0
  6
Continuous
 62
     7
370
    15
100
AcDbLine
 10
2535.8363836994
 20
1672.5443185324
 30
0.0
 11
2535.8363836994
 21
1328.7806336137
 31
0.0
  0
LINE
  5
3DF
330
1F
100
AcDbEntity
  8
0
  6
Continuous
 62
     7
370
    15
100
AcDbLine
 10
2599.5889579915
 20
1709.3478962851
 30
0.0
 11
2535.8363836994
 21
1672.5443185324
 31
0.0
  0
LINE
  5
3E0
330
1F
100
AcDbEntity
  8
0
  6
Continuous
 62
     7
370
    15
100
AcDbLine
 10
2535.8363836994
 20
1328.7806336137
 30
0.0
 11
2599.5889579915
 21
1365.5842113663
 31
0.0
  0
LINE
  5
3E1
330
1F
100
AcDbEntity
  8
0
  6
Continuous
 62
     7
370
    15
100
AcDbLine
 10
2599.5889579915
 20
1709.3478962851
 30
0.0
 11
2599.5889579915
 21
1365.5842113663
 31
0.0
  0
LWPOLYLINE
  5
3E2
330
1F
100
AcDbEntity
  8
0
  6
Continuous
 62
     7
370
    15
100
AcDbPolyline
 90
       27
 70
   128
 43
0.0
 10
2567.3026360101
 20
1671.0919997316
 10
2566.2830774028
 20
1670.6463880994
 10
2565.3227667278
 20
1670.5125667769
 10
2564.4775222177
 20
1670.6983389595
 10
2563.7964660242
 20
1671.1929075485
 10
2563.3191687699
 20
1671.9675263754
 10
2563.0733788861
 20
1672.9771703915
 10
2563.0733788861
 20
1674.1631639818
 10
2563.3191687699
 20
1675.4565909572
 10
2563.7964660242
 20
1676.7822732966
 10
2564.4775222177
 20
1678.063172629
 10
2565.3227667278
 20
1679.2248555178
 10
2566.2830774028
 20
1680.1997853002
 10
2567.3026360101
 20
1680.931318812
 10
2568.3221998857
 20
1681.376945653
 10
2569.2825052923
 20
1681.5107639341
 10
2570.1277498025
 20
1681.3249795842
 10
2570.8088112643
 20
1680.8304140366
 10
2571.2861032502
 20
1680.0558043357
 10
2571.531893134
 20
1679.0461603196
 10
2571.531893134
 20
1677.8601667293
 10
2571.2861032502
 20
1676.5667397538
 10
2570.8088112643
 20
1675.2410482884
 10
2570.1277498025
 20
1673.9601459147
 10
2569.2825052923
 20
1672.7984751933
 10
2568.3221998857
 20
1671.8235484522
 10
2567.3026360101
 20
1671.0919997316
  0
LWPOLYLINE
  5
3E3
330
1F
100
AcDbEntity
  8
0
  6
Continuous
 62
     7
370
    15
100
AcDbPolyline
 90
       27
 70
   128
 43
0.0
 10
2567.3026360101
 20
1366.5222802078
 10
2566.2830774028
 20
1366.0766564082
 10
2565.3227667278
 20
1365.9428472531
 10
2564.4775222177
 20
1366.1286194356
 10
2563.7964660242
 20
1366.6231880246
 10
2563.3191687699
 20
1367.3977946841
 10
2563.0733788861
 20
1368.4074387002
 10
2563.0733788861
 20
1369.5934444579
 10
2563.3191687699
 20
1370.8868714334
 10
2563.7964660242
 20
1372.2125537727
 10
2564.4775222177
 20
1373.4934531051
 10
2565.3227667278
 20
1374.6551238265
 10
2566.2830774028
 20
1375.6300657763
 10
2567.3026360101
 20
1376.3615992882
 10
2568.3221998857
 20
1376.8072261291
 10
2569.2825052923
 20
1376.9410322429
 10
2570.1277498025
 20
1376.7552600603
 10
2570.8088112643
 20
1376.2606945127
 10
2571.2861032502
 20
1375.4860848119
 10
2571.531893134
 20
1374.4764407958
 10
2571.531893134
 20
1373.290435038
 10
2571.2861032502
 20
1371.9970080626
 10
2570.8088112643
 20
1370.6713287646
 10
2570.1277498025
 20
1369.3904263908
 10
2569.2825052923
 20
1368.2287556694
 10
2568.3221998857
 20
1367.253816761
 10
2567.3026360101
 20
1366.5222802078
  0
LWPOLYLINE
  5
3E4
330
1F
100
AcDbEntity
  8
0
  6
Continuous
 62
     7
370
    15
100
AcDbPolyline
 90
        9
 70
   128
 43
0.0
 10
2565.2520232426
 20
1674.6437652211
 10
2566.0077899934
 20
1675.2339412665
 10
2566.6723983792
 20
1676.0607119547
 10
2567.1656903625
 20
1677.02435162
 10
2567.42816513
 20
1678.0086245297
 10
2567.42816513
 20
1678.8948132298
 10
2567.1656903625
 20
1679.5760392236
 10
2566.6723983792
 20
1679.9701239206
 10
2566.1052809224
 20
1680.0418127393
  0
LWPOLYLINE
  5
3E5
330
1F
100
AcDbEntity
  8
0
  6
Continuous
 62
     7
370
    15
100
AcDbPolyline
 90
        5
 70
   128
 43
0.0
 10
2563.2138385271
 20
1675.0331522524
 10
2563.338361391
 20
1674.8148816346
 10
2563.8316533744
 20
1674.4207847702
 10
2564.4962617602
 20
1674.3613545909
 10
2565.2520232426
 20
1674.6437652211
  0
ARC
  5
3E6
330
1F
100
AcDbEntity
  8
0
  6
Continuous
 62
     7
370
    15
100
AcDbCircle
 10
2554.4046375623
 20
1789.2542193102
 30
0.0
 40
91.79674979022127
100
AcDbArc
 50
299.486689553
 51
314.42423314
  0
ARC
  5
3E7
330
1F
100
AcDbEntity
  8
0
  6
Continuous
 62
     7
370
    15
100
AcDbCircle
 10
2554.4046375623
 20
1445.4905343915
 30
0.0
 40
91.79674979019295
100
AcDbArc
 50
299.4866895529
 51
314.42423314
  0
LINE
  5
3E8
330
1F
100
AcDbEntity
  8
0
  6
Continuous
 62
     7
370
    15
100
AcDbLine
 10
2618.6591920104
 20
1723.695119982
 30
0.0
 11
2618.6591920104
 21
1379.9314350633
 31
0.0
  0
LINE
  5
3E9
330
1F
100
AcDbEntity
  8
0
  6
Continuous
 62
     7
370
    15
100
AcDbLine
 10
2680.6994168149
 20
1785.7286251093
 30
0.0
 11
2618.6591920104
 21
1723.695119982
 31
0.0
  0
LINE
  5
3EA
330
1F
100
AcDbEntity
  8
0
  6
Continuous
 62
     7
370
    15
100
AcDbLine
 10
2618.6591920104
 20
1379.9314350633
 30
0.0
 11
2680.6994168149
 21
1441.9649401905
 31
0.0
  0
LINE
  5
3EB
330
1F
100
AcDbEntity
  8
0
  6
Continuous
 62
     7
370
    15
100
AcDbLine
 10
2680.6994168149
 20
1441.9649401905
 30
0.0
 11
2680.6994168149
 21
1785.7286251093
 31
0.0
  0
ARC
  5
3EC
330
1F
100
AcDbEntity
  8
0
  6
Continuous
 62
     7
370
    15
100
AcDbCircle
 10
2680.3398593587
 20
1788.6244043486
 30
0.0
 40
1.365648106821785
100
AcDbArc
 50
13.114365138
 51
41.6005191618
  0
ARC
  5
3ED
330
1F
100
AcDbEntity
  8
0
  6
Continuous
 62
     7
370
    15
100
AcDbCircle
 10
2529.7667223354
 20
1328.6821209935
 30
0.0
 40
1.006239163918474
100
AcDbArc
 50
174.3814667392
 51
234.2923504699
  0
LWPOLYLINE
  5
3EE
330
1F
100
AcDbEntity
  8
0
  6
Continuous
 62
     7
370
    15
100
AcDbPolyline
 90
        9
 70
   128
 43
0.0
 10
2565.2520232426
 20
1370.0740456972
 10
2566.0077899934
 20
1370.6642217426
 10
2566.6723983792
 20
1371.4909924308
 10
2567.1656903625
 20
1372.4546199287
 10
2567.42816513
 20
1373.4388928385
 10
2567.42816513
 20
1374.325093706
 10
2567.1656903625
 20
1375.0063196998
 10
2566.6723983792
 20
1375.4004043967
 10
2566.1052809224
 20
1375.4720932155
  0
LWPOLYLINE
  5
3EF
330
1F
100
AcDbEntity
  8
0
  6
Continuous
 62
     7
370
    15
100
AcDbPolyline
 90
        5
 70
   128
 43
0.0
 10
2563.2138385271
 20
1370.4634205612
 10
2563.338361391
 20
1370.2451499433
 10
2563.8316533744
 20
1369.8510652464
 10
2564.4962617602
 20
1369.7916350671
 10
2565.2520232426
 20
1370.0740456972
  0
ARC
  5
3F0
330
1F
100
AcDbEntity
  8
0
  6
Continuous
 62
     7
370
    15
100
AcDbCircle
 10
2510.2864459803
 20
1706.2981913676
 30
0.0
 40
28.60141043015473
100
AcDbArc
 50
245.9734424147
 51
297.350035711
  0
ARC
  5
3F1
330
1F
100
AcDbEntity
  8
0
  6
Continuous
 62
     7
370
    15
100
AcDbCircle
 10
2519.2861013593
 20
1674.4209123891
 30
0.0
 40
7.684038882872509
100
AcDbArc
 50
2.6055666923
 51
57.3944827486
  0
ARC
  5
3F2
330
1F
100
AcDbEntity
  8
0
  6
Continuous
 62
     7
370
    15
100
AcDbCircle
 10
2510.2630273629
 20
1707.3005026322
 30
0.0
 40
36.5661172639613
100
AcDbArc
 50
246.1501176433
 51
297.173352467
  0
ARC
  5
3F3
330
1F
100
AcDbEntity
  8
0
  6
Continuous
 62
     7
370
    15
100
AcDbCircle
 10
2503.9298884144
 20
1673.5760375227
 30
0.0
 40
8.456730953772976
100
AcDbArc
 50
128.7111565743
 51
178.0971686396
  0
LWPOLYLINE
  5
3F4
330
1F
100
AcDbEntity
  8
0
  6
Continuous
 62
     7
370
    15
100
AcDbPolyline
 90
       11
 70
   128
 43
0.0
 10
2357.9636754123
 20
1776.4136986955
 10
2356.1882868339
 20
1775.2258145172
 10
2354.7335304057
 20
1773.9005948122
 10
2353.6308002612
 20
1772.46663138
 10
2352.9038724915
 20
1770.9548700301
 10
2352.5684678711
 20
1769.3979506082
 10
2352.6318040477
 20
1767.8294557807
 10
2353.0925217855
 20
1766.2832480189
 10
2353.9406691598
 20
1764.7926879702
 10
2355.1579597069
 20
1763.3899501525
 10
2356.7181043299
 20
1762.1052960702
  0
LINE
  5
3F5
330
1F
100
AcDbEntity
  8
0
  6
Continuous
 62
     7
370
    15
100
AcDbLine
 10
2430.5904372458
 20
1818.3402358706
 30
0.0
 11
2357.9636754123
 21
1776.4136986955
 31
0.0
  0
ARC
  5
3F6
330
1F
100
AcDbEntity
  8
0
  6
Continuous
 62
     7
370
    15
100
AcDbCircle
 10
2494.8007530485
 20
1705.5445115164
 30
0.0
 40
129.791525486342
100
AcDbArc
 50
108.1324523933
 51
119.6512134982
  0
LINE
  5
3F7
330
1F
100
AcDbEntity
  8
0
  6
Continuous
 62
     7
370
    15
100
AcDbLine
 10
2561.8645440505
 20
1864.7056004512
 30
0.0
 11
2454.4077155111
 21
1828.8905394483
 31
0.0
  0
ARC
  5
3F8
330
1F
100
AcDbEntity
  8
0
  6
Continuous
 62
     7
370
    15
100
AcDbCircle
 10
2563.3464744867
 20
1860.242749889
 30
0.0
 40
4.702462435568056
100
AcDbArc
 50
62.9382902735
 51
108.3692197637
  0
LINE
  5
3F9
330
1F
100
AcDbEntity
  8
0
  6
Continuous
 62
     7
370
    15
100
AcDbLine
 10
2675.8925318638
 20
1800.6939573839
 30
0.0
 11
2565.4858592265
 21
1864.4303728297
 31
0.0
  0
LWPOLYLINE
  5
3FA
330
1F
100
AcDbEntity
  8
0
  6
Continuous
 62
     7
370
    15
100
AcDbPolyline
 90
        9
 70
   128
 43
0.0
 10
2676.3692917458
 20
1798.6034166313
 10
2676.5789301702
 20
1798.8592981795
 10
2676.7135682778
 20
1799.1314753197
 10
2676.7696077813
 20
1799.4126822495
 10
2676.7455524675
 20
1799.6954007338
 10
2676.6420398075
 20
1799.9720790827
 10
2676.4618356884
 20
1800.2353298395
 10
2676.2097553874
 20
1800.4781153035
 10
2675.8925318638
 20
1800.6939573839
  0
LINE
  5
3FB
330
1F
100
AcDbEntity
  8
0
  6
Continuous
 62
     7
370
    15
100
AcDbLine
 10
2614.3290642247
 20
1736.5699099358
 30
0.0
 11
2676.3692917458
 21
1798.6034166313
 31
0.0
  0
ARC
  5
3FC
330
1F
100
AcDbEntity
  8
0
  6
Continuous
 62
     7
370
    15
100
AcDbCircle
 10
2552.7519388699
 20
1799.3971797681
 30
0.0
 40
87.97163293672183
100
AcDbArc
 50
299.4866649254
 51
314.4242519221
  0
LINE
  5
3FD
330
1F
100
AcDbEntity
  8
0
  6
Continuous
 62
     7
370
    15
100
AcDbLine
 10
2523.4266603555
 20
1680.8939506828
 30
0.0
 11
2596.053422189
 21
1722.8204878579
 31
0.0
  0
LWPOLYLINE
  5
3FE
330
1F
100
AcDbEntity
  8
0
  6
Continuous
 62
     7
370
    15
100
AcDbPolyline
 90
       11
 70
   128
 43
0.0
 10
2356.7181043299
 20
1762.1052960702
 10
2369.5929286838
 20
1753.1913852396
 10
2382.7752485419
 20
1744.4285371015
 10
2396.2597692064
 20
1735.8202948369
 10
2410.0410484655
 20
1727.3701286344
 10
2424.1135123983
 20
1719.0814387313
 10
2438.4715001564
 20
1710.9575782241
 10
2453.1092033772
 20
1703.0018150511
 10
2468.0207320386
 20
1695.2173669681
 10
2483.2000749463
 20
1687.6073756972
 10
2498.6410944655
 20
1680.1748978024
  0
LWPOLYLINE
  5
3FF
330
1F
100
AcDbEntity
  8
0
  6
Continuous
 62
     7
370
    15
100
AcDbPolyline
 90
       27
 70
   128
 43
0.0
 10
2548.9355346545
 20
1712.7440714543
 10
2547.7921802164
 20
1712.2269586105
 10
2546.4676733551
 20
1711.8828290412
 10
2545.0390005577
 20
1711.7316857529
 10
2543.5891858475
 20
1711.7823152265
 10
2542.2024807745
 20
1712.0317673456
 10
2540.9594859182
 20
1712.4655500429
 10
2539.9324357086
 20
1713.0584535086
 10
2539.1810206199
 20
1713.7760191653
 10
2538.7489100556
 20
1714.5765469643
 10
2538.6612077322
 20
1715.4135071813
 10
2538.9230239551
 20
1716.2382624318
 10
2539.5191384437
 20
1717.0028839675
 10
2540.4149012202
 20
1717.6629284351
 10
2541.5582609266
 20
1718.1800443203
 10
2542.8827625196
 20
1718.5241708482
 10
2544.311435317
 20
1718.6753141365
 10
2545.7612552956
 20
1718.6246877042
 10
2547.1479551002
 20
1718.3752325438
 10
2548.3909499565
 20
1717.9414498465
 10
2549.4180001661
 20
1717.3485463808
 10
2550.1694152548
 20
1716.6309807241
 10
2550.6015310875
 20
1715.8304559665
 10
2550.6892281425
 20
1714.9934927081
 10
2550.4274119196
 20
1714.1687374576
 10
2549.8313026993
 20
1713.4041189633
 10
2548.9355346545
 20
1712.7440714543
  0
LWPOLYLINE
  5
400
330
1F
100
AcDbEntity
  8
0
  6
Continuous
 62
     7
370
    15
100
AcDbPolyline
 90
       27
 70
   128
 43
0.0
 10
2421.6563142516
 20
1786.2208013967
 10
2420.5129598136
 20
1785.7036885529
 10
2419.1884529523
 20
1785.3595589836
 10
2417.7597801549
 20
1785.2084156953
 10
2416.3099654446
 20
1785.2590451689
 10
2414.9232603716
 20
1785.508497288
 10
2413.6802655153
 20
1785.9422799853
 10
2412.6532153058
 20
1786.535183451
 10
2411.9018002171
 20
1787.2527491077
 10
2411.4696896527
 20
1788.0532769067
 10
2411.3819873293
 20
1788.8902371237
 10
2411.6438035523
 20
1789.7149923742
 10
2412.2399180409
 20
1790.4796139098
 10
2413.1356808174
 20
1791.1396583775
 10
2414.2790405238
 20
1791.6567742626
 10
2415.6035421167
 20
1792.0009007906
 10
2417.0322149141
 20
1792.1520440789
 10
2418.4820348928
 20
1792.1014176466
 10
2419.8687346974
 20
1791.8519624862
 10
2421.1117295537
 20
1791.4181797888
 10
2422.1387797633
 20
1790.8252763232
 10
2422.8901948519
 20
1790.1077106664
 10
2423.3223106847
 20
1789.3071859089
 10
2423.4100077397
 20
1788.4702226505
 10
2423.1481915167
 20
1787.6454673999
 10
2422.5520822965
 20
1786.8808489057
 10
2421.6563142516
 20
1786.2208013967
  0
LWPOLYLINE
  5
401
330
1F
100
AcDbEntity
  8
0
  6
Continuous
 62
     7
370
    15
100
AcDbPolyline
 90
       27
 70
   128
 43
0.0
 10
2599.4936708817
 20
1815.4073902858
 10
2598.3503151266
 20
1814.8902782023
 10
2597.025807936
 20
1814.5461488231
 10
2595.5971328337
 20
1814.3950068654
 10
2594.1473192759
 20
1814.4456356737
 10
2592.7606150261
 20
1814.6950873176
 10
2591.5176253147
 20
1815.1288731276
 10
2590.4905760106
 20
1815.7217760705
 10
2589.7391555301
 20
1816.4393387572
 10
2589.3070457889
 20
1817.2398660809
 10
2589.219344618
 20
1818.0768256326
 10
2589.481158536
 20
1818.9015822137
 10
2590.0772726954
 20
1819.6662039394
 10
2590.9730341547
 20
1820.3262491674
 10
2592.1163951782
 20
1820.8433642922
 10
2593.4408971004
 20
1821.1874906301
 10
2594.8695722028
 20
1821.3386325878
 10
2596.3193910289
 20
1821.2880068209
 10
2597.7060900104
 20
1821.0385521356
 10
2598.9490849902
 20
1820.604769367
 10
2599.9761342942
 20
1820.011866424
 10
2600.7275495064
 20
1819.294300696
 10
2601.1596645159
 20
1818.4937764137
 10
2601.2473604185
 20
1817.6568138206
 10
2600.9855465005
 20
1816.8320572395
 10
2600.3894376095
 20
1816.0674385551
 10
2599.4936708817
 20
1815.4073902858
  0
LWPOLYLINE
  5
402
330
1F
100
AcDbEntity
  8
0
  6
Continuous
 62
     7
370
    15
100
AcDbPolyline
 90
       26
 70
   128
 43
0.0
 10
2498.5365024511
 20
1757.2281083444
 10
2497.3679148924
 20
1756.7048262976
 10
2496.0106187708
 20
1756.3657539351
 10
2494.5498946122
 20
1756.2321950139
 10
2493.0775260696
 20
1756.3125415889
 10
2491.6860257224
 20
1756.6017448646
 10
2490.4628295952
 20
1757.0816343948
 10
2489.484795018
 20
1757.722056691
 10
2488.8133762941
 20
1758.4827721735
 10
2488.490756986
 20
1759.315979926
 10
2488.53720874
 20
1760.1693265956
 10
2488.9498181551
 20
1760.9891960958
 10
2489.7026573463
 20
1761.7240722074
 10
2490.7484207566
 20
1762.3277785739
 10
2492.0213988151
 20
1762.7623818675
 10
2493.4416083277
 20
1763.0005762127
 10
2494.9198109161
 20
1763.0273937602
 10
2496.3631254628
 20
1762.8411495979
 10
2497.6808634744
 20
1762.4535462983
 10
2498.7902276316
 20
1761.8889389549
 10
2499.6215107512
 20
1761.1828028611
 10
2500.1224797995
 20
1760.3795068094
 10
2500.26165923
 20
1759.5295265421
 10
2500.0303033247
 20
1758.6862684346
 10
2499.4429491244
 20
1757.9027180619
 10
2498.5365024511
 20
1757.2281083444
  0
LWPOLYLINE
  5
403
330
1F
100
AcDbEntity
  8
0
  6
Continuous
 62
     7
370
    15
100
AcDbPolyline
 90
       26
 70
   128
 43
0.0
 10
2557.93347127
 20
1791.5172485787
 10
2556.7648850284
 20
1790.9939672922
 10
2555.4075889068
 20
1790.6548949297
 10
2553.9468647482
 20
1790.5213360085
 10
2552.4744962056
 20
1790.6016825835
 10
2551.0829971755
 20
1790.8908866195
 10
2549.8598010483
 20
1791.3707761498
 10
2548.881766471
 20
1792.0111984459
 10
2548.210345113
 20
1792.7719124078
 10
2547.8877258049
 20
1793.6051201603
 10
2547.9341801931
 20
1794.4584683505
 10
2548.3467896082
 20
1795.2783378508
 10
2549.0996261652
 20
1796.0132124417
 10
2550.1453895755
 20
1796.6169188082
 10
2551.418368951
 20
1797.0515228621
 10
2552.8385784637
 20
1797.2897172073
 10
2554.316779735
 20
1797.3165339944
 10
2555.7600955988
 20
1797.1302905925
 10
2557.0778336104
 20
1796.7426872929
 10
2558.1871964505
 20
1796.1780791891
 10
2559.0184795701
 20
1795.4719430954
 10
2559.5194499355
 20
1794.668647804
 10
2559.658629366
 20
1793.8186675367
 10
2559.4272734607
 20
1792.9754094292
 10
2558.8399192604
 20
1792.1918590565
 10
2557.93347127
 20
1791.5172485787
  0
LINE
  5
404
330
1F
100
AcDbEntity
  8
0
  6
Continuous
 62
     7
370
    15
100
AcDbLine
 10
2526.962196158
 20
1674.7702291425
 30
0.0
 11
2526.962196158
 21
1670.6875168092
 31
0.0
  0
ARC
  5
405
330
1F
100
AcDbEntity
  8
0
  6
Continuous
 62
     7
370
    15
100
AcDbCircle
 10
2510.2630273629
 20
1703.2177902989
 30
0.0
 40
36.56611726395934
100
AcDbArc
 50
246.1501176433
 51
297.173352467
  0
LINE
  5
406
330
1F
100
AcDbEntity
  8
0
  6
Continuous
 62
     7
370
    15
100
AcDbLine
 10
2495.4778207024
 20
1673.8568396186
 30
0.0
 11
2495.4778207024
 21
1669.7741272853
 31
0.0
  0
LWPOLYLINE
  5
407
330
1F
100
AcDbEntity
  8
0
  6
Continuous
 62
     7
370
    15
100
AcDbPolyline
 90
       11
 70
   128
 43
0.0
 10
2495.4778207024
 20
1673.8568396186
 10
2479.9596829871
 20
1681.3264403196
 10
2464.7045205331
 20
1688.974447035
 10
2449.7185104879
 20
1696.7977803907
 10
2435.0076798508
 20
1704.7932773751
 10
2420.5779818641
 20
1712.9577202324
 10
2406.4352196221
 20
1721.2878075692
 10
2392.5851119253
 20
1729.7801893306
 10
2379.0332326944
 20
1738.4314287829
 10
2365.7850610196
 20
1747.2380466134
 10
2352.8459311116
 20
1756.1964768309
  0
ARC
  5
408
330
1F
100
AcDbEntity
  8
0
  6
Continuous
 62
     7
370
    15
100
AcDbCircle
 10
2359.9225994026
 20
1755.7821554217
 30
0.0
 40
7.088786661460388
100
AcDbArc
 50
116.8753682014
 51
176.6492989843
  0
LWPOLYLINE
  5
409
330
1F
100
AcDbEntity
  8
0
  6
Continuous
 62
     7
370
    15
100
AcDbPolyline
 90
       11
 70
   128
 43
0.0
 10
2352.8459311116
 20
1752.1137644977
 10
2365.7850610196
 20
1743.1553342802
 10
2379.0332326944
 20
1734.3487164496
 10
2392.5851119253
 20
1725.6974769973
 10
2406.4352196221
 20
1717.2050952359
 10
2420.5779818641
 20
1708.8750078991
 10
2435.0076798508
 20
1700.7105650419
 10
2449.7185104879
 20
1692.7150680574
 10
2464.7045205331
 20
1684.8917347017
 10
2479.9596829871
 20
1677.2437279863
 10
2495.4778207024
 20
1669.7741272853
  0
LINE
  5
40A
330
1F
100
AcDbEntity
  8
0
  6
Continuous
 62
     7
370
    15
100
AcDbLine
 10
2352.8459311116
 20
1756.1964768309
 30
0.0
 11
2352.8459311116
 21
1752.1137644977
 31
0.0
  0
LINE
  5
40B
330
1F
100
AcDbEntity
  8
0
  6
Continuous
 62
     7
370
    15
100
AcDbLine
 10
2599.5889579915
 20
1716.6967663176
 30
0.0
 11
2526.962196158
 21
1674.7702291425
 31
0.0
  0
ARC
  5
40C
330
1F
100
AcDbEntity
  8
0
  6
Continuous
 62
     7
370
    15
100
AcDbCircle
 10
2591.9128631928
 20
1716.3474495641
 30
0.0
 40
7.684038882872872
100
AcDbArc
 50
2.6055666923
 51
57.3944827486
  0
LINE
  5
40D
330
1F
100
AcDbEntity
  8
0
  6
Continuous
 62
     7
370
    15
100
AcDbLine
 10
2599.5889579915
 20
1716.6967663176
 30
0.0
 11
2599.5889579915
 21
1712.6140539843
 31
0.0
  0
LINE
  5
40E
330
1F
100
AcDbEntity
  8
0
  6
Continuous
 62
     7
370
    15
100
AcDbLine
 10
2526.962196158
 20
1670.6875168092
 30
0.0
 11
2599.5889579915
 21
1712.6140539843
 31
0.0
  0
LWPOLYLINE
  5
40F
330
1F
100
AcDbEntity
  8
0
  6
Continuous
 62
     7
370
    15
100
AcDbPolyline
 90
       13
 70
   128
 43
0.0
 10
2547.5674268784
 20
1712.152282547
 10
2547.7883290482
 20
1712.6782974433
 10
2547.6937409834
 20
1713.3024447717
 10
2547.2350726361
 20
1713.8702752885
 10
2546.4676470134
 20
1714.3133006705
 10
2545.4840291312
 20
1714.5780842713
 10
2544.4028570997
 20
1714.6326887988
 10
2543.3545385367
 20
1714.4705297146
 10
2542.4655087193
 20
1714.111165987
 10
2541.8430103035
 20
1713.5979430391
 10
2541.5621120949
 20
1712.9927616143
 10
2541.6567001597
 20
1712.3686142859
 10
2541.7830142647
 20
1712.152282547
  0
ARC
  5
410
330
1F
100
AcDbEntity
  8
0
  6
Continuous
 62
     7
370
    15
100
AcDbCircle
 10
2554.4046375623
 20
1796.6030893427
 30
0.0
 40
91.79674979021338
100
AcDbArc
 50
299.486689553
 51
314.42423314
  0
ARC
  5
411
330
1F
100
AcDbEntity
  8
0
  6
Continuous
 62
     7
370
    15
100
AcDbCircle
 10
2612.3273652768
 20
1730.5418618432
 30
0.0
 40
6.351705478446219
100
AcDbArc
 50
4.5341957476
 51
71.6305206274
  0
LINE
  5
412
330
1F
100
AcDbEntity
  8
0
  6
Continuous
 62
     7
370
    15
100
AcDbLine
 10
2618.6591920104
 20
1731.0439900145
 30
0.0
 11
2618.6591920104
 21
1726.9612776812
 31
0.0
  0
ARC
  5
413
330
1F
100
AcDbEntity
  8
0
  6
Continuous
 62
     7
370
    15
100
AcDbCircle
 10
2554.4046375623
 20
1792.5203770094
 30
0.0
 40
91.7967497901931
100
AcDbArc
 50
299.4866895529
 51
314.42423314
  0
LINE
  5
414
330
1F
100
AcDbEntity
  8
0
  6
Continuous
 62
     7
370
    15
100
AcDbLine
 10
2680.6994168149
 20
1793.0774951418
 30
0.0
 11
2618.6591920104
 21
1731.0439900145
 31
0.0
  0
ARC
  5
415
330
1F
100
AcDbEntity
  8
0
  6
Continuous
 62
     7
370
    15
100
AcDbCircle
 10
2674.3675852665
 20
1792.5753658923
 30
0.0
 40
6.35171036336308
100
AcDbArc
 50
4.5342020091
 51
71.6304636761
  0
LINE
  5
416
330
1F
100
AcDbEntity
  8
0
  6
Continuous
 62
     7
370
    15
100
AcDbLine
 10
2680.6994168149
 20
1793.0774951418
 30
0.0
 11
2680.6994168149
 21
1788.9947828085
 31
0.0
  0
LINE
  5
417
330
1F
100
AcDbEntity
  8
0
  6
Continuous
 62
     7
370
    15
100
AcDbLine
 10
2618.6591920104
 20
1726.9612776812
 30
0.0
 11
2680.6994168149
 21
1788.9947828085
 31
0.0
  0
LWPOLYLINE
  5
418
330
1F
100
AcDbEntity
  8
0
  6
Continuous
 62
     7
370
    15
100
AcDbPolyline
 90
       13
 70
   128
 43
0.0
 10
2497.1575283614
 20
1756.6363120238
 10
2497.3531564161
 20
1757.117598725
 10
2497.2623503724
 20
1757.7167799322
 10
2496.8220285401
 20
1758.2618963815
 10
2496.0853017104
 20
1758.6871997274
 10
2495.1410300104
 20
1758.9413921106
 10
2494.1031052554
 20
1758.9938133238
 10
2493.0967175383
 20
1758.8381414545
 10
2492.2432519231
 20
1758.4931526068
 10
2491.6456489593
 20
1758.0004573945
 10
2491.3759881541
 20
1757.4194821318
 10
2491.4667941978
 20
1756.8203009246
 10
2491.571617032
 20
1756.6363119288
  0
LINE
  5
419
330
1F
100
AcDbEntity
  8
0
  6
Continuous
 62
     7
370
    15
100
AcDbLine
 10
2347.5461387671
 20
1760.8208387064
 30
0.0
 11
2347.5451483161
 21
1760.6965080234
 31
0.0
  0
LWPOLYLINE
  5
41A
330
1F
100
AcDbEntity
  8
0
  6
Continuous
 62
     7
370
    15
100
AcDbPolyline
 90
       13
 70
   128
 43
0.0
 10
2420.2882064756
 20
1785.6290124894
 10
2420.5091086453
 20
1786.1550273857
 10
2420.4145205805
 20
1786.7791747141
 10
2419.9558522333
 20
1787.3470052309
 10
2419.1884266105
 20
1787.7900306129
 10
2418.2048087283
 20
1788.0548142137
 10
2417.1236366969
 20
1788.1094187412
 10
2416.0753181339
 20
1787.947259657
 10
2415.1862883165
 20
1787.5878959294
 10
2414.5637899007
 20
1787.0746729815
 10
2414.2828916921
 20
1786.4694915567
 10
2414.3774797568
 20
1785.8453442283
 10
2414.5037938618
 20
1785.6290124894
  0
LWPOLYLINE
  5
41B
330
1F
100
AcDbEntity
  8
0
  6
Continuous
 62
     7
370
    15
100
AcDbPolyline
 90
       13
 70
   128
 43
0.0
 10
2556.5544971802
 20
1790.9254522581
 10
2556.750125235
 20
1791.4067389593
 10
2556.6593191913
 20
1792.0059201665
 10
2556.2189973589
 20
1792.5510366157
 10
2555.4822705293
 20
1792.9763399616
 10
2554.5379988293
 20
1793.2305323448
 10
2553.5000740743
 20
1793.282953558
 10
2552.4936863572
 20
1793.1272816888
 10
2551.640220742
 20
1792.782292841
 10
2551.0426177781
 20
1792.2895976287
 10
2550.772956973
 20
1791.708622366
 10
2550.8637643338
 20
1791.1094419192
 10
2550.9685858509
 20
1790.925452163
  0
LWPOLYLINE
  5
41C
330
1F
100
AcDbEntity
  8
0
  6
Continuous
 62
     7
370
    15
100
AcDbPolyline
 90
       13
 70
   128
 43
0.0
 10
2598.1255596483
 20
1814.8156033743
 10
2598.3464626412
 20
1815.3416177955
 10
2598.2518740002
 20
1815.9657654565
 10
2597.7932063115
 20
1816.5335955931
 10
2597.0257824997
 20
1816.9766199296
 10
2596.0421652761
 20
1817.2414031503
 10
2594.9609926684
 20
1817.2960080104
 10
2593.9126722944
 20
1817.1338499717
 10
2593.0236437941
 20
1816.7744854838
 10
2592.4011440612
 20
1816.2612632962
 10
2592.1202476636
 20
1815.656080826
 10
2592.2148363046
 20
1815.0319331649
 10
2592.3411488455
 20
1814.8156023289
  0
ARC
  5
41D
330
1F
100
AcDbEntity
  8
0
  6
Continuous
 62
     7
370
    15
100
AcDbCircle
 10
2510.2630273629
 20
1352.1052475151
 30
0.0
 40
36.56611726396192
100
AcDbArc
 50
246.1501176433
 51
297.173352467
  0
ARC
  5
41E
330
1F
100
AcDbEntity
  8
0
  6
Continuous
 62
     7
370
    15
100
AcDbCircle
 10
2500.5490476636
 20
1318.4931029551
 30
0.0
 40
5.074024923435269
100
AcDbArc
 50
128.7111128322
 51
178.0971602551
  0
ARC
  5
41F
330
1F
100
AcDbEntity
  8
0
  6
Continuous
 62
     7
370
    15
100
AcDbCircle
 10
2510.2792592349
 20
1351.4286021398
 30
0.0
 40
31.71938463751791
100
AcDbArc
 50
245.9959655896
 51
297.3275184939
  0
ARC
  5
420
330
1F
100
AcDbEntity
  8
0
  6
Continuous
 62
     7
370
    15
100
AcDbCircle
 10
2522.356548618
 20
1319.3653843597
 30
0.0
 40
4.610413982550823
100
AcDbArc
 50
2.6055671717
 51
57.3945151329
  0
LINE
  5
421
330
1F
100
AcDbEntity
  8
0
  6
Continuous
 62
     7
370
    15
100
AcDbLine
 10
2528.0582091484
 20
1326.7393468385
 30
0.0
 11
2529.6282214023
 21
1327.6456956205
 31
0.0
  0
ARC
  5
422
330
1F
100
AcDbEntity
  8
0
  6
Continuous
 62
     7
370
    15
100
AcDbCircle
 10
2361.6840449361
 20
1412.6455716196
 30
0.0
 40
8.161873786822
100
AcDbArc
 50
184.3001492503
 51
239.0996407013
  0
LWPOLYLINE
  5
423
330
1F
100
AcDbEntity
  8
0
  6
Continuous
 62
     7
370
    15
100
AcDbPolyline
 90
        5
 70
   128
 43
0.0
 10
2357.4925421345
 20
1405.6421804427
 10
2370.3544958946
 20
1396.7371716648
 10
2383.5236606677
 20
1387.9830856768
 10
2396.9947048773
 20
1379.3834382876
 10
2403.4087953591
 20
1375.408254385
  0
LWPOLYLINE
  5
424
330
1F
100
AcDbEntity
  8
0
  6
Continuous
 62
     7
370
    15
100
AcDbPolyline
 90
        5
 70
   128
 43
0.0
 10
2445.7466691925
 20
1350.9283245124
 10
2453.7873461697
 20
1346.5977443327
 10
2468.6839864569
 20
1338.8210760414
 10
2483.8481512308
 20
1331.2186790395
 10
2499.2737502718
 20
1323.7936311804
  0
ARC
  5
425
330
1F
100
AcDbEntity
  8
0
  6
Continuous
 62
     7
370
    15
100
AcDbCircle
 10
2510.2896235338
 20
1348.5048090596
 30
0.0
 40
27.05534653075108
100
AcDbArc
 50
245.9734025536
 51
297.3500720824
  0
LINE
  5
426
330
1F
100
AcDbEntity
  8
0
  6
Continuous
 62
     7
370
    15
100
AcDbLine
 10
2522.7195521413
 20
1324.4738155156
 30
0.0
 11
2527.3511009343
 21
1327.1475517217
 31
0.0
  0
LINE
  5
427
330
1F
100
AcDbEntity
  8
0
  6
Continuous
 62
     7
370
    15
100
AcDbLine
 10
2527.3511009343
 20
1327.1475517217
 30
0.0
 11
2528.0582091484
 21
1326.7393468385
 31
0.0
  0
LWPOLYLINE
  5
428
330
1F
100
AcDbEntity
  8
0
  6
Continuous
 62
     7
370
    15
100
AcDbPolyline
 90
       11
 70
   128
 43
0.0
 10
2355.1692287205
 20
1404.5465071739
 10
2368.0697784571
 20
1395.6147891968
 10
2381.2784427297
 20
1386.8344334859
 10
2394.7899084013
 20
1378.2089938668
 10
2408.5987148208
 20
1369.7419390077
 10
2422.69929597
 20
1361.4366889146
 10
2437.0859699268
 20
1353.2965966839
 10
2451.7529283288
 20
1345.3249424194
 10
2466.6942469096
 20
1337.5249393149
 10
2481.903917109
 20
1329.8997397373
 10
2497.3757828529
 20
1322.4524108952
  0
ARC
  5
429
330
1F
100
AcDbEntity
  8
0
  6
Continuous
 62
     7
370
    15
100
AcDbCircle
 10
2510.2630273629
 20
1348.8390776485
 30
0.0
 40
36.56611726396056
100
AcDbArc
 50
246.1501176433
 51
297.173352467
  0
LINE
  5
42A
330
1F
100
AcDbEntity
  8
0
  6
Continuous
 62
     7
370
    15
100
AcDbLine
 10
2495.4778207024
 20
1315.3954146349
 30
0.0
 11
2495.4778207024
 21
1318.6615845015
 31
0.0
  0
LINE
  5
42B
330
1F
100
AcDbEntity
  8
0
  6
Continuous
 62
     7
370
    15
100
AcDbLine
 10
2526.962196158
 20
1316.3088041588
 30
0.0
 11
2526.962196158
 21
1319.5749740254
 31
0.0
  0
LWPOLYLINE
  5
42C
330
1F
100
AcDbEntity
  8
0
  6
Continuous
 62
     7
370
    15
100
AcDbPolyline
 90
       11
 70
   128
 43
0.0
 10
2495.4778207024
 20
1318.6615845015
 10
2479.9596829871
 20
1326.1311852025
 10
2464.7045205331
 20
1333.7791919179
 10
2449.7185104879
 20
1341.6025252736
 10
2435.0076798508
 20
1349.598022258
 10
2420.5779818641
 20
1357.7624651153
 10
2406.4352196221
 20
1366.0925524521
 10
2392.5851119253
 20
1374.5849342135
 10
2379.0332326944
 20
1383.2361736658
 10
2365.7850610196
 20
1392.0427914963
 10
2352.8459311116
 20
1401.0012217138
  0
ARC
  5
42D
330
1F
100
AcDbEntity
  8
0
  6
Continuous
 62
     7
370
    15
100
AcDbCircle
 10
2357.0919116544
 20
1400.7526391762
 30
0.0
 40
4.253250997572566
100
AcDbArc
 50
116.8752984747
 51
176.6494215179
  0
LWPOLYLINE
  5
42E
330
1F
100
AcDbEntity
  8
0
  6
Continuous
 62
     7
370
    15
100
AcDbPolyline
 90
       11
 70
   128
 43
0.0
 10
2352.8459311116
 20
1397.7350518472
 10
2365.7850610196
 20
1388.7766216297
 10
2379.0332326944
 20
1379.9700037992
 10
2392.5851119253
 20
1371.3187643469
 10
2406.4352196221
 20
1362.8263825855
 10
2420.5779818641
 20
1354.4962952487
 10
2435.0076798508
 20
1346.3318523914
 10
2449.7185104879
 20
1338.336355407
 10
2464.7045205331
 20
1330.5130220513
 10
2479.9596829871
 20
1322.8650153359
 10
2495.4778207024
 20
1315.3954146349
  0
LINE
  5
42F
330
1F
100
AcDbEntity
  8
0
  6
Continuous
 62
     7
370
    15
100
AcDbLine
 10
2352.8459311116
 20
1397.7350518472
 30
0.0
 11
2352.8459311116
 21
1401.0012217138
 31
0.0
  0
LINE
  5
430
330
1F
100
AcDbEntity
  8
0
  6
Continuous
 62
     7
370
    15
100
AcDbLine
 10
2599.5889579915
 20
1361.5015112005
 30
0.0
 11
2526.962196158
 21
1319.5749740254
 31
0.0
  0
LINE
  5
431
330
1F
100
AcDbEntity
  8
0
  6
Continuous
 62
     7
370
    15
100
AcDbLine
 10
2526.962196158
 20
1316.3088041588
 30
0.0
 11
2599.5889579915
 21
1358.2353413339
 31
0.0
  0
LINE
  5
432
330
1F
100
AcDbEntity
  8
0
  6
Continuous
 62
     7
370
    15
100
AcDbLine
 10
2599.5889579915
 20
1358.2353413339
 30
0.0
 11
2599.5889579915
 21
1361.5015112005
 31
0.0
  0
ARC
  5
433
330
1F
100
AcDbEntity
  8
0
  6
Continuous
 62
     7
370
    15
100
AcDbCircle
 10
2554.4046375623
 20
1441.4078342256
 30
0.0
 40
91.79674979021456
100
AcDbArc
 50
299.486689553
 51
314.42423314
  0
ARC
  5
434
330
1F
100
AcDbEntity
  8
0
  6
Continuous
 62
     7
370
    15
100
AcDbCircle
 10
2554.4046375623
 20
1438.141664359
 30
0.0
 40
91.79674979020099
100
AcDbArc
 50
299.4866895529
 51
314.42423314
  0
LINE
  5
435
330
1F
100
AcDbEntity
  8
0
  6
Continuous
 62
     7
370
    15
100
AcDbLine
 10
2618.6591920104
 20
1372.5825650308
 30
0.0
 11
2618.6591920104
 21
1375.8487348974
 31
0.0
  0
LINE
  5
436
330
1F
100
AcDbEntity
  8
0
  6
Continuous
 62
     7
370
    15
100
AcDbLine
 10
2680.6994168149
 20
1437.8822400247
 30
0.0
 11
2618.6591920104
 21
1375.8487348974
 31
0.0
  0
LINE
  5
437
330
1F
100
AcDbEntity
  8
0
  6
Continuous
 62
     7
370
    15
100
AcDbLine
 10
2618.6591920104
 20
1372.5825650308
 30
0.0
 11
2680.6994168149
 21
1434.6160701581
 31
0.0
  0
LINE
  5
438
330
1F
100
AcDbEntity
  8
0
  6
Continuous
 62
     7
370
    15
100
AcDbLine
 10
2680.6994168149
 20
1434.6160701581
 30
0.0
 11
2680.6994168149
 21
1437.8822400247
 31
0.0
  0
LINE
  5
439
330
1F
100
AcDbEntity
  8
0
  6
Continuous
 62
     8
370
    15
100
AcDbLine
 10
2499.2737502718
 20
1667.5384931217
 30
0.0
 11
2499.2737502718
 21
1323.7936311804
 31
0.0
  0
LINE
  5
43A
330
1F
100
AcDbEntity
  8
0
  6
Continuous
 62
     8
370
    15
100
AcDbLine
 10
2522.7195521413
 20
1667.9902587392
 30
0.0
 11
2522.7195521413
 21
1324.4738155156
 31
0.0
  0
LINE
  5
43B
330
1F
100
AcDbEntity
  8
0
  6
Continuous
 62
     8
370
    15
100
AcDbLine
 10
2357.4925421345
 20
1748.2346551698
 30
0.0
 11
2357.4925421345
 21
1405.6421804427
 31
0.0
  0
LINE
  5
43C
330
1F
100
AcDbEntity
  8
0
  6
Continuous
 62
     8
370
    15
100
AcDbLine
 10
2525.9110063409
 20
1669.4338349573
 30
0.0
 11
2525.9110063409
 21
1326.3162028087
 31
0.0
  0
ARC
  5
43D
330
1F
100
AcDbEntity
  8
0
  6
Continuous
 62
     8
370
    15
100
AcDbCircle
 10
2532.6879165879
 20
1672.374945679
 30
0.0
 40
3.153019555190342
100
AcDbArc
 50
3.0792777176
 51
44.9835625414
  0
ARC
  5
43E
330
1F
100
AcDbEntity
  8
0
  6
Continuous
 62
     8
370
    15
100
AcDbCircle
 10
2532.2678401322
 20
1679.5757989639
 30
0.0
 40
7.885189931068681
100
AcDbArc
 50
255.5684741664
 51
296.9082292666
  0
LINE
  5
43F
330
1F
100
AcDbEntity
  8
0
  6
Continuous
 62
     8
370
    15
100
AcDbLine
 10
2528.7653173626
 20
1328.780636655
 30
0.0
 11
2528.7653173626
 21
1671.0519161916
 31
0.0
  0
ARC
  5
440
330
1F
100
AcDbEntity
  8
0
  6
Continuous
 62
     8
370
    15
100
AcDbCircle
 10
2596.44049088
 20
1709.1785234317
 30
0.0
 40
3.153019555179891
100
AcDbArc
 50
3.0792777175
 51
44.9835625414
  0
ARC
  5
441
330
1F
100
AcDbEntity
  8
0
  6
Continuous
 62
     8
370
    15
100
AcDbCircle
 10
2616.2411390261
 20
1723.5427622913
 30
0.0
 40
2.422848138176235
100
AcDbArc
 50
3.6053502535
 51
53.4889085727
  0
ARC
  5
442
330
1F
100
AcDbEntity
  8
0
  6
Continuous
 62
     8
370
    15
100
AcDbCircle
 10
2678.2838486903
 20
1785.5768779045
 30
0.0
 40
2.420329849217879
100
AcDbArc
 50
3.5946260302
 51
53.1175144713
  0
ARC
  5
443
330
1F
100
AcDbEntity
  8
0
  6
Continuous
 62
     8
370
    15
100
AcDbCircle
 10
2678.4565411585
 20
1788.1708906078
 30
0.0
 40
3.31589384260881
100
AcDbArc
 50
312.5630815679
 51
358.3053023162
  0
ARC
  5
444
330
1F
100
AcDbEntity
  8
0
  6
Continuous
 62
     8
370
    15
100
AcDbCircle
 10
2678.5494662561
 20
1444.3661541735
 30
0.0
 40
3.223060036313757
100
AcDbArc
 50
311.839988165
 51
358.3631802251
  0
ARC
  5
445
330
1F
100
AcDbEntity
  8
0
  6
Continuous
 62
     8
370
    15
100
AcDbCircle
 10
2534.8792542677
 20
1328.6621341608
 30
0.0
 40
0.9644370737285599
100
AcDbArc
 50
304.2328975844
 51
7.0577118542
  0
ARC
  5
446
330
1F
100
AcDbEntity
  8
0
  6
Continuous
 62
     8
370
    15
100
AcDbCircle
 10
2598.6375423403
 20
1365.4631069482
 30
0.0
 40
0.9590922903224066
100
AcDbArc
 50
304.0576520553
 51
7.2540926278
  0
ARC
  5
447
330
1F
100
AcDbEntity
  8
0
  6
Continuous
 62
     8
370
    15
100
AcDbCircle
 10
2617.5196388762
 20
1379.8853934167
 30
0.0
 40
1.140482870898613
100
AcDbArc
 50
316.0827296685
 51
2.3136771044
  0
ARC
  5
448
330
1F
100
AcDbEntity
  8
0
  6
Continuous
 62
     8
370
    15
100
AcDbCircle
 10
2679.5598356734
 20
1441.9189051149
 30
0.0
 40
1.140510590123119
100
AcDbArc
 50
316.0906757179
 51
2.3132904703
  0
ARC
  5
449
330
1F
100
AcDbEntity
  8
0
  6
Continuous
 62
     8
370
    15
100
AcDbCircle
 10
2496.4059855923
 20
1669.6420361813
 30
0.0
 40
0.9375169985816045
100
AcDbArc
 50
171.9003824849
 51
236.5776604148
  0
ARC
  5
44A
330
1F
100
AcDbEntity
  8
0
  6
Continuous
 62
     8
370
    15
100
AcDbCircle
 10
2525.9608129512
 20
1670.588996068
 30
0.0
 40
1.006217999873243
100
AcDbArc
 50
305.707358847
 51
5.6189424661
  0
ARC
  5
44B
330
1F
100
AcDbEntity
  8
0
  6
Continuous
 62
     8
370
    15
100
AcDbCircle
 10
2353.8985425756
 20
1752.0362069472
 30
0.0
 40
1.055464858660543
100
AcDbArc
 50
175.7859998234
 51
231.4641858351
  0
ARC
  5
44C
330
1F
100
AcDbEntity
  8
0
  6
Continuous
 62
     8
370
    15
100
AcDbCircle
 10
2598.6089165424
 20
1712.5059011603
 30
0.0
 40
0.9859910117929589
100
AcDbArc
 50
305.0143299282
 51
6.2974147549
  0
ARC
  5
44D
330
1F
100
AcDbEntity
  8
0
  6
Continuous
 62
     8
370
    15
100
AcDbCircle
 10
2617.5196659793
 20
1726.9152322861
 30
0.0
 40
1.140455941255188
100
AcDbArc
 50
316.0676970584
 51
2.3139202456
  0
ARC
  5
44E
330
1F
100
AcDbEntity
  8
0
  6
Continuous
 62
     8
370
    15
100
AcDbCircle
 10
2679.5598356734
 20
1788.9487477328
 30
0.0
 40
1.140510590122713
100
AcDbArc
 50
316.0906757179
 51
2.3132904703
  0
ARC
  5
44F
330
1F
100
AcDbEntity
  8
0
  6
Continuous
 62
     8
370
    15
100
AcDbCircle
 10
2358.3722201717
 20
1765.5347131759
 30
0.0
 40
10.85092294736687
100
AcDbArc
 50
183.8058927849
 51
239.3833133091
  0
ARC
  5
450
330
1F
100
AcDbEntity
  8
0
  6
Continuous
 62
     8
370
    15
100
AcDbCircle
 10
2356.510708826
 20
1774.4864005858
 30
0.0
 40
2.413625883235924
100
AcDbArc
 50
52.987804263
 51
115.7170318814
  0
ARC
  5
451
330
1F
100
AcDbEntity
  8
0
  6
Continuous
 62
     8
370
    15
100
AcDbCircle
 10
2358.3806053366
 20
1761.460309458
 30
0.0
 40
10.86234419790532
100
AcDbArc
 50
184.0321630019
 51
239.36756982
  0
ARC
  5
452
330
1F
100
AcDbEntity
  8
0
  6
Continuous
 62
     8
370
    15
100
AcDbCircle
 10
2429.1258321681
 20
1816.2958348599
 30
0.0
 40
2.514884396202469
100
AcDbArc
 50
54.3822587986
 51
114.3070483701
  0
ARC
  5
453
330
1F
100
AcDbEntity
  8
0
  6
Continuous
 62
     8
370
    15
100
AcDbCircle
 10
2678.5504868995
 20
1795.4780182501
 30
0.0
 40
3.221864518402962
100
AcDbArc
 50
311.8346613099
 51
358.4720926862
  0
ARC
  5
454
330
1F
100
AcDbEntity
  8
0
  6
Continuous
 62
     8
370
    15
100
AcDbCircle
 10
2677.3572019115
 20
1798.6493787209
 30
0.0
 40
2.515066650783146
100
AcDbArc
 50
65.7079073567
 51
125.6165874626
  0
ARC
  5
455
330
1F
100
AcDbEntity
  8
0
  6
Continuous
 62
     8
370
    15
100
AcDbCircle
 10
2678.5494662561
 20
1791.3959967915
 30
0.0
 40
3.22306003631423
100
AcDbArc
 50
311.839988165
 51
358.3631802251
  0
ARC
  5
456
330
1F
100
AcDbEntity
  8
0
  6
Continuous
 62
     8
370
    15
100
AcDbCircle
 10
2566.9504643042
 20
1862.385971819
 30
0.0
 40
2.514884396203922
100
AcDbArc
 50
65.6929516299
 51
125.6177412014
  0
ARC
  5
457
330
1F
100
AcDbEntity
  8
0
  6
Continuous
 62
     8
370
    15
100
AcDbCircle
 10
2453.0912723754
 20
1827.9625006611
 30
0.0
 40
1.610676416942711
100
AcDbArc
 50
35.182277591
 51
99.4533252801
  0
ARC
  5
458
330
1F
100
AcDbEntity
  8
0
  6
Continuous
 62
     8
370
    15
100
AcDbCircle
 10
2560.5481010423
 20
1863.7775577408
 30
0.0
 40
1.610678573224397
100
AcDbArc
 50
35.182394264
 51
99.453471469
  0
LINE
  5
459
330
1F
100
AcDbEntity
  8
0
  6
Continuous
 62
     8
370
    15
100
AcDbLine
 10
2524.8408767838
 20
1323.2492008661
 30
0.0
 11
2531.6010732343
 21
1327.1517792082
 31
0.0
  0
LWPOLYLINE
  5
45A
330
1F
100
AcDbEntity
  8
0
  6
Continuous
 62
     8
370
    15
100
AcDbPolyline
 90
       11
 70
   128
 43
0.0
 10
2353.5451525967
 20
1418.1973288309
 10
2353.2351098423
 20
1417.8939047867
 10
2352.0410685506
 20
1416.4713768575
 10
2351.1860881184
 20
1414.9696824
 10
2350.6854151683
 20
1413.4156036058
 10
2350.547984832
 20
1411.8368654872
 10
2350.7762416268
 20
1410.2616310121
 10
2351.3661289186
 20
1408.7180205694
 10
2352.3070994584
 20
1407.2335584419
 10
2353.5823893374
 20
1405.8347348509
 10
2355.1692287205
 20
1404.5465071739
  0
ARC
  5
45B
330
1F
100
AcDbEntity
  8
0
  6
Continuous
 62
     8
370
    15
100
AcDbCircle
 10
2497.7982654405
 20
1315.0651907317
 30
0.0
 40
2.343824142015217
100
AcDbArc
 50
171.9005878083
 51
236.577064354
  0
ARC
  5
45C
330
1F
100
AcDbEntity
  8
0
  6
Continuous
 62
     8
370
    15
100
AcDbCircle
 10
2524.4587793817
 20
1316.0624832629
 30
0.0
 40
2.515505821812082
100
AcDbArc
 50
305.7063262148
 51
5.6194660908
  0
ARC
  5
45D
330
1F
100
AcDbEntity
  8
0
  6
Continuous
 62
     8
370
    15
100
AcDbCircle
 10
2355.477424973
 20
1397.5411559398
 30
0.0
 40
2.638627591312392
100
AcDbArc
 50
175.785900309
 51
231.4733285515
  0
ARC
  5
45E
330
1F
100
AcDbEntity
  8
0
  6
Continuous
 62
     8
370
    15
100
AcDbCircle
 10
2594.9754982234
 20
1361.2856022801
 30
0.0
 40
4.618509250179027
100
AcDbArc
 50
2.6794750301
 51
40.3548816798
  0
ARC
  5
45F
330
1F
100
AcDbEntity
  8
0
  6
Continuous
 62
     8
370
    15
100
AcDbCircle
 10
2597.1134560292
 20
1357.9764416047
 30
0.0
 40
2.489003622960039
100
AcDbArc
 50
305.3416000631
 51
5.9705587446
  0
ARC
  5
460
330
1F
100
AcDbEntity
  8
0
  6
Continuous
 62
     8
370
    15
100
AcDbCircle
 10
2615.0958979153
 20
1375.6363146648
 30
0.0
 40
3.569620030698267
100
AcDbArc
 50
3.4115612666
 51
47.7698963139
  0
ARC
  5
461
330
1F
100
AcDbEntity
  8
0
  6
Continuous
 62
     8
370
    15
100
AcDbCircle
 10
2615.8104615469
 20
1372.4674211144
 30
0.0
 40
2.851056536672318
100
AcDbArc
 50
316.0666777545
 51
2.3145999044
  0
ARC
  5
462
330
1F
100
AcDbEntity
  8
0
  6
Continuous
 62
     8
370
    15
100
AcDbCircle
 10
2677.1700801238
 20
1437.6851149554
 30
0.0
 40
3.534837446344694
100
AcDbArc
 50
3.1968363348
 51
47.6541188953
  0
ARC
  5
463
330
1F
100
AcDbEntity
  8
0
  6
Continuous
 62
     8
370
    15
100
AcDbCircle
 10
2677.8506821138
 20
1434.500905358
 30
0.0
 40
2.851061614272166
100
AcDbArc
 50
316.0888397924
 51
2.3150158069
  0
ARC
  5
464
330
1F
100
AcDbEntity
  8
0
  6
Continuous
 62
     8
370
    15
100
AcDbCircle
 10
2358.3665757913
 20
1410.3338622061
 30
0.0
 40
10.84323273929988
100
AcDbArc
 50
183.6526232374
 51
239.3939214666
  0
ARC
  5
465
330
1F
100
AcDbEntity
  8
0
  6
Continuous
 62
     8
370
    15
100
AcDbCircle
 10
2358.3806053366
 20
1407.0815968076
 30
0.0
 40
10.86234419790582
100
AcDbArc
 50
184.0321630019
 51
239.36756982
  0
ARC
  5
466
330
1F
100
AcDbEntity
  8
0
  6
Continuous
 62
     8
370
    15
100
AcDbCircle
 10
2678.5510903155
 20
1440.2823441491
 30
0.0
 40
3.221149880995123
100
AcDbArc
 50
311.8316350834
 51
358.5443104347
  0
ARC
  5
467
330
1F
100
AcDbEntity
  8
0
  6
Continuous
 62
     8
370
    15
100
AcDbCircle
 10
2678.5494662561
 20
1437.0172841411
 30
0.0
 40
3.22306003631423
100
AcDbArc
 50
311.839988165
 51
358.3631802251
  0
ENDSEC
  0
SECTION
  2
OBJECTS
  0
DICTIONARY
  5
C
330
0
100
AcDbDictionary
281
     1
  3
ACAD_GROUP
350
D
  3
ACAD_LAYOUT
350
1A
  3
ACAD_MATERIAL
350
3B
  3
ACAD_MLEADERSTYLE
350
469
  3
ACAD_MLINESTYLE
350
17
  3
ACAD_PLOTSETTINGS
350
19
  3
ACAD_PLOTSTYLENAME
350
E
  3
ACAD_TABLESTYLE
350
468
  0
DICTIONARY
  5
D
102
{ACAD_REACTORS
330
C
102
}
330
C
100
AcDbDictionary
281
     1
  0
DICTIONARY
  5
1A
102
{ACAD_REACTORS
330
C
102
}
330
C
100
AcDbDictionary
281
     1
  3
Layout1
350
1E
  3
Layout2
350
26
  3
Model
350
22
  0
DICTIONARY
  5
3B
102
{ACAD_REACTORS
330
C
102
}
330
C
100
AcDbDictionary
281
     1
  3
ByBlock
350
3D
  3
ByLayer
350
3C
  3
Global
350
3E
  0
DICTIONARY
  5
469
102
{ACAD_REACTORS
330
C
102
}
330
C
100
AcDbDictionary
281
     1
  0
DICTIONARY
  5
17
102
{ACAD_REACTORS
330
C
102
}
330
C
100
AcDbDictionary
281
     1
  3
Standard
350
18
  0
DICTIONARY
  5
19
102
{ACAD_REACTORS
330
C
102
}
330
C
100
AcDbDictionary
281
     1
  0
ACDBDICTIONARYWDFLT
  5
E
102
{ACAD_REACTORS
330
C
102
}
330
C
100
AcDbDictionary
281
     1
  3
Normal
350
F
100
AcDbDictionaryWithDefault
340
F
  0
DICTIONARY
  5
468
102
{ACAD_REACTORS
330
C
102
}
330
C
100
AcDbDictionary
281
     1
  0
LAYOUT
  5
1E
102
{ACAD_REACTORS
330
1A
102
}
330
1A
100
AcDbPlotSettings
  1

  2
none_device
  4

  6

 40
0.0
 41
0.0
 42
0.0
 43
0.0
 44
0.0
 45
0.0
 46
0.0
 47
0.0
 48
0.0
 49
0.0
140
0.0
141
0.0
142
1.0
143
1.0
 70
   688
 72
     0
 73
     0
 74
     5
  7

 75
    16
 76
     0
 77
     2
 78
   300
147
1.0
148
0.0
149
0.0
100
AcDbLayout
  1
Layout1
 70
     1
 71
     1
 10
0.0
 20
0.0
 11
420.0
 21
297.0
 12
0.0
 22
0.0
 32
0.0
 14
1.0000000000E+20
 24
1.0000000000E+20
 34
1.0000000000E+20
 15
-1.0000000000E+20
 25
-1.0000000000E+20
 35
-1.0000000000E+20
146
0.0
 13
0.0
 23
0.0
 33
0.0
 16
1.0
 26
0.0
 36
0.0
 17
0.0
 27
1.0
 37
0.0
 76
     0
330
1B
  0
LAYOUT
  5
26
102
{ACAD_REACTORS
330
1A
102
}
330
1A
100
AcDbPlotSettings
  1

  2
none_device
  4

  6

 40
0.0
 41
0.0
 42
0.0
 43
0.0
 44
0.0
 45
0.0
 46
0.0
 47
0.0
 48
0.0
 49
0.0
140
0.0
141
0.0
142
1.0
143
1.0
 70
   688
 72
     0
 73
     0
 74
     5
  7

 75
    16
 76
     0
 77
     2
 78
   300
147
1.0
148
0.0
149
0.0
100
AcDbLayout
  1
Layout2
 70
     1
 71
     2
 10
0.0
 20
0.0
 11
0.0
 21
0.0
 12
0.0
 22
0.0
 32
0.0
 14
0.0
 24
0.0
 34
0.0
 15
0.0
 25
0.0
 35
0.0
146
0.0
 13
0.0
 23
0.0
 33
0.0
 16
1.0
 26
0.0
 36
0.0
 17
0.0
 27
1.0
 37
0.0
 76
     0
330
23
  0
LAYOUT
  5
22
102
{ACAD_REACTORS
330
1A
102
}
330
1A
100
AcDbPlotSettings
  1

  2
none_device
  4

  6

 40
0.0
 41
0.0
 42
0.0
 43
0.0
 44
0.0
 45
0.0
 46
0.0
 47
0.0
 48
0.0
 49
0.0
140
0.0
141
0.0
142
1.0
143
1.0
 70
  1712
 72
     0
 73
     0
 74
     0
  7

 75
     0
 76
     0
 77
     2
 78
   300
147
1.0
148
0.0
149
0.0
100
AcDbLayout
  1
Model
 70
     1
 71
     0
 10
0.0
 20
0.0
 11
2970.0
 21
2100.0
 12
0.0
 22
0.0
 32
0.0
 14
0.0
 24
0.0
 34
0.0
 15
2970.0
 25
2100.0
 35
0.0
146
0.0
 13
0.0
 23
0.0
 33
0.0
 16
1.0
 26
0.0
 36
0.0
 17
0.0
 27
1.0
 37
0.0
 76
     0
330
1F
331
29
  0
MATERIAL
  5
3D
102
{ACAD_REACTORS
330
3B
102
}
330
3B
100
AcDbMaterial
  1
ByBlock
  0
MATERIAL
  5
3C
102
{ACAD_REACTORS
330
3B
102
}
330
3B
100
AcDbMaterial
  1
ByLayer
  0
MATERIAL
  5
3E
102
{ACAD_REACTORS
330
3B
102
}
330
3B
100
AcDbMaterial
  1
Global
  0
MLINESTYLE
  5
18
102
{ACAD_REACTORS
330
17
102
}
330
17
100
AcDbMlineStyle
  2
Standard
 70
     0
  3

 62
   256
 51
90.0
 52
90.0
 71
     2
 49
0.5
 62
   256
  6
BYLAYER
 49
-0.5
 62
   256
  6
BYLAYER
  0
ACDBPLACEHOLDER
  5
F
102
{ACAD_REACTORS
330
E
102
}
330
E
  0
ENDSEC
  0
EOF
